osu file format v14

[General]
AudioFilename: audio.mp3
AudioLeadIn: 0
PreviewTime: 178746
Countdown: 0
SampleSet: Soft
StackLeniency: 0.8
Mode: 0
LetterboxInBreaks: 0
WidescreenStoryboard: 0

[Editor]
DistanceSpacing: 1.1
BeatDivisor: 4
GridSize: 8
TimelineZoom: 2.7

[Metadata]
Title:Hikariiro no Uta
TitleUnicode:ヒカリイロの歌
Artist:Suzuki Aina
ArtistUnicode:鈴木愛奈
Creator:mx10001
Version:Delight
Source:はてな☆イリュージョン
Tags:hatena☆illusion ending ed full ver version anime japanese jpop j-pop pop mx10000 Atipir [Karcher] Karcher
BeatmapID:3788957
BeatmapSetID:1844548

[Difficulty]
HPDrainRate:6.1
CircleSize:4.3
OverallDifficulty:9.6
ApproachRate:9.7
SliderMultiplier:1.8
SliderTickRate:1

[Events]
//Background and Video events
0,0,"bg.jpg",0,0
//Break Periods
//Storyboard Layer 0 (Background)
//Storyboard Layer 1 (Fail)
//Storyboard Layer 2 (Pass)
//Storyboard Layer 3 (Foreground)
//Storyboard Layer 4 (Overlay)
//Storyboard Sound Samples

[TimingPoints]
1220,319.148936170213,4,2,1,60,1,0
1220,-100,4,2,1,60,0,1
2975,-133.333333333333,4,2,1,60,0,1
3454,-44.4444444444445,4,2,1,60,0,1
3533,-44.4444444444445,4,2,1,5,0,1
3773,-83.3333333333333,4,2,1,60,0,1
4331,-83.3333333333333,4,2,1,5,0,1
4411,-83.3333333333333,4,2,1,60,0,1
4970,-83.3333333333333,4,2,1,5,0,1
5049,-71.4285714285714,4,2,1,60,0,1
5688,-83.3333333333333,4,2,1,60,0,1
8879,-83.3333333333333,4,2,1,70,0,1
11352,-83.3333333333333,4,2,1,70,0,0
12071,-83.3333333333333,4,2,1,60,0,0
13746,-83.3333333333333,4,2,1,5,0,0
13826,-83.3333333333333,4,2,1,60,0,0
16379,-66.6666666666667,4,2,1,60,0,0
17337,-200,4,2,1,60,0,0
17496,-55.5555555555556,4,2,1,60,0,0
17735,-55.5555555555556,4,2,1,5,0,0
17815,-125,4,2,1,45,0,0
22602,-50,4,2,1,45,0,0
22682,-50,4,2,1,5,0,0
22922,-90.9090909090909,4,2,1,60,0,0
24039,-66.6666666666667,4,2,1,60,0,0
24996,-90.9090909090909,4,2,1,60,0,0
25395,-90.9090909090909,4,2,1,5,0,0
25475,-90.9090909090909,4,2,1,60,0,0
28028,-100,4,2,1,50,0,0
28267,-100,4,2,1,5,0,0
28347,-100,4,2,1,50,0,0
38480,-100,4,2,1,5,0,0
38560,-100,4,2,1,50,0,0
41033,-100,4,2,1,5,0,0
41113,-100,4,2,1,50,0,0
41831,-100,4,2,1,5,0,0
41911,-83.3333333333333,4,2,1,60,0,0
43347,-125,4,2,1,45,0,0
47177,-66.6666666666667,4,2,1,60,0,0
47337,-66.6666666666667,4,2,1,5,0,0
47416,-66.6666666666667,4,2,1,60,0,0
47576,-66.6666666666667,4,2,1,5,0,0
47656,-66.6666666666667,4,2,1,60,0,0
48134,-100,4,2,1,60,0,0
48773,-100,4,2,1,50,0,0
49730,-100,4,2,1,50,0,0
50688,-75.187969924812,4,2,1,50,0,0
50927,-75.187969924812,4,2,1,5,0,0
51007,-200,4,2,1,60,0,0
51485,-100,4,2,1,70,0,0
51645,-125,4,2,1,70,0,0
51964,-100,4,2,1,80,0,0
52443,-125,4,2,1,90,0,0
52922,-125,4,2,1,90,0,0
53081,-125,4,2,1,5,0,0
53161,-125,4,2,1,90,0,0
53241,-83.3333333333333,4,2,1,90,0,0
53321,-83.3333333333333,4,2,1,5,0,0
53400,-83.3333333333333,4,2,1,90,0,0
53560,-83.3333333333333,4,2,1,75,0,0
53799,-83.3333333333333,4,2,1,5,0,0
53879,-83.3333333333333,4,2,1,75,0,0
55395,-83.3333333333333,4,2,1,5,0,0
55475,-83.3333333333333,4,2,1,75,0,0
55515,-83.3333333333333,4,2,1,45,0,0
55794,-83.3333333333333,4,2,1,75,0,0
56113,-83.3333333333333,4,2,1,70,0,1
57629,-83.3333333333333,4,2,1,5,0,1
57709,-83.3333333333333,4,2,1,70,0,1
61220,-250,4,2,1,70,0,1
61459,-250,4,2,1,5,0,1
61539,-62.5,4,2,1,70,0,1
61778,-62.5,4,2,1,5,0,1
61858,-83.3333333333333,4,2,1,70,0,1
62496,-250,4,2,1,70,0,1
62735,-250,4,2,1,5,0,1
62815,-62.5,4,2,1,70,0,1
63055,-62.5,4,2,1,5,0,1
63134,-83.3333333333333,4,2,1,70,0,1
63773,-166.666666666667,4,2,1,70,0,1
63852,-166.666666666667,4,2,1,5,0,1
63932,-166.666666666667,4,2,1,70,0,1
64012,-166.666666666667,4,2,1,5,0,1
64092,-62.5,4,2,1,70,0,1
64331,-62.5,4,2,1,5,0,1
64411,-62.5,4,2,1,70,0,1
65608,-62.5,4,2,1,5,0,1
65688,-62.5,4,2,1,70,0,1
66326,-83.3333333333333,4,2,1,70,0,1
67842,-83.3333333333333,4,2,1,5,0,1
67922,-83.3333333333333,4,2,1,70,0,1
70235,-83.3333333333333,4,2,1,5,0,1
70315,-83.3333333333333,4,2,1,70,0,1
71432,-250,4,2,1,70,0,1
71672,-250,4,2,1,5,0,1
71751,-62.5,4,2,1,70,0,1
71991,-62.5,4,2,1,5,0,1
72071,-83.3333333333333,4,2,1,70,0,1
72709,-250,4,2,1,70,0,1
72948,-250,4,2,1,5,0,1
73028,-62.5,4,2,1,70,0,1
73267,-62.5,4,2,1,5,0,1
73347,-83.3333333333333,4,2,1,70,0,1
75821,-83.3333333333333,4,2,1,5,0,1
75900,-83.3333333333333,4,2,1,70,0,1
76539,-250,4,2,1,70,0,0
76858,-250,4,2,1,30,0,0
79092,-166.666666666667,4,2,1,30,0,0
80847,-166.666666666667,4,2,1,50,0,0
81007,-83.3333333333333,4,2,1,50,0,0
81645,-83.3333333333333,4,2,1,60,0,1
84198,-83.3333333333333,4,2,1,70,0,1
86751,-83.3333333333333,4,2,1,60,0,0
87230,-100,4,2,1,50,0,0
87868,-66.6666666666667,4,2,1,50,0,0
88985,-200,4,2,1,50,0,0
89305,-83.3333333333333,4,2,1,50,0,0
90102,-200,4,2,1,50,0,0
90422,-83.3333333333333,4,2,1,50,0,0
91220,-83.3333333333333,4,2,1,60,0,0
93214,-83.3333333333333,4,2,1,5,0,0
93294,-83.3333333333333,4,2,1,60,0,0
96964,-125,4,2,1,45,0,0
101751,-50,4,2,1,45,0,0
101831,-50,4,2,1,5,0,0
102071,-83.3333333333333,4,2,1,60,0,0
103188,-66.6666666666667,4,2,1,60,0,0
104305,-83.3333333333333,4,2,1,60,0,0
106698,-166.666666666667,4,2,1,60,0,0
107177,-100,4,2,1,50,0,0
107416,-100,4,2,1,5,0,0
107496,-100,4,2,1,50,0,0
112283,-83.3333333333333,4,2,1,60,0,0
117709,-83.3333333333333,4,2,1,50,0,0
118666,-100,4,2,1,50,0,0
122815,-250,4,2,1,30,0,0
126326,-66.6666666666667,4,2,1,50,0,0
126485,-66.6666666666667,4,2,1,5,0,0
126565,-66.6666666666667,4,2,1,50,0,0
126725,-66.6666666666667,4,2,1,5,0,0
126805,-66.6666666666667,4,2,1,50,0,0
127602,-83.3333333333333,4,2,1,60,0,0
128161,-83.3333333333333,4,2,1,5,0,0
128241,-83.3333333333333,4,2,1,60,0,0
129438,-83.3333333333333,4,2,1,5,0,0
129517,-83.3333333333333,4,2,1,60,0,0
129837,-75.187969924812,4,2,1,60,0,0
130076,-75.187969924812,4,2,1,5,0,0
130156,-75.187969924812,4,2,1,60,0,0
130315,-200,4,2,1,60,0,0
130634,-100,4,2,1,70,0,0
130794,-125,4,2,1,70,0,0
131113,-100,4,2,1,80,0,0
131592,-125,4,2,1,90,0,0
132230,-125,4,2,1,5,0,0
132310,-125,4,2,1,90,0,0
132390,-83.3333333333333,4,2,1,90,0,0
132470,-83.3333333333333,4,2,1,5,0,0
132549,-83.3333333333333,4,2,1,90,0,0
132709,-83.3333333333333,4,2,1,75,0,0
132948,-83.3333333333333,4,2,1,5,0,0
133028,-83.3333333333333,4,2,1,75,0,0
135262,-83.3333333333333,4,2,1,70,0,1
136778,-83.3333333333333,4,2,1,5,0,1
136858,-83.3333333333333,4,2,1,70,0,1
139172,-83.3333333333333,4,2,1,5,0,1
139251,-83.3333333333333,4,2,1,70,0,1
140368,-250,4,2,1,70,0,1
140608,-250,4,2,1,5,0,1
140688,-62.5,4,2,1,70,0,1
140927,-62.5,4,2,1,5,0,1
141007,-83.3333333333333,4,2,1,70,0,1
141645,-250,4,2,1,70,0,1
141884,-250,4,2,1,5,0,1
141964,-62.5,4,2,1,70,0,1
142204,-62.5,4,2,1,5,0,1
142283,-83.3333333333333,4,2,1,70,0,1
142922,-166.666666666667,4,2,1,70,0,1
143001,-166.666666666667,4,2,1,5,0,1
143081,-166.666666666667,4,2,1,70,0,1
143161,-166.666666666667,4,2,1,5,0,1
143241,-62.5,4,2,1,70,0,1
143480,-62.5,4,2,1,5,0,1
143560,-62.5,4,2,1,70,0,1
144757,-62.5,4,2,1,5,0,1
144837,-62.5,4,2,1,70,0,1
145475,-83.3333333333333,4,2,1,70,0,1
146991,-83.3333333333333,4,2,1,5,0,1
147071,-83.3333333333333,4,2,1,70,0,1
149384,-83.3333333333333,4,2,1,5,0,1
149464,-83.3333333333333,4,2,1,70,0,1
150581,-250,4,2,1,70,0,1
150821,-250,4,2,1,5,0,1
150900,-62.5,4,2,1,70,0,1
151140,-62.5,4,2,1,5,0,1
151220,-83.3333333333333,4,2,1,70,0,1
151299,-83.3333333333333,4,2,1,5,0,1
151379,-83.3333333333333,4,2,1,70,0,1
151858,-250,4,2,1,70,0,1
152097,-250,4,2,1,5,0,1
152177,-62.5,4,2,1,70,0,1
152416,-62.5,4,2,1,5,0,1
152496,-83.3333333333333,4,2,1,70,0,1
152576,-83.3333333333333,4,2,1,5,0,1
152656,-83.3333333333333,4,2,1,70,0,1
154730,-83.3333333333333,4,2,1,70,0,1
155608,-90.9090909090909,4,2,1,70,0,0
155688,-83.3333333333333,4,2,1,75,0,1
163188,-250,4,2,1,75,0,1
163666,-83.3333333333333,4,2,1,80,0,1
163906,-83.3333333333333,4,2,1,5,0,1
163985,-83.3333333333333,4,2,1,75,0,1
164305,-83.3333333333333,4,2,1,85,0,1
164544,-83.3333333333333,4,2,1,5,0,1
164624,-83.3333333333333,4,2,1,75,0,1
165182,-83.3333333333333,4,2,1,5,0,1
165262,-83.3333333333333,4,2,1,90,0,1
165900,-83.3333333333333,4,2,1,70,0,1
165980,-83.3333333333333,4,2,1,5,0,1
166060,-83.3333333333333,4,2,1,70,0,1
166140,-83.3333333333333,4,2,1,5,0,1
166220,-71.4285714285714,4,2,1,80,0,1
166459,-71.4285714285714,4,2,1,5,0,1
166539,-71.4285714285714,4,2,1,80,0,1
166778,-71.4285714285714,4,2,1,5,0,1
166858,-71.4285714285714,4,2,1,80,0,1
172922,-62.5,4,2,1,80,0,1
176113,-62.5,4,2,1,90,0,1
177310,-62.5,4,2,1,5,0,1
177390,-62.5,4,2,1,90,0,1
178666,-62.5,4,2,1,90,0,0
179305,-200,4,2,1,40,0,0
181858,-200,4,2,1,50,0,0
184411,-200,4,2,1,40,0,0
186964,-200,4,2,1,50,0,0
188081,-200,4,2,1,60,0,0
188321,-200,4,2,1,5,0,0
188400,-200,4,2,1,60,0,0
188879,-100,4,2,1,60,0,0
191432,-100,4,2,1,70,0,0
192549,-83.3333333333333,4,2,1,70,0,0
192789,-83.3333333333333,4,2,1,5,0,0
192868,-83.3333333333333,4,2,1,70,0,0
193985,-83.3333333333333,4,2,1,80,0,1
194225,-83.3333333333333,4,2,1,5,0,1
194305,-83.3333333333333,4,2,1,80,0,1
196778,-83.3333333333333,4,2,1,5,0,1
196858,-83.3333333333333,4,2,1,80,0,1
198932,-83.3333333333333,4,2,1,70,0,0
199092,-83.3333333333333,4,2,1,60,0,0
199172,-83.3333333333333,4,2,1,50,0,0
199251,-83.3333333333333,4,2,1,40,0,0
199331,-83.3333333333333,4,2,1,30,0,0
199411,-83.3333333333333,4,2,1,20,0,0
199491,-83.3333333333333,4,2,1,10,0,0
200368,-83.3333333333333,4,2,1,15,0,0
201645,-125,4,2,1,65,0,1
201725,-125,4,2,1,65,0,0
204198,-166.666666666667,4,2,1,75,0,0
204278,-166.666666666667,4,2,1,5,0,0
204358,-166.666666666667,4,2,1,75,0,0
204438,-166.666666666667,4,2,1,5,0,0
204517,-62.5,4,2,1,75,0,0
204757,-62.5,4,2,1,5,0,0
204837,-166.666666666667,4,2,1,75,0,0
204916,-166.666666666667,4,2,1,5,0,0
204996,-166.666666666667,4,2,1,75,0,0
205076,-166.666666666667,4,2,1,5,0,0
205156,-62.5,4,2,1,75,0,0
205395,-62.5,4,2,1,5,0,0
205475,-62.5,4,2,1,75,0,0
206751,-250,4,2,1,70,0,1
206991,-250,4,2,1,5,0,1
207071,-62.5,4,2,1,70,0,1
207310,-62.5,4,2,1,5,0,1
207390,-83.3333333333333,4,2,1,70,0,1
208028,-250,4,2,1,70,0,1
208267,-250,4,2,1,5,0,1
208347,-62.5,4,2,1,70,0,1
208587,-62.5,4,2,1,5,0,1
208666,-83.3333333333333,4,2,1,70,0,1
209305,-166.666666666667,4,2,1,70,0,1
209384,-166.666666666667,4,2,1,5,0,1
209464,-166.666666666667,4,2,1,70,0,1
209544,-166.666666666667,4,2,1,5,0,1
209624,-62.5,4,2,1,70,0,1
209863,-62.5,4,2,1,5,0,1
209943,-62.5,4,2,1,70,0,1
211140,-62.5,4,2,1,5,0,1
211220,-62.5,4,2,1,70,0,1
211858,-83.3333333333333,4,2,1,70,0,1
213374,-83.3333333333333,4,2,1,5,0,1
213454,-83.3333333333333,4,2,1,70,0,1
219438,-83.3333333333333,4,2,1,5,0,1
219517,-83.3333333333333,4,2,1,70,0,1
220395,-83.3333333333333,4,2,1,5,0,1
220475,-83.3333333333333,4,2,1,70,0,1
221751,-62.5,4,2,1,70,0,0
221991,-62.5,4,2,1,5,0,0
222071,-83.3333333333333,4,2,1,80,0,1
224305,-55.5555555555556,4,2,1,80,0,1
224624,-76.9230769230769,4,2,1,80,0,1
224863,-76.9230769230769,4,2,1,5,0,1
224943,-76.9230769230769,4,2,1,80,0,1
227177,-250,4,2,1,80,0,1
227416,-250,4,2,1,5,0,1
227496,-62.5,4,2,1,80,0,1
227735,-62.5,4,2,1,5,0,1
227815,-76.9230769230769,4,2,1,80,0,1
228454,-250,4,2,1,80,0,1
228693,-250,4,2,1,5,0,1
228773,-62.5,4,2,1,80,0,1
229012,-62.5,4,2,1,5,0,1
229092,-76.9230769230769,4,2,1,80,0,1
229650,-76.9230769230769,4,2,1,5,0,1
229730,-166.666666666667,4,2,1,80,0,1
229810,-166.666666666667,4,2,1,5,0,1
229890,-166.666666666667,4,2,1,80,0,1
229970,-166.666666666667,4,2,1,5,0,1
230049,-62.5,4,2,1,80,0,1
230289,-62.5,4,2,1,5,0,1
230368,-76.9230769230769,4,2,1,80,0,1
230528,-62.5,4,2,1,80,0,1
232283,-76.9230769230769,4,2,1,80,0,1
233799,-76.9230769230769,4,2,1,5,0,1
233879,-76.9230769230769,4,2,1,80,0,1
237390,-250,4,2,1,80,0,1
237629,-250,4,2,1,5,0,1
237709,-62.5,4,2,1,80,0,1
237948,-62.5,4,2,1,5,0,1
238028,-76.9230769230769,4,2,1,80,0,1
238666,-250,4,2,1,80,0,1
238906,-250,4,2,1,5,0,1
238985,-62.5,4,2,1,80,0,1
239225,-62.5,4,2,1,5,0,1
239305,-76.9230769230769,4,2,1,80,0,1
239863,-76.9230769230769,4,2,1,5,0,1
239943,-76.9230769230769,4,2,1,80,0,1
242496,-250,4,2,1,80,0,0
243134,-250,4,2,1,40,0,0
245049,-250,4,2,1,50,0,0
246805,-250,4,2,1,70,0,0
246964,-83.3333333333333,4,2,1,70,0,0
247602,-83.3333333333333,4,2,1,70,0,1
250315,-83.3333333333333,4,2,1,75,0,1
252071,-83.3333333333333,4,2,1,80,0,1
252629,-83.3333333333333,4,2,1,80,0,0
253826,-111.111111111111,4,2,1,80,0,1
255262,-83.3333333333333,4,2,1,80,0,0
255422,-83.3333333333333,4,2,1,10,0,0
256539,-83.3333333333333,4,2,1,5,0,0

[Colours]
Combo1 : 73,104,166
Combo2 : 237,201,201
Combo3 : 217,130,146
Combo4 : 130,176,217

[HitObjects]
339,260,1220,6,0,B|217:327|144:274|135:187|47:166|-47:227|-10:366|108:366|145:315|169:222,1,540,6|2,1:2|0:0,0:0:0:0:
184,150,2337,1,0,0:0:0:0:
48,32,2496,6,0,B|85:49|95:101|95:101|122:56|172:55,1,180,6|0,1:2|0:0,0:0:0:0:
459,158,2975,6,0,B|427:170|423:209|423:209|403:175|368:176,1,135.000005149842,8|4,0:3|0:3,0:0:0:0:
194,297,3454,6,0,B|214:306|220:336|220:336|235:310|264:310,1,101.250003862381,6|0,0:3|0:0,0:0:0:0:
368,176,3773,6,0,B|365:56|266:35|266:35|191:109|243:207,1,377.999988464356,14|0,0:0|0:0,0:0:0:0:
332,299,4411,6,0,B|437:357|505:281|505:281|478:179|368:176,1,377.999988464356,12|0,0:0|0:0,0:0:0:0:
242,206,5049,6,0,B|139:268|170:364|170:364|272:392|331:298,1,377.999988464356,14|8,0:0|0:3,0:0:0:0:
330,298,5608,1,8,0:3:0:0:
330,298,5688,5,10,0:3:0:0:
367,175,5847,1,8,0:3:0:0:
261,101,6007,1,6,0:3:0:0:
157,178,6166,1,4,0:3:0:0:
199,300,6326,5,6,1:2:0:0:
367,175,6485,1,2,1:2:0:0:
157,178,6645,1,2,1:2:0:0:
330,298,6805,1,2,1:2:0:0:
261,101,6964,5,2,1:2:0:0:
113,340,7124,2,0,P|167:339|200:294,1,107.999996704102,10|0,0:0|1:2,0:0:0:0:
52,131,7443,6,0,P|38:178|26:239,1,107.999996704102,10|0,0:0|1:2,0:0:0:0:
261,101,7762,1,10,0:0:0:0:
0,23,7922,1,10,0:0:0:0:
261,101,8081,1,2,1:2:0:0:
26,235,8241,1,10,0:0:0:0:
251,0,8400,1,8,0:0:0:0:
303,303,8560,1,10,0:0:0:0:
122,93,8720,6,0,P|139:71|165:62,1,53.9999983520508,10|8,0:0|0:0,0:0:0:0:
462,194,8879,1,14,1:2:0:0:
409,222,8959,1,0,1:2:0:0:
349,225,9039,1,0,1:2:0:0:
292,207,9118,1,0,1:2:0:0:
255,160,9198,1,8,1:2:0:0:
196,147,9278,1,0,1:2:0:0:
143,175,9358,1,0,1:2:0:0:
120,231,9437,1,0,1:2:0:0:
138,287,9517,5,8,1:2:0:0:
189,320,9597,1,0,1:2:0:0:
249,312,9677,1,0,1:2:0:0:
289,267,9756,1,0,1:2:0:0:
292,207,9837,1,8,1:2:0:0:
332,162,9916,1,0,1:2:0:0:
392,154,9996,1,2,1:2:0:0:
443,187,10076,1,0,1:2:0:0:
464,242,10156,6,0,P|436:243|409:226,1,53.9999983520508,10|0,1:2|1:2,0:0:0:0:
160,130,10315,1,8,0:0:0:0:
160,130,10395,1,8,0:0:0:0:
160,130,10475,2,0,P|188:131|215:114,1,53.9999983520508,10|8,0:0|0:0,0:0:0:0:
490,23,10634,1,10,0:0:0:0:
490,23,10714,1,8,0:0:0:0:
490,23,10794,5,8,0:0:0:0:
413,7,10874,1,8,0:0:0:0:
337,28,10954,1,10,0:0:0:0:
292,91,11033,1,8,0:0:0:0:
288,169,11113,1,10,0:0:0:0:
230,222,11193,1,8,0:0:0:0:
152,232,11273,1,8,0:0:0:0:
87,188,11352,1,8,0:0:0:0:
87,188,12071,5,2,0:0:0:0:
102,190,12150,5,2,0:0:0:0:
123,193,12230,5,2,0:0:0:0:
149,197,12310,5,2,0:0:0:0:
181,202,12390,5,2,0:0:0:0:
218,208,12470,5,2,0:0:0:0:
260,215,12549,5,2,0:0:0:0:
307,223,12629,5,2,0:0:0:0:
360,232,12709,6,0,B|388:227|419:194|419:194|393:265|370:334,1,215.999993408203,6|10,1:2|0:0,0:0:0:0:
188,375,13188,2,0,P|129:371|96:327,1,107.999996704102,2|0,0:0|1:2,0:0:0:0:
28,85,13507,2,0,P|94:78|102:171,1,161.999995056153,2|0,0:0|0:0,0:0:0:0:
17,199,13826,6,0,B|133:151|106:234|232:185,1,215.999993408203,2|2,0:0|0:0,0:0:0:0:
474,345,14305,1,10,0:0:0:0:
180,346,14464,1,2,0:0:0:0:
342,94,14624,5,2,1:2:0:0:
319,286,14783,1,2,0:0:0:0:
342,94,14943,1,10,0:0:0:0:
488,228,15102,1,2,0:0:0:0:
172,258,15262,5,14,0:0:0:0:
471,101,15422,1,2,1:2:0:0:
116,52,15581,5,10,0:0:0:0:
390,178,15741,1,0,1:2:0:0:
48,223,15900,5,8,0:0:0:0:
270,26,16060,2,0,P|286:53|288:88,1,53.9999983520508,2|2,1:2|0:0,0:0:0:0:
366,364,16220,1,10,0:0:0:0:
366,364,16299,1,2,0:0:0:0:
366,364,16379,6,0,B|387:340|422:338|422:338|306:293|332:393|218:338,1,270.000010299683,14|0,0:0|1:2,0:0:0:0:
139,307,16778,1,8,0:0:0:0:
139,307,16858,2,0,P|130:345|143:379,1,67.5000025749208,8|0,0:0|0:0,0:0:0:0:
271,171,17017,5,4,0:3:0:0:
269,160,17097,1,4,0:3:0:0:
267,150,17177,1,6,0:3:0:0:
265,139,17257,1,4,0:3:0:0:
264,129,17337,2,0,L|259:101,1,22.5,4|4,0:3|0:3,0:0:0:0:
276,266,17496,6,0,P|297:139|322:22,1,242.999992584229,12|0,0:0|0:0,0:0:0:0:
495,35,17815,6,0,P|486:93|416:74,2,144,6|0|0,1:2|1:2|1:2,0:0:0:0:
320,27,18613,1,2,0:0:0:0:
320,27,18773,2,0,P|312:62|307:97,1,72,2|2,1:2|0:0,0:0:0:0:
458,193,19092,6,0,B|386:180|386:180|317:208,1,144,2|2,1:2|1:2,0:0:0:0:
475,338,19571,2,0,B|409:365|409:365|338:353,1,144,2|2,0:0|0:0,0:0:0:0:
398,273,20049,1,2,1:2:0:0:
40,248,20368,6,0,P|49:306|119:287,2,144,2|0|0,1:2|1:2|1:2,0:0:0:0:
193,185,21166,1,2,0:0:0:0:
193,185,21326,2,0,P|157:191|120:201,1,72,2|2,1:2|0:0,0:0:0:0:
280,278,21645,6,0,P|297:208|313:137,1,144,2|2,1:2|1:2,0:0:0:0:
386,301,22124,2,0,P|401:230|419:160,1,144,2|2,0:0|0:0,0:0:0:0:
468,34,22602,6,0,B|487:28|504:13|504:13|494:39|475:51,1,90,10|0,0:0|0:0,0:0:0:0:
313,137,22922,6,0,B|207:103|228:178|119:130,1,198.000006042481,6|8,1:2|0:0,0:0:0:0:
176,42,23400,1,2,0:0:0:0:
266,226,23560,1,10,0:3:0:0:
386,68,23720,1,0,1:2:0:0:
386,68,23799,1,0,1:2:0:0:
386,68,23879,1,8,0:0:0:0:
201,301,24039,6,0,B|231:357|285:386|339:382|367:356|378:327|345:289|304:296|295:337,2,270.000010299683,2|2|2,1:2|1:2|1:2,0:0:0:0:
95,346,24837,1,10,0:3:0:0:
33,174,24996,1,4,0:3:0:0:
33,174,25076,1,4,0:3:0:0:
33,174,25156,2,0,P|20:218|8:279,1,99.0000030212403,14|0,0:0|0:0,0:0:0:0:
280,161,25475,5,6,1:2:0:0:
102,93,25634,1,0,1:2:0:0:
280,161,25794,2,0,P|232:141|179:123,1,99.0000030212403,8|0,0:0|0:0,0:0:0:0:
388,96,26113,5,0,1:2:0:0:
194,231,26273,1,2,1:2:0:0:
388,96,26432,1,10,0:0:0:0:
174,25,26592,1,2,0:0:0:0:
463,40,26751,6,0,P|478:62|483:94,1,49.5000015106202,2|0,1:2|0:0,0:0:0:0:
497,256,26911,5,10,0:0:0:0:
442,260,26991,5,10,0:0:0:0:
388,273,27071,5,10,0:0:0:0:
338,295,27150,5,2,1:2:0:0:
294,327,27230,5,2,1:2:0:0:
246,354,27310,5,2,1:2:0:0:
193,369,27390,6,0,P|165:373|142:367,1,49.5000015106202,2|2,1:2|1:2,0:0:0:0:
17,256,27549,5,10,0:0:0:0:
22,226,27629,1,8,0:0:0:0:
27,196,27709,1,8,0:0:0:0:
33,166,27789,1,8,0:0:0:0:
39,137,27868,1,8,0:0:0:0:
45,107,27948,1,8,0:0:0:0:
51,77,28028,6,0,B|141:57|141:57|176:85,1,135,4|0,1:2|0:0,0:0:0:0:
242,142,28347,2,0,P|202:172|150:169,1,90,10|0,0:0|0:0,0:0:0:0:
274,40,28666,1,2,1:2:0:0:
274,40,28826,1,0,0:0:0:0:
386,222,28985,2,0,P|374:266|360:322,1,90,10|0,0:0|0:0,0:0:0:0:
413,119,29305,6,0,B|321:98|341:177|235:139,1,180,2|10,1:2|0:0,0:0:0:0:
22,31,29783,2,0,P|20:79|46:124,1,90,2|0,0:0|1:2,0:0:0:0:
132,96,30102,2,0,P|134:52|116:12,1,90,2|8,0:0|0:0,0:0:0:0:
100,188,30422,1,2,0:0:0:0:
190,353,30581,6,0,B|235:354|235:354|269:323,1,90,2|0,1:2|0:0,0:0:0:0:
302,229,30900,1,10,0:0:0:0:
217,164,31060,2,0,B|193:202|193:202|203:247,1,90,2|0,0:0|1:2,0:0:0:0:
367,283,31379,2,0,B|345:243|345:243|301:229,1,90,2|8,0:0|0:0,0:0:0:0:
203,246,31698,1,2,0:0:0:0:
395,382,31858,6,0,P|407:296|431:205,1,180,2|10,1:2|0:0,0:0:0:0:
488,39,32337,2,0,P|499:82|505:127,1,90,2|0,0:0|1:2,0:0:0:0:
331,262,32656,1,8,0:0:0:0:
331,262,32735,1,8,0:0:0:0:
331,262,32815,1,8,0:0:0:0:
277,32,32975,1,8,0:0:0:0:
277,32,33055,1,8,0:0:0:0:
277,32,33134,5,4,1:2:0:0:
231,154,33294,1,0,1:2:0:0:
59,104,33454,2,0,P|89:73|142:68,1,90,10|0,0:0|0:0,0:0:0:0:
352,160,33773,1,2,1:2:0:0:
352,160,33932,1,0,1:2:0:0:
264,236,34092,2,0,P|252:193|231:154,1,90,8|0,0:0|0:0,0:0:0:0:
491,199,34411,6,0,P|448:120|423:33,1,180,2|10,1:2|0:0,0:0:0:0:
227,47,34890,2,0,P|179:53|149:87,1,90,6|0,1:2|0:0,0:0:0:0:
385,170,35209,1,2,1:2:0:0:
216,247,35368,1,10,0:0:0:0:
337,52,35528,1,0,1:2:0:0:
337,52,35608,1,0,1:2:0:0:
337,52,35688,6,0,P|325:73|318:99,1,45,12|0,0:0|1:2,0:0:0:0:
486,197,35847,2,0,P|498:218|505:244,1,45,0|0,1:2|1:2,0:0:0:0:
358,351,36007,5,10,0:0:0:0:
142,178,36166,1,0,1:2:0:0:
142,178,36246,1,0,1:2:0:0:
142,178,36326,2,0,P|117:216|120:271,1,90,10|0,0:0|1:2,0:0:0:0:
256,135,36645,1,10,0:0:0:0:
77,72,36805,1,0,1:2:0:0:
77,72,36884,1,0,1:2:0:0:
77,72,36964,5,14,0:0:0:0:
303,209,37124,1,0,1:2:0:0:
43,295,37283,1,8,0:0:0:0:
237,95,37443,2,0,P|251:114|256:140,1,45,2|0,1:2|1:2,0:0:0:0:
345,372,37602,1,0,1:2:0:0:
345,372,37682,1,0,1:2:0:0:
345,372,37762,5,8,0:0:0:0:
387,332,37842,1,8,0:0:0:0:
389,273,37922,1,8,0:0:0:0:
361,222,38001,1,8,0:0:0:0:
303,209,38081,2,0,P|278:215|259:233,1,45,8|8,0:0|0:0,0:0:0:0:
224,344,38241,5,4,1:2:0:0:
130,209,38560,5,10,0:0:0:0:
130,209,38720,1,2,1:2:0:0:
41,148,38879,5,10,0:0:0:0:
74,295,39039,1,2,1:2:0:0:
221,262,39198,1,2,1:2:0:0:
196,123,39358,1,10,0:0:0:0:
196,123,39438,1,8,0:0:0:0:
196,123,39517,5,10,0:0:0:0:
160,348,39677,1,2,1:2:0:0:
385,384,39837,1,2,1:2:0:0:
421,159,39996,2,0,P|371:167|343:202,1,90,14|0,0:0|0:0,0:0:0:0:
467,275,40315,6,0,P|443:269|425:253,1,45,2|0,1:2|0:0,0:0:0:0:
332,80,40475,1,10,0:0:0:0:
332,80,40555,1,0,1:2:0:0:
332,80,40634,1,2,1:2:0:0:
463,31,40794,6,0,P|437:95|419:165,1,135,6|0,1:2|0:0,0:0:0:0:
427,256,41113,2,0,P|404:271|375:270,1,45,10|0,0:0|0:0,0:0:0:0:
175,363,41273,2,0,P|127:357|96:320,1,90,10|8,0:0|0:0,0:0:0:0:
24,119,41592,1,2,1:2:0:0:
24,119,41911,6,0,B|141:81|119:159|239:111,1,215.999993408203,6|0,1:2|1:2,0:0:0:0:
446,10,42390,2,0,P|393:13|372:63,1,107.999996704102,8|0,0:0|0:0,0:0:0:0:
461,115,42709,1,2,1:2:0:0:
273,244,42868,1,10,0:0:0:0:
273,244,42948,1,8,0:0:0:0:
273,244,43028,1,10,0:0:0:0:
177,35,43188,1,8,0:0:0:0:
177,35,43268,1,8,0:0:0:0:
177,35,43347,6,0,P|99:33|58:86,1,144,12|2,0:0|0:0,0:0:0:0:
59,79,43826,1,2,1:2:0:0:
96,167,43985,2,0,P|174:169|215:116,1,144,10|2,0:0|0:0,0:0:0:0:
351,162,44464,6,0,P|287:140|212:122,2,144,2|0|0,1:2|1:2|1:2,0:0:0:0:
387,206,45182,1,2,0:0:0:0:
387,206,45262,1,10,0:0:0:0:
426,308,45422,1,2,0:0:0:0:
324,347,45581,1,2,1:2:0:0:
285,245,45741,1,2,0:0:0:0:
430,68,45900,6,0,P|404:146|383:219,1,144,2|0,1:2|0:0,0:0:0:0:
386,205,46379,1,0,1:2:0:0:
275,101,46539,1,10,0:0:0:0:
176,238,46698,5,8,0:3:0:0:
152,254,46778,1,8,0:3:0:0:
122,258,46858,1,6,0:3:0:0:
94,250,46938,1,4,0:3:0:0:
71,231,47017,1,6,0:3:0:0:
59,203,47097,1,4,0:3:0:0:
59,174,47177,6,0,P|127:150|192:136,1,135.000005149842,10|0,0:0|0:0,0:0:0:0:
290,200,47416,6,0,P|355:213|419:236,1,135.000005149842,2|2,1:2|0:0,0:0:0:0:
495,129,47656,5,0,1:2:0:0:
291,66,47815,5,2,1:2:0:0:
190,299,47975,1,2,1:2:0:0:
190,299,48055,1,8,0:0:0:0:
190,299,48134,2,0,L|207:343,1,45,10|8,0:0|0:0,0:0:0:0:
23,273,48294,2,0,L|39:231,1,45,10|8,0:0|0:0,0:0:0:0:
132,178,48454,5,12,0:0:0:0:
132,178,48613,1,0,0:0:0:0:
331,231,48773,2,0,P|286:216|233:201,1,90,2|0,1:2|0:0,0:0:0:0:
72,99,49092,6,0,P|97:83|128:82,1,60,2|2,1:2|0:0,0:0:0:0:
221,39,49305,1,2,0:0:0:0:
233,43,49411,2,0,P|259:56|275:82,1,60,10|2,0:0|0:0,0:0:0:0:
359,142,49624,1,2,0:0:0:0:
361,154,49730,6,0,P|360:199|323:234,1,90,2|0,1:2|0:0,0:0:0:0:
109,274,50049,1,10,0:0:0:0:
151,258,50129,1,2,0:0:0:0:
196,260,50209,1,2,0:0:0:0:
236,280,50289,1,2,0:0:0:0:
260,317,50368,2,0,P|264:345|258:366,1,45,2|10,1:2|0:0,0:0:0:0:
58,384,50528,1,2,1:2:0:0:
53,367,50608,1,2,0:0:0:0:
49,349,50689,2,0,P|66:261|89:174,1,179.549992602768,10|0,0:0|0:0,0:0:0:0:
136,102,51007,5,14,1:2:0:0:
234,167,51166,1,8,0:0:0:0:
257,171,51246,1,8,0:0:0:0:
280,166,51326,1,10,0:0:0:0:
301,155,51406,1,8,0:0:0:0:
314,135,51485,6,0,P|317:114|307:90,1,45,6|2,1:2|1:2,0:0:0:0:
154,7,51645,1,2,1:2:0:0:
110,6,51725,1,10,0:0:0:0:
70,23,51805,1,10,0:0:0:0:
45,58,51884,1,10,0:0:0:0:
45,101,51964,6,0,P|47:129|64:150,1,45,14|10,0:0|0:0,0:0:0:0:
203,254,52124,1,10,0:0:0:0:
262,268,52204,1,10,0:0:0:0:
321,257,52283,1,10,0:0:0:0:
372,223,52363,1,10,0:0:0:0:
400,168,52443,5,6,1:2:0:0:
332,142,52523,1,2,1:2:0:0:
260,143,52602,1,10,0:0:0:0:
194,173,52682,1,10,0:3:0:0:
121,177,52762,1,10,0:3:0:0:
52,154,52842,1,10,0:3:0:0:
9,95,52922,5,10,0:0:0:0:
10,86,53001,2,0,L|23:47,1,36,0|0,1:2|0:0,0:0:0:0:
168,0,53161,1,10,0:0:0:0:
183,22,53241,2,0,L|194:76,1,53.9999983520508,0|0,1:2|0:0,0:0:0:0:
100,294,53400,1,10,0:0:0:0:
9,228,53560,6,0,P|113:259|223:296,1,215.999993408203,14|0,0:0|1:2,0:0:0:0:
330,216,54039,1,0,1:2:0:0:
182,156,54198,1,0,1:2:0:0:
393,292,54358,1,8,0:0:0:0:
142,369,54517,1,8,0:0:0:0:
430,202,54677,1,8,0:0:0:0:
98,100,54837,6,0,P|85:125|81:155,1,53.9999983520508,8|0,0:0|1:2,0:0:0:0:
137,262,54996,1,0,1:2:0:0:
58,12,55156,2,0,P|105:72|181:57,1,161.999995056153,12|0,0:0|0:0,0:0:0:0:
278,44,55475,6,0,P|273:30|268:19,6,26.9999991760254,2|2|2|2|2|2|2,1:2|0:0|1:2|0:0|1:2|0:0|0:0,0:0:0:0:
355,98,55794,1,14,0:0:0:0:
335,154,55874,1,10,0:0:0:0:
319,211,55954,1,10,0:0:0:0:
310,269,56033,1,10,0:0:0:0:
305,328,56113,6,0,B|192:298|216:383|89:338,1,215.999993408203,6|8,1:2|0:0,0:0:0:0:
57,176,56592,1,0,0:0:0:0:
142,250,56751,1,2,1:2:0:0:
211,91,56911,1,2,0:0:0:0:
33,285,57071,1,10,0:0:0:0:
0,39,57230,1,2,0:0:0:0:
259,182,57390,6,0,P|305:126|294:37,1,161.999995056153,2|0,1:2|0:0,0:0:0:0:
117,108,57709,2,0,P|168:121|211:90,1,107.999996704102,10|0,0:0|0:0,0:0:0:0:
391,18,58028,1,2,1:2:0:0:
391,18,58188,1,0,1:2:0:0:
467,215,58347,2,0,P|416:227|373:196,1,107.999996704102,10|0,0:0|0:0,0:0:0:0:
46,15,58666,6,0,P|75:110|111:246,2,215.999993408203,2|8|0,1:2|0:0|1:2,0:0:0:0:
248,162,59464,1,0,0:0:0:0:
0,257,59624,1,8,0:0:0:0:
221,67,59783,6,0,P|276:67|319:97,1,107.999996704102,2|0,0:0|1:2,0:0:0:0:
499,263,60102,1,2,0:0:0:0:
265,314,60262,1,10,0:0:0:0:
369,227,60422,1,2,0:0:0:0:
169,141,60581,5,2,1:2:0:0:
390,359,60741,1,2,0:0:0:0:
318,96,60900,1,10,0:0:0:0:
147,308,61060,1,2,0:0:0:0:
103,79,61220,6,0,P|84:98|79:124,1,53.9999983520508,6|0,1:2|0:0,0:0:0:0:
0,167,61539,6,0,B|130:139|82:256|206:224,1,216,10|0,0:0|0:0,0:0:0:0:
257,156,61858,5,2,1:2:0:0:
308,138,61938,5,2,0:0:0:0:
355,143,62017,5,2,0:0:0:0:
389,168,62097,5,2,0:0:0:0:
399,204,62177,5,10,0:0:0:0:
422,226,62257,5,2,1:2:0:0:
448,233,62337,5,2,1:2:0:0:
469,230,62416,5,2,0:0:0:0:
482,220,62496,6,0,P|495:194|495:161,1,54,2|0,1:2|0:0,0:0:0:0:
512,300,62815,6,0,P|489:186|440:92,1,216,10|0,0:0|0:0,0:0:0:0:
331,66,63134,5,2,1:2:0:0:
277,56,63214,5,2,0:0:0:0:
230,71,63294,5,2,0:0:0:0:
204,106,63374,5,2,0:0:0:0:
169,122,63454,5,10,0:0:0:0:
136,122,63533,5,2,1:2:0:0:
110,114,63613,5,2,1:2:0:0:
93,99,63693,5,2,1:2:0:0:
86,83,63773,6,0,P|89:67|99:50,1,26.9999991760254,2|0,1:2|0:0,0:0:0:0:
306,189,63932,2,0,P|303:173|293:156,1,26.9999991760254,0|0,1:2|0:0,0:0:0:0:
130,251,64092,6,0,B|260:229|216:312|343:291,1,216,12|0,0:0|0:0,0:0:0:0:
406,233,64411,1,2,1:2:0:0:
235,61,64571,6,0,P|206:84|192:124,1,72,2|0,1:2|0:0,0:0:0:0:
130,349,64730,2,0,P|164:362|206:354,1,72,14|0,0:0|0:0,0:0:0:0:
432,296,64890,2,0,P|426:259|398:227,1,72,10|8,0:0|0:0,0:0:0:0:
235,61,65049,5,10,0:0:0:0:
59,253,65209,1,0,1:2:0:0:
54,239,65289,1,0,1:2:0:0:
48,225,65368,2,0,B|99:179|99:179|238:225,1,216,10|0,0:0|0:0,0:0:0:0:
301,289,65688,5,8,0:0:0:0:
350,329,65767,1,8,0:0:0:0:
415,327,65847,1,8,0:0:0:0:
470,292,65927,1,8,0:0:0:0:
497,231,66007,1,8,0:0:0:0:
487,166,66087,1,8,0:0:0:0:
437,124,66166,1,8,0:0:0:0:
426,59,66246,1,8,0:0:0:0:
457,1,66326,6,0,P|430:95|399:221,1,215.999993408203,6|8,1:2|0:0,0:0:0:0:
330,283,66805,1,0,0:0:0:0:
212,180,66964,1,2,1:2:0:0:
432,306,67124,1,2,0:0:0:0:
150,357,67283,1,10,0:0:0:0:
497,231,67443,1,2,0:0:0:0:
162,84,67602,6,0,P|116:136|120:238,1,161.999995056153,2|0,1:2|0:0,0:0:0:0:
290,239,67922,2,0,P|239:225|212:180,1,107.999996704102,10|0,0:0|0:0,0:0:0:0:
306,70,68241,1,2,1:2:0:0:
306,70,68400,1,0,1:2:0:0:
47,33,68560,2,0,P|60:82|71:144,1,107.999996704102,10|0,0:0|0:0,0:0:0:0:
208,321,68879,6,0,P|307:278|425:234,2,215.999993408203,6|8|0,1:2|0:0|1:2,0:0:0:0:
107,372,69677,1,0,1:2:0:0:
0,199,69837,1,8,0:0:0:0:
227,102,69996,6,0,P|202:153|187:207,1,107.999996704102,10|0,0:0|0:0,0:0:0:0:
208,321,70315,1,2,1:2:0:0:
458,232,70475,1,10,0:0:0:0:
227,102,70634,1,2,0:0:0:0:
319,211,70794,5,2,1:2:0:0:
484,56,70954,1,2,0:0:0:0:
386,325,71113,1,10,0:0:0:0:
227,102,71273,1,10,0:0:0:0:
227,102,71352,1,8,0:0:0:0:
227,102,71432,6,0,P|195:107|172:128,1,54,14|0,1:2|0:0,0:0:0:0:
46,145,71751,6,0,P|153:159|129:252,1,216,10|0,0:0|0:0,0:0:0:0:
62,312,72071,5,2,1:2:0:0:
111,343,72150,5,2,0:0:0:0:
165,345,72230,5,10,0:0:0:0:
212,332,72310,5,2,0:0:0:0:
247,306,72390,5,10,0:0:0:0:
283,295,72470,5,2,0:0:0:0:
315,295,72549,5,2,1:2:0:0:
340,303,72629,5,2,0:0:0:0:
361,318,72709,6,0,P|345:343|343:371,1,54,2|0,1:2|0:0,0:0:0:0:
474,312,73028,6,0,P|384:303|378:192,1,216,10|0,0:0|0:0,0:0:0:0:
443,109,73347,5,2,1:2:0:0:
385,92,73427,5,2,0:0:0:0:
331,98,73507,5,10,0:0:0:0:
289,124,73587,5,2,0:0:0:0:
246,130,73666,5,10,0:0:0:0:
208,121,73746,5,2,0:0:0:0:
185,97,73826,5,2,0:0:0:0:
179,70,73906,5,2,0:0:0:0:
184,49,73985,5,2,1:2:0:0:
91,336,74145,1,0,1:2:0:0:
283,92,74305,5,8,0:0:0:0:
235,331,74464,1,0,0:0:0:0:
387,127,74624,5,0,1:2:0:0:
379,314,74783,1,2,1:2:0:0:
497,145,74943,5,10,0:0:0:0:
512,290,75102,1,2,1:2:0:0:
512,290,75182,1,0,1:2:0:0:
512,290,75262,1,10,0:0:0:0:
158,199,75422,6,0,P|173:173|196:157,1,53.9999983520508,0|0,1:2|0:0,0:0:0:0:
424,20,75581,2,0,P|488:66|497:145,1,161.999995056153,12|0,0:0|0:0,0:0:0:0:
424,220,75900,5,10,0:3:0:0:
368,199,75980,1,8,0:3:0:0:
310,181,76060,1,8,0:0:0:0:
251,168,76140,1,8,0:0:0:0:
192,159,76220,1,8,0:0:0:0:
17,314,76379,1,2,1:2:0:0:
17,314,76459,1,0,1:2:0:0:
17,314,76539,6,0,P|81:322|114:248,1,144,6|0,1:2|0:0,0:0:0:0:
226,238,77337,2,0,L|217:284,2,36,2|2|2,0:0|0:0|0:0,0:0:0:0:
416,334,77815,2,0,P|352:342|319:268,1,144,2|2,0:0|0:0,0:0:0:0:
226,238,78613,1,2,0:0:0:0:
226,238,78773,2,0,L|219:273,1,36,2|2,0:0|0:0,0:0:0:0:
337,174,79092,6,0,L|314:286,1,107.999996704102,2|2,0:0|0:0,0:0:0:0:
316,279,79571,1,2,0:0:0:0:
137,154,79730,2,0,L|114:266,1,107.999996704102,2|2,0:0|0:0,0:0:0:0:
116,259,80209,1,2,0:0:0:0:
210,357,80368,5,2,0:0:0:0:
219,273,80528,5,2,0:0:0:0:
233,166,80688,5,2,0:0:0:0:
248,26,80847,6,0,L|250:7,1,13.4999995880127,10|2,0:0|0:0,0:0:0:0:
512,209,81007,5,10,0:0:0:0:
481,334,81166,1,10,0:3:0:0:
352,344,81326,1,6,0:3:0:0:
301,226,81485,1,6,0:3:0:0:
399,141,81645,5,6,1:2:0:0:
481,334,81804,1,2,1:2:0:0:
301,226,81964,1,2,1:2:0:0:
512,209,82124,1,2,1:2:0:0:
352,344,82283,5,2,1:2:0:0:
379,55,82443,2,0,P|437:60|476:93,1,107.999996704102,10|0,0:0|1:2,0:0:0:0:
209,336,82762,6,0,P|153:338|115:303,1,107.999996704102,10|0,0:0|1:2,0:0:0:0:
284,144,83081,1,10,0:0:0:0:
52,102,83241,1,10,0:0:0:0:
284,144,83400,1,2,1:2:0:0:
116,305,83560,1,10,0:0:0:0:
189,45,83720,1,8,0:0:0:0:
350,339,83879,1,10,0:0:0:0:
349,19,84039,6,0,P|321:29|302:55,1,53.9999983520508,10|0,0:0|0:0,0:0:0:0:
46,196,84198,1,14,1:2:0:0:
102,178,84278,1,0,1:2:0:0:
161,177,84358,1,0,1:2:0:0:
217,195,84438,1,0,1:2:0:0:
261,233,84517,1,8,1:2:0:0:
319,245,84597,1,0,1:2:0:0:
378,243,84677,1,0,1:2:0:0:
435,226,84757,1,0,1:2:0:0:
479,186,84837,5,8,1:2:0:0:
434,148,84916,1,0,1:2:0:0:
374,140,84996,1,0,1:2:0:0:
314,144,85076,1,0,1:2:0:0:
260,169,85156,1,8,1:2:0:0:
202,182,85235,1,0,1:2:0:0:
142,177,85315,1,2,1:2:0:0:
88,150,85395,1,0,1:2:0:0:
54,100,85475,6,0,P|76:79|103:75,1,53.9999983520508,10|0,0:0|1:2,0:0:0:0:
371,5,85634,1,8,0:0:0:0:
434,36,85714,1,8,0:0:0:0:
454,102,85793,1,10,0:0:0:0:
439,169,85873,1,8,0:0:0:0:
382,207,85953,1,10,0:0:0:0:
314,208,86033,1,8,0:0:0:0:
260,169,86113,5,8,0:0:0:0:
324,124,86193,1,8,0:0:0:0:
402,126,86273,1,10,0:0:0:0:
466,168,86352,1,8,0:0:0:0:
492,241,86432,1,10,0:0:0:0:
468,315,86512,1,8,0:0:0:0:
408,366,86592,1,8,0:0:0:0:
329,366,86672,1,8,0:0:0:0:
258,333,86751,6,0,B|150:301|176:396|47:345,1,215.999993408203,6|0,0:0|0:0,0:0:0:0:
64,173,87230,1,8,0:0:0:0:
64,173,87310,1,8,0:0:0:0:
64,173,87390,2,0,P|81:219|95:274,2,90,8|0|0,0:0|1:2|1:2,0:0:0:0:
107,82,87868,6,0,P|76:207|49:358,2,270,2|8|8,1:2|0:0|0:3,0:0:0:0:
298,289,88826,1,4,0:3:0:0:
298,289,88985,2,0,P|288:270|282:242,1,45,4|4,0:3|0:3,0:0:0:0:
245,159,89305,6,0,B|353:127|327:222|456:171,1,215.999993408203,6|0,0:0|0:0,0:0:0:0:
416,19,89783,1,0,1:2:0:0:
408,29,89862,1,0,1:2:0:0:
402,41,89942,1,0,1:2:0:0:
396,55,90022,1,0,1:2:0:0:
393,67,90102,2,0,P|390:80|392:94,1,22.5,0|0,1:2|1:2,0:0:0:0:
454,259,90262,1,8,0:0:0:0:
245,159,90422,6,0,B|137:127|163:222|34:171,1,215.999993408203,6|8,1:2|0:0,0:0:0:0:
159,28,90900,1,8,0:0:0:0:
484,96,91220,6,0,P|467:72|440:64,1,53.9999983520508,0|0,1:2|1:2,0:0:0:0:
310,12,91379,1,0,1:2:0:0:
310,12,91459,1,0,1:2:0:0:
310,12,91539,2,0,P|325:71|336:124,1,107.999996704102,12|0,0:0|0:0,0:0:0:0:
308,246,91858,5,2,1:2:0:0:
421,164,92017,1,2,0:0:0:0:
322,384,92177,1,10,0:0:0:0:
181,189,92337,1,2,0:0:0:0:
442,262,92496,5,2,1:2:0:0:
288,140,92656,1,2,1:2:0:0:
193,303,92815,1,2,1:2:0:0:
288,140,92975,6,0,P|288:84|248:48,1,107.999996704102,10|0,0:0|0:0,0:0:0:0:
152,18,93294,1,2,1:2:0:0:
60,239,93454,1,10,0:0:0:0:
152,18,93613,1,2,0:0:0:0:
271,241,93773,5,2,1:2:0:0:
271,241,93932,1,2,1:2:0:0:
12,156,94092,2,0,B|67:144|67:144|125:168,1,107.999996704102,10|2,0:0|1:2,0:0:0:0:
168,233,94331,1,0,1:2:0:0:
168,233,94411,6,0,B|215:252|215:252|270:240,1,107.999996704102,14|2,0:0|1:2,0:0:0:0:
361,143,94730,1,10,0:0:0:0:
265,337,94890,1,2,1:2:0:0:
239,91,95049,1,10,0:0:0:0:
417,278,95209,1,2,1:2:0:0:
469,23,95368,6,0,P|442:27|419:42,1,53.9999983520508,10|0,0:0|0:0,0:0:0:0:
149,162,95528,2,0,P|123:108|127:57,1,107.999996704102,2|8,1:2|0:0,0:0:0:0:
417,278,95847,5,2,1:2:0:0:
357,279,95927,1,2,0:0:0:0:
297,285,96007,1,10,0:0:0:0:
238,298,96087,1,2,0:0:0:0:
182,318,96166,2,0,P|154:332|134:349,1,53.9999983520508,2|2,0:0|0:0,0:0:0:0:
27,115,96326,5,10,0:3:0:0:
57,115,96406,1,2,0:0:0:0:
87,118,96486,1,10,0:0:0:0:
116,125,96566,1,10,0:0:0:0:
144,134,96645,1,10,0:0:0:0:
172,146,96725,1,2,0:0:0:0:
197,161,96805,1,10,0:0:0:0:
220,179,96885,1,10,0:0:0:0:
239,201,96964,6,0,P|208:222|173:220,1,72,6|0,1:2|0:0,0:0:0:0:
301,125,97283,1,0,1:2:0:0:
342,222,97443,2,0,L|322:296,1,72,0|0,0:0|1:2,0:0:0:0:
412,331,97762,1,2,0:0:0:0:
474,260,97922,1,2,1:2:0:0:
474,260,98081,1,2,0:0:0:0:
301,125,98241,6,0,P|231:98|164:79,1,144,2|2,1:2|1:2,0:0:0:0:
254,278,98720,2,0,P|184:258|117:232,1,144,2|2,0:0|0:0,0:0:0:0:
62,131,99198,1,2,1:2:0:0:
301,125,99517,6,0,P|335:115|369:102,1,72,2|0,1:2|0:0,0:0:0:0:
500,102,99837,1,0,1:2:0:0:
506,207,99996,2,0,P|471:197|437:184,1,72,0|0,0:0|1:2,0:0:0:0:
369,102,100315,1,2,0:0:0:0:
369,102,100475,2,0,P|335:115|301:125,1,72,2|2,1:2|0:0,0:0:0:0:
68,114,100794,6,0,B|125:157|125:157|198:151,1,144,2|2,1:2|1:2,0:0:0:0:
94,22,101273,2,0,B|167:16|167:16|224:59,1,144,2|2,0:0|0:0,0:0:0:0:
472,247,101751,6,0,B|491:235|501:209|501:209|484:224|465:230,1,90,10|0,1:2|0:0,0:0:0:0:
315,304,102071,5,6,1:2:0:0:
457,359,102230,2,0,P|428:248|401:149,1,215.999993408203,8|2,0:0|1:2,0:0:0:0:
213,139,102709,2,0,P|273:137|305:98,1,107.999996704102,10|0,0:0|1:2,0:0:0:0:
391,37,103028,1,10,0:0:0:0:
63,138,103188,6,0,P|170:146|239:299,2,270.000010299683,2|10|2,1:2|0:0|1:2,0:0:0:0:
218,364,103985,1,10,0:0:0:0:
96,357,104145,1,0,1:2:0:0:
96,357,104305,2,0,L|122:252,1,107.999996704102,2|0,0:0|0:0,0:0:0:0:
271,146,104624,5,6,1:2:0:0:
382,202,104783,2,0,P|294:181|242:280,1,215.999993408203,8|0,0:0|1:2,0:0:0:0:
477,262,105262,2,0,P|494:206|482:158,1,107.999996704102,8|2,0:0|1:2,0:0:0:0:
283,354,105581,2,0,P|258:363|231:361,1,53.9999983520508,10|8,0:0|0:0,0:0:0:0:
137,203,105741,2,0,P|110:200|85:210,1,53.9999983520508,10|8,0:0|0:0,0:0:0:0:
15,375,105900,5,10,0:0:0:0:
243,218,106060,1,0,1:2:0:0:
0,98,106220,1,10,0:0:0:0:
180,0,106379,6,0,P|161:44|144:107,1,107.999996704102,10|0,0:0|1:2,0:0:0:0:
418,272,106698,6,0,P|403:219|382:170,1,107.999996704102,10|0,0:0|0:0,0:0:0:0:
300,140,107097,1,0,1:2:0:0:
300,140,107177,6,0,P|368:132|398:71,1,135,4|0,1:2|0:0,0:0:0:0:
459,10,107496,2,0,P|486:51|487:99,1,90,10|0,0:0|0:0,0:0:0:0:
418,272,107815,1,2,1:2:0:0:
418,272,107975,1,0,0:0:0:0:
223,172,108134,2,0,P|259:141|303:140,1,90,10|0,0:0|0:0,0:0:0:0:
491,347,108454,6,0,P|401:312|309:281,1,180,2|10,1:2|0:0,0:0:0:0:
157,362,108932,2,0,P|205:365|240:344,1,90,2|0,0:0|1:2,0:0:0:0:
138,269,109251,2,0,P|177:247|221:252,1,90,2|8,0:0|0:0,0:0:0:0:
322,285,109571,1,2,0:0:0:0:
461,42,109730,6,0,B|415:36|415:36|375:61,1,90,2|0,1:2|0:0,0:0:0:0:
339,152,110049,1,10,0:0:0:0:
412,220,110209,2,0,B|440:183|440:183|438:136,1,90,2|0,0:0|1:2,0:0:0:0:
283,89,110528,2,0,B|300:131|300:131|342:153,1,90,2|8,0:0|0:0,0:0:0:0:
438,139,110847,1,2,0:0:0:0:
253,271,111007,5,2,1:2:0:0:
253,271,111166,1,0,1:2:0:0:
198,39,111326,1,10,0:0:0:0:
73,228,111485,1,10,0:3:0:0:
73,228,111565,1,8,0:3:0:0:
73,228,111645,5,8,0:3:0:0:
104,129,111805,1,4,0:3:0:0:
363,290,111964,5,4,0:3:0:0:
338,208,112124,1,4,0:3:0:0:
182,366,112283,5,4,1:2:0:0:
182,366,112443,1,0,1:2:0:0:
451,332,112602,2,0,P|415:293|362:289,1,107.999996704102,10|0,0:0|0:0,0:0:0:0:
205,212,112922,1,2,1:2:0:0:
356,120,113081,1,0,1:2:0:0:
239,305,113241,2,0,P|188:316|140:279,1,107.999996704102,8|0,0:0|0:0,0:0:0:0:
0,79,113560,6,0,B|28:66|50:38|50:38|13:192,1,215.999993408203,2|10,1:2|0:0,0:0:0:0:
69,331,114039,2,0,P|117:333|143:280,1,107.999996704102,6|0,0:0|0:0,0:0:0:0:
225,166,114358,1,2,1:2:0:0:
350,231,114517,1,10,0:0:0:0:
409,99,114677,1,0,1:2:0:0:
409,99,114757,1,0,1:2:0:0:
409,99,114837,6,0,P|386:85|356:79,1,53.9999983520508,12|0,0:0|1:2,0:0:0:0:
238,15,114996,2,0,P|208:29|194:48,1,53.9999983520508,0|0,1:2|1:2,0:0:0:0:
114,166,115156,1,10,0:0:0:0:
114,166,115315,1,0,1:2:0:0:
283,276,115475,5,10,0:0:0:0:
42,358,115634,1,0,1:2:0:0:
42,358,115714,1,0,1:2:0:0:
42,358,115794,2,0,P|4:315|6:259,1,107.999996704102,10|0,0:0|1:2,0:0:0:0:
267,96,116113,5,14,0:0:0:0:
126,275,116273,1,0,1:2:0:0:
43,59,116432,1,8,0:0:0:0:
17,159,116592,5,10,0:3:0:0:
65,162,116672,1,8,0:3:0:0:
108,141,116751,1,10,0:3:0:0:
329,254,116911,5,4,0:3:0:0:
297,255,116991,1,4,0:3:0:0:
268,242,117070,1,4,0:3:0:0:
133,367,117230,5,4,0:3:0:0:
149,367,117310,1,4,0:3:0:0:
163,361,117389,1,4,0:3:0:0:
319,158,117549,5,0,0:0:0:0:
504,241,117709,1,10,0:0:0:0:
504,241,117868,1,2,1:2:0:0:
235,107,118028,5,10,0:0:0:0:
268,242,118188,1,2,1:2:0:0:
403,209,118347,1,2,1:2:0:0:
378,82,118507,1,10,0:0:0:0:
378,82,118587,1,8,0:0:0:0:
378,82,118666,5,10,0:0:0:0:
344,311,118826,1,2,1:2:0:0:
115,277,118985,1,2,1:2:0:0:
149,48,119145,2,0,P|193:92|199:130,1,90,10|0,0:0|0:0,0:0:0:0:
83,153,119464,5,2,1:2:0:0:
283,29,119624,1,10,0:0:0:0:
40,8,119783,1,10,0:0:0:0:
40,8,119863,1,8,0:0:0:0:
40,8,119943,6,0,P|0:54|0:99,1,90,6|0,1:2|0:0,0:0:0:0:
225,234,120262,1,10,0:0:0:0:
64,326,120422,1,10,0:0:0:0:
64,326,120501,1,8,0:0:0:0:
64,326,120581,5,8,0:0:0:0:
293,158,120741,2,0,P|326:202|330:260,1,90,2|8,1:2|0:0,0:0:0:0:
247,57,121060,6,0,B|350:24|322:93|425:52,1,180,6|0,1:2|1:2,0:0:0:0:
495,147,121539,1,10,0:0:0:0:
286,323,121698,1,0,1:2:0:0:
286,323,121778,1,0,1:2:0:0:
286,323,121858,1,2,1:2:0:0:
247,57,122017,1,10,0:0:0:0:
202,51,122097,1,8,0:0:0:0:
157,59,122177,1,10,0:0:0:0:
122,88,122257,2,0,P|107:107|100:131,2,45,8|0|0,0:0|1:2|1:2,0:0:0:0:
202,155,122496,1,2,1:2:0:0:
358,310,122815,6,0,P|350:279|332:239,1,72,2|2,0:0|0:0,0:0:0:0:
267,342,123454,1,2,0:0:0:0:
267,342,123614,2,0,P|251:309|243:274,1,72,2|0,0:0|0:0,0:0:0:0:
240,182,124092,2,0,P|260:177|274:166,1,36
284,78,124411,2,0,P|269:63|253:56,1,36
171,91,124730,2,0,P|165:110|167:128,1,36,2|0,0:0|0:0,0:0:0:0:
34,270,125049,6,0,B|67:254|67:254|106:255,1,72,2|0,0:0|0:0,0:0:0:0:
50,354,125688,2,0,B|85:354|85:354|118:338,1,72,2|2,0:0|0:0,0:0:0:0:
193,279,126166,1,2,0:0:0:0:
411,358,126326,6,0,B|439:255|439:255|427:271|412:276,1,135.000005149842,10|0,0:0|0:0,0:0:0:0:
303,209,126565,6,0,B|275:106|275:106|287:122|302:127,1,135.000005149842,2|0,1:2|0:0,0:0:0:0:
415,74,126805,5,0,1:2:0:0:
245,15,126964,5,10,0:0:0:0:
197,18,127044,1,8,0:0:0:0:
156,42,127124,1,10,0:0:0:0:
136,85,127204,1,8,0:0:0:0:
143,131,127283,1,10,0:0:0:0:
175,165,127363,1,8,0:0:0:0:
221,174,127443,1,10,0:0:0:0:
266,160,127523,1,8,0:0:0:0:
296,124,127602,6,0,P|241:118|196:144,1,107.999996704102,6|0,1:2|0:0,0:0:0:0:
25,275,127922,2,0,P|108:286|124:213,1,161.999995056153,2|0,1:2|0:0,0:0:0:0:
11,83,128241,2,0,P|28:130|44:190,1,107.999996704102,2|0,1:2|0:0,0:0:0:0:
260,265,128560,1,8,0:0:0:0:
76,377,128720,1,0,0:0:0:0:
207,134,128879,5,0,1:2:0:0:
207,134,129198,2,0,P|286:143|332:75,1,161.999995056153,10|0,0:0|0:0,0:0:0:0:
423,116,129517,2,0,P|363:114|329:79,1,107.999996704102,2|0,1:2|1:2,0:0:0:0:
101,14,129837,2,0,P|81:105|64:204,1,179.549992602768,10|0,0:0|0:0,0:0:0:0:
77,273,130156,5,14,1:2:0:0:
298,210,130315,1,8,0:0:0:0:
320,208,130395,1,8,0:0:0:0:
342,211,130475,1,10,0:0:0:0:
362,220,130555,1,8,0:0:0:0:
377,236,130634,6,0,P|377:261|366:278,1,45,14|10,0:3|0:3,0:0:0:0:
208,323,130794,1,10,0:3:0:0:
204,279,130874,1,10,0:3:0:0:
198,236,130954,1,10,0:3:0:0:
189,194,131033,1,10,0:3:0:0:
178,152,131113,6,0,P|171:127|156:98,1,45,6|2,1:2|1:2,0:0:0:0:
48,13,131273,1,10,0:0:0:0:
33,71,131352,1,10,0:0:0:0:
24,131,131432,1,10,0:0:0:0:
22,192,131512,1,10,0:0:0:0:
25,253,131592,5,6,1:2:0:0:
90,283,131672,1,2,1:2:0:0:
161,276,131751,1,10,0:0:0:0:
218,232,131831,1,10,0:0:0:0:
289,222,131911,1,10,0:3:0:0:
359,236,131991,1,10,0:3:0:0:
413,283,132071,5,10,0:0:0:0:
411,293,132150,2,0,P|396:310|378:317,1,36,0|0,1:2|0:0,0:0:0:0:
198,369,132310,1,8,0:0:0:0:
166,358,132390,2,0,P|143:345|125:313,1,53.9999983520508,0|0,1:2|0:0,0:0:0:0:
74,112,132549,1,10,0:0:0:0:
151,26,132709,6,0,P|116:127|84:243,1,215.999993408203,6|8,1:2|0:0,0:0:0:0:
127,322,133188,1,8,0:0:0:0:
224,162,133347,1,8,0:0:0:0:
282,325,133507,1,8,0:0:0:0:
356,95,133666,1,8,0:0:0:0:
446,335,133826,1,8,0:0:0:0:
494,35,133985,5,8,0:0:0:0:
452,3,134064,1,8,0:0:0:0:
399,6,134144,1,8,0:0:0:0:
361,42,134224,1,8,0:0:0:0:
356,95,134304,1,12,0:0:0:0:
490,222,134464,5,0,1:2:0:0:
491,212,134544,1,0,1:2:0:0:
491,205,134624,2,0,L|466:147,1,53.9999983520508,12|8,0:0|0:0,0:0:0:0:
289,259,134783,5,0,1:2:0:0:
257,238,134863,1,0,1:2:0:0:
214,232,134943,1,8,0:0:0:0:
169,252,135023,1,8,0:0:0:0:
143,299,135102,1,8,0:0:0:0:
91,329,135182,1,8,0:0:0:0:
35,308,135262,6,0,B|152:261|122:356|242:310,1,215.999993408203,6|8,1:2|0:0,0:0:0:0:
343,245,135741,1,0,0:0:0:0:
196,194,135900,1,2,1:2:0:0:
432,140,136060,1,2,0:0:0:0:
241,310,136220,1,10,0:0:0:0:
193,75,136379,1,2,0:0:0:0:
454,332,136539,6,0,P|398:327|342:241,1,161.999995056153,2|0,1:2|0:0,0:0:0:0:
432,140,136858,2,0,P|456:187|444:238,1,107.999996704102,10|0,0:0|0:0,0:0:0:0:
291,79,137177,1,2,1:2:0:0:
291,79,137337,1,0,1:2:0:0:
259,293,137496,2,0,P|317:283|342:244,1,107.999996704102,10|0,0:0|0:0,0:0:0:0:
113,60,137815,6,0,P|86:164|62:281,2,215.999993408203,2|8|0,1:2|0:0|1:2,0:0:0:0:
198,5,138613,1,0,0:0:0:0:
306,225,138773,1,8,0:0:0:0:
479,31,138932,6,0,P|416:37|390:91,1,107.999996704102,2|0,0:0|1:2,0:0:0:0:
266,334,139251,1,2,0:0:0:0:
484,175,139411,1,10,0:0:0:0:
209,93,139571,1,2,0:0:0:0:
109,311,139730,5,2,1:2:0:0:
348,165,139890,1,2,0:0:0:0:
68,42,140049,1,10,0:0:0:0:
271,301,140209,1,10,0:0:0:0:
271,301,140289,1,8,0:0:0:0:
271,301,140368,6,0,P|298:300|322:281,1,54,6|0,1:2|0:0,0:0:0:0:
424,285,140688,6,0,B|296:266|389:184|254:159,1,216,10|0,0:0|0:0,0:0:0:0:
150,125,141007,6,0,P|178:115|192:90,1,53.9999983520508,2|0,1:2|0:0,0:0:0:0:
230,16,141166,1,0,0:0:0:0:
3,10,141326,6,0,P|0:41|15:66,1,53.9999983520508,10|0,0:0|0:0,0:0:0:0:
150,125,141485,2,0,P|160:149|156:175,1,53.9999983520508,2|0,0:0|0:0,0:0:0:0:
64,298,141645,6,0,P|53:273|57:247,1,53.9999983520508,2|0,1:2|0:0,0:0:0:0:
0,182,141964,6,0,P|101:208|217:245,1,216,10|0,0:0|0:0,0:0:0:0:
265,329,142283,6,0,P|290:320|321:313,1,53.9999983520508,2|0,1:2|0:0,0:0:0:0:
389,265,142443,1,0,0:0:0:0:
512,119,142602,2,0,P|462:95|410:81,1,107.999996704102,10|0,0:0|1:2,0:0:0:0:
139,112,142922,6,0,P|152:108|169:109,1,26.9999991760254,2|0,1:2|0:0,0:0:0:0:
287,174,143081,2,0,P|300:173|313:170,1,26.9999991760254,0|0,1:2|0:0,0:0:0:0:
123,142,143241,6,0,B|243:102|226:175|335:135,1,216,12|0,0:0|0:0,0:0:0:0:
411,81,143560,1,0,1:2:0:0:
214,297,143720,6,0,P|186:276|182:226,1,72,2|0,1:2|0:0,0:0:0:0:
237,48,143879,2,0,P|270:34|304:44,1,72,10|0,0:0|0:0,0:0:0:0:
442,193,144039,2,0,P|437:229|411:253,1,72,2|0,1:2|0:0,0:0:0:0:
214,297,144198,5,10,0:0:0:0:
99,47,144358,1,0,1:2:0:0:
85,42,144438,1,0,1:2:0:0:
71,37,144517,2,0,B|19:95|19:95|51:235,1,216,14|0,0:0|0:0,0:0:0:0:
71,312,144837,5,8,0:0:0:0:
129,333,144916,1,8,0:0:0:0:
192,326,144996,1,8,0:0:0:0:
247,295,145076,1,8,0:0:0:0:
279,240,145156,1,8,0:0:0:0:
337,216,145235,1,8,0:0:0:0:
400,220,145315,1,8,0:0:0:0:
454,252,145395,1,8,0:0:0:0:
471,313,145475,6,0,P|411:267|440:136,1,215.999993408203,6|8,1:2|0:0,0:0:0:0:
343,78,145954,1,0,0:0:0:0:
236,203,146113,1,2,1:2:0:0:
450,39,146273,1,2,0:0:0:0:
196,2,146432,1,10,0:0:0:0:
474,155,146592,1,2,0:0:0:0:
173,292,146751,6,0,P|139:246|158:136,1,161.999995056153,2|0,1:2|0:0,0:0:0:0:
314,145,147071,2,0,P|287:190|236:203,1,107.999996704102,10|0,0:0|0:0,0:0:0:0:
71,85,147390,1,2,1:2:0:0:
71,85,147549,1,0,1:2:0:0:
286,41,147709,2,0,P|302:87|315:155,1,107.999996704102,10|0,0:0|0:0,0:0:0:0:
267,367,148028,6,0,P|372:333|488:300,2,215.999993408203,2|8|0,1:2|0:0|1:2,0:0:0:0:
157,307,148826,1,0,0:0:0:0:
313,145,148985,1,8,0:0:0:0:
81,42,149145,6,0,P|51:87|55:146,1,107.999996704102,10|0,0:0|0:0,0:0:0:0:
293,263,149464,1,2,1:2:0:0:
38,353,149624,1,10,0:0:0:0:
191,135,149783,1,2,0:0:0:0:
335,380,149943,5,2,1:2:0:0:
134,230,150102,2,0,P|163:231|187:246,1,53.9999983520508,10|8,0:0|0:0,0:0:0:0:
373,282,150262,1,10,0:0:0:0:
409,286,150342,1,8,0:0:0:0:
446,275,150422,1,10,0:3:0:0:
474,250,150501,1,8,0:3:0:0:
482,213,150581,6,0,P|465:188|439:179,1,53.9999983520508,14|0,0:3|0:0,0:0:0:0:
323,147,150900,6,0,P|401:156|444:43,1,216,10|0,0:0|0:0,0:0:0:0:
357,0,151220,5,2,1:2:0:0:
117,150,151379,2,0,P|120:181|135:204,1,53.9999983520508,8|0,0:0|0:0,0:0:0:0:
325,250,151539,2,0,P|322:281|307:304,1,53.9999983520508,10|0,0:0|0:0,0:0:0:0:
100,364,151698,1,2,1:2:0:0:
100,364,151778,1,0,1:2:0:0:
100,364,151858,6,0,P|81:341|83:316,1,54,2|0,1:2|0:0,0:0:0:0:
21,257,152177,6,0,B|140:302|116:201|232:244,1,216,10|0,0:0|0:0,0:0:0:0:
310,300,152496,5,2,1:2:0:0:
505,80,152656,1,8,0:0:0:0:
203,19,152815,1,10,0:0:0:0:
421,324,152975,1,8,0:0:0:0:
421,324,153055,1,8,0:0:0:0:
421,324,153134,5,14,0:0:0:0:
327,28,153294,1,0,1:2:0:0:
280,345,153454,5,8,0:0:0:0:
229,94,153613,1,0,1:2:0:0:
135,352,153773,5,8,0:0:0:0:
116,136,153932,1,2,1:2:0:0:
0,342,154092,5,10,0:0:0:0:
10,167,154251,1,2,1:2:0:0:
10,167,154331,1,0,1:2:0:0:
10,167,154411,1,14,0:0:0:0:
252,362,154571,6,0,P|275:347|284:320,1,53.9999983520508,0|0,0:0|1:2,0:0:0:0:
358,95,154730,1,8,1:2:0:0:
373,90,154810,1,0,1:2:0:0:
394,92,154890,1,2,1:2:0:0:
416,107,154970,1,0,1:2:0:0:
429,135,155049,1,10,0:0:0:0:
416,170,155129,1,8,0:0:0:0:
381,195,155209,1,8,0:0:0:0:
332,200,155289,1,8,0:0:0:0:
284,176,155368,1,8,0:0:0:0:
263,120,155448,1,8,0:0:0:0:
211,80,155528,1,10,0:0:0:0:
147,68,155608,1,8,0:0:0:0:
77,86,155688,6,0,P|50:191|29:321,1,215.999993408203,6|8,1:2|0:0,0:0:0:0:
82,366,156166,1,2,0:0:0:0:
274,275,156326,1,2,1:2:0:0:
217,346,156485,1,2,0:0:0:0:
46,194,156645,1,10,0:0:0:0:
111,277,156805,1,2,0:0:0:0:
268,64,156964,1,2,1:2:0:0:
208,179,157124,1,2,0:0:0:0:
39,0,157283,1,10,0:0:0:0:
105,117,157443,1,0,0:0:0:0:
356,19,157602,6,0,B|433:-4|508:27|508:27|473:38|449:63,1,215.999993408203,2|8,1:2|0:0,0:0:0:0:
479,266,158081,1,2,0:0:0:0:
479,266,158161,1,2,0:0:0:0:
479,266,158241,2,0,B|351:225|402:328|265:271,1,215.999993408203,2|8,1:2|0:0,0:0:0:0:
184,215,158720,1,2,0:0:0:0:
373,95,158879,1,2,1:2:0:0:
324,189,159039,1,2,0:0:0:0:
115,40,159198,2,0,P|159:19|218:23,1,107.999996704102,10|2,0:0|0:0,0:0:0:0:
512,202,159517,5,2,1:2:0:0:
464,17,159677,1,2,0:0:0:0:
238,255,159837,1,10,0:0:0:0:
274,106,159996,1,0,0:0:0:0:
434,338,160156,1,2,1:2:0:0:
399,223,160315,1,2,0:0:0:0:
434,338,160475,2,0,P|386:355|333:331,1,107.999996704102,10|0,0:0|0:0,0:0:0:0:
188,205,160794,5,6,1:2:0:0:
324,179,160954,1,0,0:0:0:0:
188,205,161113,1,8,0:0:0:0:
324,179,161273,1,2,0:0:0:0:
81,156,161432,5,2,1:2:0:0:
430,227,161592,1,2,0:0:0:0:
81,156,161751,1,10,0:0:0:0:
430,227,161911,1,2,0:0:0:0:
273,104,162071,5,2,1:2:0:0:
238,279,162231,1,0,0:0:0:0:
273,104,162390,1,8,0:0:0:0:
238,279,162550,1,2,0:0:0:0:
221,16,162709,5,2,1:2:0:0:
291,366,162869,1,2,0:0:0:0:
221,16,163028,1,10,0:0:0:0:
291,366,163188,2,0,L|284:334,1,18,2|2,1:2|1:2,0:0:0:0:
165,253,163347,5,6,1:2:0:0:
352,203,163507,1,0,0:0:0:0:
150,348,163666,2,0,P|127:266|98:184,1,161.999995056153,14|0,0:0|0:0,0:0:0:0:
113,95,163985,5,2,1:2:0:0:
416,141,164145,1,0,0:0:0:0:
101,10,164305,2,0,P|78:92|49:174,1,161.999995056153,14|0,0:0|0:0,0:0:0:0:
82,276,164624,5,2,1:2:0:0:
440,223,164783,1,2,1:2:0:0:
71,358,164943,2,0,P|48:276|19:194,1,161.999995056153,14|0,0:0|0:0,0:0:0:0:
0,93,165262,5,14,0:0:0:0:
501,166,165422,1,10,0:3:0:0:
120,166,165581,5,6,0:3:0:0:
388,90,165741,1,6,0:3:0:0:
260,130,165900,5,2,1:2:0:0:
260,130,166060,1,0,1:2:0:0:
432,370,166220,6,0,B|373:357|373:357|379:354|379:354|320:343,1,125.999996154785,14|0,0:0|0:0,0:0:0:0:
14,298,166539,2,0,B|68:286|68:286|66:293|66:293|128:279|128:279|125:286|125:286|183:272|183:272|180:279|180:279|230:269,1,251.999992309571,2|8,1:2|0:0,0:0:0:0:
343,230,167017,1,2,0:2:0:0:
185,82,167177,6,0,B|168:111|168:111|173:144,1,62.9999980773926,2|0,1:2|0:0,0:0:0:0:
437,225,167337,1,2,0:0:0:0:
437,225,167416,1,2,0:0:0:0:
437,225,167496,2,0,B|441:254|441:254|424:283,1,62.9999980773926,10|0,0:0|0:0,0:0:0:0:
203,355,167656,1,2,0:0:0:0:
301,139,167815,5,0,1:2:0:0:
301,139,167975,1,0,0:0:0:0:
93,30,168134,2,0,B|59:88|59:88|69:154,1,125.999996154785,8|0,0:0|0:0,0:0:0:0:
0,307,168454,6,0,P|32:301|53:280,1,62.9999980773926,2|0,1:2|0:0,0:0:0:0:
126,348,168613,2,0,P|144:320|144:291,1,62.9999980773926,2|0,0:0|0:0,0:0:0:0:
260,95,168773,6,0,P|288:111|300:138,1,62.9999980773926,10|0,0:0|0:0,0:0:0:0:
392,98,168932,2,0,P|400:129|390:157,1,62.9999980773926,2|0,0:0|0:0,0:0:0:0:
463,336,169092,5,2,1:2:0:0:
364,366,169251,2,0,P|349:356|357:336,3,41.9999987182618,2|2|2|10,0:0|0:0|0:0|0:0,0:0:0:0:
287,272,169571,1,2,0:0:0:0:
408,223,169730,5,2,1:2:0:0:
241,369,169890,1,2,0:0:0:0:
202,161,170049,1,10,0:0:0:0:
202,161,170129,1,0,0:0:0:0:
202,161,170209,1,2,0:0:0:0:
485,162,170368,6,0,P|502:189|505:219,1,62.9999980773926,2|0,1:2|0:0,0:0:0:0:
331,284,170528,2,0,P|314:257|311:227,1,62.9999980773926,2|0,0:0|0:0,0:0:0:0:
371,117,170688,1,10,0:0:0:0:
79,31,170847,1,10,0:0:0:0:
79,31,170927,1,8,0:0:0:0:
79,31,171007,5,6,1:2:0:0:
253,139,171166,1,2,0:0:0:0:
41,218,171326,1,10,0:0:0:0:
253,139,171485,1,2,0:0:0:0:
79,31,171645,5,2,1:2:0:0:
345,114,171805,1,2,0:0:0:0:
114,282,171964,1,10,0:0:0:0:
345,114,172124,1,2,0:0:0:0:
79,31,172283,5,2,1:2:0:0:
410,179,172443,1,2,0:0:0:0:
105,373,172602,1,10,0:0:0:0:
410,179,172762,2,0,P|377:181|348:205,1,62.9999980773926,0|0,1:2|1:2,0:0:0:0:
221,340,172922,6,0,P|133:349|83:241,2,216,10|14|14,0:0|0:0|0:0,0:0:0:0:
221,80,173560,6,0,B|184:63|184:63|190:60|190:60|144:40|144:40|155:90|155:90|162:99|162:99|177:159|177:159|174:169|174:169|187:226,1,288,6|8,1:2|0:0,0:0:0:0:
491,273,174039,2,0,B|430:311|366:273|366:273|370:289|370:289|296:263|291:178,1,288,2|0,0:0|0:0,0:0:0:0:
421,145,174517,1,10,0:0:0:0:
240,345,174677,1,2,0:0:0:0:
240,345,174757,1,2,0:0:0:0:
240,345,174837,6,0,B|172:328|172:328|178:326|178:326|106:306,1,144,2|0,1:2|0:0,0:0:0:0:
1,253,175076,1,2,0:0:0:0:
3,241,175156,2,0,B|71:224|71:224|65:222|65:222|137:202,1,144,10|0,0:0|0:0,0:0:0:0:
256,153,175395,1,2,0:0:0:0:
251,141,175475,5,2,1:2:0:0:
302,115,175555,1,2,1:2:0:0:
359,115,175634,1,2,1:2:0:0:
412,136,175714,1,2,1:2:0:0:
434,189,175794,1,10,0:0:0:0:
316,283,175954,1,2,1:2:0:0:
228,53,176113,5,14,0:0:0:0:
439,316,176273,1,0,1:2:0:0:
138,106,176432,1,0,1:2:0:0:
447,24,176592,5,14,0:0:0:0:
157,315,176751,1,0,1:2:0:0:
512,103,176911,1,0,1:2:0:0:
66,22,177071,6,0,B|33:84|33:84|43:161,1,144,14|0,0:0|0:0,0:0:0:0:
273,346,177390,5,2,1:2:0:0:
146,70,177549,2,0,B|129:101|129:101|134:139,1,72,12|0,0:0|0:0,0:0:0:0:
458,313,177709,2,0,B|415:310|388:333|388:333|386:299|352:274,1,144,12|0,0:0|1:2,0:0:0:0:
4,236,178028,5,8,0:0:0:0:
42,300,178108,1,8,0:0:0:0:
111,327,178188,1,8,0:0:0:0:
185,321,178267,1,8,0:0:0:0:
250,283,178347,1,8,0:0:0:0:
289,218,178427,1,8,0:0:0:0:
295,142,178507,1,8,0:0:0:0:
267,71,178587,1,8,0:0:0:0:
208,23,178666,1,4,1:2:0:0:
20,190,179305,6,0,P|45:189|65:203,1,45,2|2,0:0|0:0,0:0:0:0:
100,287,179624,2,0,P|119:297|141:296,1,45,2|2,0:0|0:0,0:0:0:0:
215,239,179943,2,0,P|258:242|296:274,1,90,2|2,0:0|0:0,0:0:0:0:
427,380,180581,2,0,P|408:341|416:292,1,90,2|2,0:0|0:0,0:0:0:0:
443,126,181220,2,0,P|418:161|372:178,1,90,2|0,0:0|0:0,0:0:0:0:
127,98,181858,6,0,L|143:147,3,45,2|2|2|2,0:0|0:0|0:0|0:0,0:0:0:0:
236,133,182496,2,0,L|209:48,1,90,2|2,0:0|0:0,0:0:0:0:
58,190,183134,2,0,L|30:104,1,90,2|2,0:0|0:0,0:0:0:0:
100,8,183773,1,2,0:0:0:0:
222,267,184411,6,0,P|241:256|264:255,1,45,2|2,0:0|0:0,0:0:0:0:
355,298,184730,2,0,P|377:297|396:285,1,45,2|2,0:0|0:0,0:0:0:0:
454,197,185049,2,0,P|455:150|421:118,1,90,2|2,0:0|0:0,0:0:0:0:
253,191,185688,2,0,P|290:215|333:206,1,90,2|2,0:0|0:0,0:0:0:0:
358,21,186326,2,0,P|318:41|305:83,1,90,2|0,0:0|0:0,0:0:0:0:
143,226,186964,6,0,L|159:177,3,45,2|2|2|2,0:0|0:0|0:0|0:0,0:0:0:0:
253,191,187602,2,0,L|225:276,1,90,2|2,0:0|0:0,0:0:0:0:
46,219,188081,2,0,L|74:134,1,90,10|0,0:0|1:2,0:0:0:0:
189,89,188560,1,2,1:2:0:0:
189,89,188720,1,0,1:2:0:0:
393,249,188879,5,14,0:0:0:0:
136,332,189039,1,0,1:2:0:0:
328,135,189198,5,8,0:0:0:0:
63,58,189358,1,0,1:2:0:0:
229,258,189517,5,8,0:0:0:0:
309,17,189677,1,0,1:2:0:0:
229,258,189837,1,2,1:2:0:0:
494,91,189996,6,0,P|458:60|406:62,1,90,8|2,0:0|1:2,0:0:0:0:
229,258,190315,1,8,0:0:0:0:
144,174,190475,2,0,P|180:143|232:145,1,90,10|0,0:0|1:2,0:0:0:0:
489,244,190794,5,10,0:0:0:0:
373,358,190954,1,0,1:2:0:0:
336,204,191113,1,10,0:0:0:0:
41,189,191273,5,0,1:2:0:0:
41,189,191352,1,0,1:2:0:0:
41,189,191432,1,14,0:0:0:0:
206,357,191592,1,0,1:2:0:0:
283,111,191751,1,0,1:2:0:0:
206,357,191911,1,8,0:0:0:0:
136,59,192071,5,2,1:2:0:0:
336,321,192230,1,0,1:2:0:0:
405,9,192390,1,8,0:0:0:0:
52,185,192549,6,0,B|173:143|149:230|263:190,1,215.999993408203,14|8,0:0|0:0,0:0:0:0:
506,122,193028,1,8,0:0:0:0:
461,273,193188,1,0,1:2:0:0:
461,273,193267,1,0,1:2:0:0:
461,273,193347,2,0,P|433:264|410:238,1,53.9999983520508,8|8,0:3|0:3,0:0:0:0:
304,71,193507,1,8,0:3:0:0:
304,71,193587,1,8,0:3:0:0:
304,71,193666,5,10,0:0:0:0:
247,45,193746,1,8,0:0:0:0:
184,43,193826,1,10,0:0:0:0:
129,73,193906,1,8,0:0:0:0:
100,127,193985,6,0,P|126:206|151:299,1,161.999995056153,14|0,0:0|0:0,0:0:0:0:
162,370,194305,5,8,0:0:0:0:
405,209,194464,1,0,1:2:0:0:
85,229,194624,5,8,0:0:0:0:
359,347,194783,1,0,1:2:0:0:
23,313,194943,5,10,0:0:0:0:
256,104,195102,1,0,1:2:0:0:
448,380,195262,5,10,0:0:0:0:
188,197,195422,1,0,1:2:0:0:
512,113,195581,5,8,0:0:0:0:
220,315,195741,1,0,1:2:0:0:
420,27,195900,5,10,0:0:0:0:
332,382,196060,1,0,1:2:0:0:
291,10,196220,5,10,0:0:0:0:
462,381,196379,1,0,1:2:0:0:
462,381,196459,1,0,1:2:0:0:
462,381,196539,2,0,P|477:300|499:214,1,161.999995056153,14|0,0:0|0:0,0:0:0:0:
477,138,196858,5,0,1:2:0:0:
347,220,197017,1,10,0:0:0:0:
292,69,197177,1,10,0:0:0:0:
471,232,197337,1,10,0:0:0:0:
234,310,197496,1,8,0:0:0:0:
390,103,197656,1,8,0:0:0:0:
371,373,197815,5,8,0:0:0:0:
132,132,197975,1,8,0:0:0:0:
481,42,198134,1,8,0:0:0:0:
234,310,198294,1,8,0:0:0:0:
110,0,198454,5,8,0:0:0:0:
483,233,198613,2,0,P|464:252|431:261,1,53.9999983520508,10|2,0:0|0:0,0:0:0:0:
56,324,198773,2,0,P|58:297|77:269,1,53.9999983520508,10|2,0:0|0:0,0:0:0:0:
336,21,198932,1,6,1:2:0:0:
256,192,199012,12,2,200368,0:0:0:0:
463,328,201645,6,0,P|368:319|334:210,1,216,6|0,0:0|0:0,0:0:0:0:
458,120,202283,1,2,0:0:0:0:
307,63,202443,1,2,0:0:0:0:
390,72,202602,1,2,0:0:0:0:
232,99,202762,1,2,0:0:0:0:
69,0,202922,6,0,P|117:16|139:101,1,144,2|2,1:2|0:0,0:0:0:0:
50,233,203400,2,0,L|31:152,1,72,8|2,0:0|0:0,0:0:0:0:
182,310,203720,1,4,0:3:0:0:
182,310,203879,2,0,L|201:229,1,72,6|0,0:3|1:2,0:0:0:0:
311,108,204198,6,0,P|328:106|343:96,1,26.9999991760254,2|0,1:2|0:0,0:0:0:0:
459,142,204358,2,0,P|442:140|427:130,1,26.9999991760254,0|0,1:2|0:0,0:0:0:0:
399,7,204517,6,0,B|381:98|381:98|395:123|395:123|380:217,1,216,12|0,0:0|0:0,0:0:0:0:
393,310,204837,6,0,P|377:311|360:303,1,26.9999991760254,0|0,1:2|0:0,0:0:0:0:
233,200,204996,2,0,P|220:196|206:197,1,26.9999991760254,0|0,1:2|0:0,0:0:0:0:
65,261,205156,6,0,P|147:291|202:182,1,216,12|0,0:0|0:0,0:0:0:0:
162,125,205475,5,8,0:0:0:0:
449,236,205634,1,2,1:2:0:0:
151,316,205794,1,14,0:0:0:0:
347,76,205954,1,2,1:2:0:0:
330,384,206113,6,0,P|295:372|277:330,1,72,2|8,1:2|0:0,0:0:0:0:
162,125,206273,1,10,0:0:0:0:
121,100,206352,1,8,0:0:0:0:
74,99,206432,1,10,0:0:0:0:
32,122,206512,1,8,0:0:0:0:
8,163,206592,1,10,0:0:0:0:
9,211,206671,1,8,0:0:0:0:
33,252,206751,6,0,P|66:250|88:231,1,54,6|0,1:2|0:0,0:0:0:0:
162,125,207071,6,0,P|118:199|214:205,1,216,10|0,0:0|0:0,0:0:0:0:
315,146,207390,6,0,P|293:128|262:125,1,53.9999983520508,2|0,1:2|0:0,0:0:0:0:
214,38,207549,1,0,0:0:0:0:
296,265,207709,6,0,P|318:247|349:244,1,53.9999983520508,10|0,0:0|0:0,0:0:0:0:
411,177,207868,2,0,P|438:182|461:204,1,53.9999983520508,2|0,0:0|0:0,0:0:0:0:
382,329,208028,6,0,P|361:346|335:350,1,53.9999983520508,2|0,1:2|0:0,0:0:0:0:
194,327,208347,6,0,P|282:359|297:266,1,216,10|0,0:0|0:0,0:0:0:0:
221,203,208666,6,0,P|190:210|176:230,1,53.9999983520508,2|0,1:2|0:0,0:0:0:0:
101,282,208826,1,0,0:0:0:0:
19,32,208985,5,10,0:0:0:0:
79,44,209065,1,0,1:2:0:0:
139,56,209145,1,0,1:2:0:0:
199,69,209225,1,0,1:2:0:0:
259,82,209305,6,0,L|295:90,1,26.9999991760254,2|0,1:2|0:0,0:0:0:0:
478,173,209464,2,0,L|442:181,1,26.9999991760254,0|0,1:2|0:0,0:0:0:0:
277,297,209624,6,0,B|155:255|189:346|67:292,1,216,12|0,0:0|0:0,0:0:0:0:
26,219,209943,1,0,1:2:0:0:
373,118,210102,6,0,P|355:149|326:170,1,72,2|0,1:2|0:0,0:0:0:0:
182,334,210262,2,0,P|164:303|161:268,1,72,14|0,0:0|0:0,0:0:0:0:
91,61,210422,2,0,P|127:61|160:76,1,72,0|0,1:2|1:2,0:0:0:0:
372,282,210581,5,10,0:0:0:0:
470,12,210741,1,0,1:2:0:0:
481,20,210821,1,0,1:2:0:0:
492,28,210900,2,0,B|428:76|428:76|296:36,1,216,14|0,0:0|0:0,0:0:0:0:
209,4,211220,5,8,0:0:0:0:
163,49,211299,1,8,0:0:0:0:
161,113,211379,1,8,0:0:0:0:
198,166,211459,1,8,0:0:0:0:
261,179,211539,1,8,0:0:0:0:
310,220,211618,1,8,0:0:0:0:
317,284,211698,1,8,0:0:0:0:
286,341,211778,1,8,0:0:0:0:
224,361,211858,6,0,P|121:328|9:303,1,216,6|8,1:2|0:0,0:0:0:0:
144,212,212337,1,0,0:0:0:0:
20,157,212496,1,2,1:2:0:0:
230,248,212656,1,2,0:0:0:0:
15,304,212815,1,10,0:0:0:0:
220,157,212975,1,2,0:0:0:0:
428,354,213134,6,0,P|373:364|345:266,1,161.999995056153,2|0,1:2|0:0,0:0:0:0:
398,150,213454,2,0,P|422:199|426:262,1,107.999996704102,10|0,0:0|0:0,0:0:0:0:
287,85,213773,1,2,1:2:0:0:
287,85,213932,1,0,1:2:0:0:
247,310,214092,2,0,P|300:316|338:272,1,107.999996704102,10|0,0:0|0:0,0:0:0:0:
407,64,214411,6,0,P|296:39|183:17,2,215.999993408203,2|8|0,1:2|0:0|1:2,0:0:0:0:
476,146,215209,1,0,0:0:0:0:
301,294,215368,1,8,0:0:0:0:
195,19,215528,6,0,P|145:27|101:78,1,107.999996704102,2|0,0:0|1:2,0:0:0:0:
330,179,215847,1,2,0:0:0:0:
100,267,216007,1,10,0:0:0:0:
187,149,216166,1,2,0:0:0:0:
301,293,216326,5,2,1:2:0:0:
49,147,216485,1,2,0:0:0:0:
331,70,216645,1,10,0:0:0:0:
189,341,216805,1,10,0:0:0:0:
189,341,216884,1,8,0:0:0:0:
189,341,216964,6,0,P|100:372|57:270,2,215.999993408203,6|8|0,1:2|0:0|1:2,0:0:0:0:
245,217,217762,1,2,0:0:0:0:
452,365,217922,1,10,0:0:0:0:
483,97,218081,1,2,0:0:0:0:
173,140,218241,6,0,P|139:187|138:241,1,107.999996704102,2|0,1:2|0:0,0:0:0:0:
363,202,218560,2,0,P|339:149|293:121,1,107.999996704102,10|0,0:0|0:0,0:0:0:0:
214,335,218879,2,0,P|271:340|318:314,1,107.999996704102,2|0,1:2|0:0,0:0:0:0:
221,26,219198,2,0,P|141:37|61:55,1,161.999995056153,10|0,0:0|0:0,0:0:0:0:
14,126,219517,5,4,1:2:0:0:
337,192,219677,1,0,0:0:0:0:
96,292,219837,1,8,0:0:0:0:
321,69,219996,1,0,0:0:0:0:
483,355,220156,2,0,P|421:358|398:265,1,161.999995056153,2|0,1:2|0:0,0:0:0:0:
454,149,220475,2,0,P|471:202|482:260,1,107.999996704102,10|0,0:0|0:0,0:0:0:0:
259,219,220794,5,0,1:2:0:0:
509,44,220954,1,12,0:0:0:0:
449,38,221034,1,8,0:0:0:0:
396,64,221113,1,8,0:0:0:0:
364,113,221193,1,8,0:3:0:0:
361,171,221273,2,0,P|369:197|375:226,1,53.9999983520508,8|8,0:3|0:3,0:0:0:0:
290,333,221432,5,4,0:3:0:0:
273,330,221512,1,4,0:3:0:0:
256,328,221592,1,4,0:3:0:0:
239,326,221672,1,4,0:3:0:0:
223,322,221751,2,0,B|340:279|310:371|438:321,1,215.999993408203,12|0,0:0|0:0,0:0:0:0:
511,281,222071,6,0,P|498:255|470:244,1,53.9999983520508,14|0,0:0|0:0,0:0:0:0:
391,121,222230,1,0,1:2:0:0:
314,98,222310,1,0,1:2:0:0:
236,115,222390,1,8,0:0:0:0:
191,182,222470,1,8,0:0:0:0:
117,212,222549,1,0,1:2:0:0:
39,192,222629,1,0,1:2:0:0:
7,117,222709,5,10,1:2:0:0:
86,92,222789,1,8,0:0:0:0:
167,106,222868,1,10,0:0:0:0:
235,157,222948,1,8,0:0:0:0:
271,233,223028,1,10,0:3:0:0:
350,264,223108,1,8,0:3:0:0:
433,251,223188,1,10,0:3:0:0:
490,193,223267,1,8,0:3:0:0:
493,106,223347,6,0,P|486:71|476:45,1,53.9999983520508,2|0,1:2|1:2,0:0:0:0:
277,12,223507,2,0,P|266:36|262:63,1,53.9999983520508,12|0,0:0|1:2,0:0:0:0:
163,250,223666,5,10,1:2:0:0:
91,274,223746,1,8,0:0:0:0:
26,234,223826,1,8,0:0:0:0:
23,158,223906,1,8,0:0:0:0:
80,109,223985,2,0,P|111:114|136:128,1,53.9999983520508,10|8,0:0|0:0,0:0:0:0:
283,270,224145,1,8,0:0:0:0:
283,270,224225,1,8,0:0:0:0:
283,270,224305,2,0,P|353:276|376:196,1,161.999995056153,10|4,0:3|0:3,0:0:0:0:
512,120,224544,1,4,0:3:0:0:
504,135,224624,6,0,P|434:141|408:47,1,175.499991966248,14|0,1:2|0:0,0:0:0:0:
495,30,224943,1,0,1:2:0:0:
276,114,225102,1,8,0:0:0:0:
512,273,225262,1,0,1:2:0:0:
305,15,225422,1,8,0:0:0:0:
240,328,225581,1,8,0:0:0:0:
445,122,225741,2,0,P|423:97|391:93,1,58.4999973220826,10|0,0:0|1:2,0:0:0:0:
143,33,225900,5,12,0:0:0:0:
428,246,226060,1,2,1:2:0:0:
82,182,226220,5,14,0:0:0:0:
393,0,226379,1,2,1:2:0:0:
432,350,226539,6,0,P|404:348|373:322,1,58.4999973220826,14|0,0:0|0:0,0:0:0:0:
282,119,226698,1,10,0:0:0:0:
215,106,226778,1,8,0:0:0:0:
152,131,226858,1,10,0:0:0:0:
133,196,226938,1,8,0:0:0:0:
72,224,227017,1,10,0:0:0:0:
10,195,227097,1,8,0:0:0:0:
6,126,227177,6,0,P|23:105|48:98,1,54,6|0,1:2|0:0,0:0:0:0:
155,27,227496,6,0,P|187:126|216:246,1,216,10|0,0:0|0:0,0:0:0:0:
214,328,227815,6,0,B|244:328|244:328|266:310,1,58.4999973220826,2|0,1:2|0:0,0:0:0:0:
309,232,227975,1,0,0:0:0:0:
493,367,228134,6,0,P|468:363|446:339,1,58.4999973220826,10|0,0:0|0:0,0:0:0:0:
359,368,228294,2,0,P|349:344|359:313,1,58.4999973220826,2|0,0:0|0:0,0:0:0:0:
396,185,228454,6,0,P|421:181|443:157,1,53.9999983520508,2|0,1:2|0:0,0:0:0:0:
512,208,228773,6,0,P|423:191|394:61,1,216,10|0,0:0|0:0,0:0:0:0:
315,13,229092,6,0,P|296:35|285:74,1,58.4999973220826,2|0,1:2|0:0,0:0:0:0:
302,144,229251,1,0,0:0:0:0:
9,76,229411,2,0,P|89:49|179:23,1,175.499991966248,10|0,0:0|0:0,0:0:0:0:
213,103,229730,6,0,P|207:117|203:136,1,26.9999991760254,2|0,1:2|0:0,0:0:0:0:
358,255,229890,2,0,P|354:268|349:280,1,26.9999991760254,0|0,1:2|0:0,0:0:0:0:
189,357,230049,6,0,P|106:351|112:237,1,216,12|0,0:0|0:0,0:0:0:0:
196,228,230368,1,0,1:2:0:0:
425,329,230528,6,0,P|442:297|446:262,1,72,2|0,1:2|0:0,0:0:0:0:
418,12,230688,2,0,P|383:13|350:28,1,72,14|0,0:0|0:0,0:0:0:0:
148,176,230847,2,0,P|166:206|195:227,1,72,2|0,1:2|0:0,0:0:0:0:
494,134,231007,5,14,0:0:0:0:
203,20,231166,1,8,0:0:0:0:
131,7,231246,1,8,0:0:0:0:
62,30,231326,1,10,0:0:0:0:
21,90,231406,1,8,0:0:0:0:
21,161,231485,2,0,P|24:198|46:237,1,72,8|8,0:0|0:0,0:0:0:0:
201,359,231645,5,8,0:0:0:0:
279,372,231725,1,8,0:0:0:0:
340,321,231805,1,8,0:0:0:0:
341,242,231884,1,8,0:0:0:0:
284,186,231964,1,8,0:0:0:0:
265,108,232044,1,8,0:0:0:0:
308,41,232124,1,8,0:0:0:0:
387,41,232204,1,8,0:0:0:0:
448,89,232283,6,0,P|333:62|216:39,1,233.999989288331,6|8,1:2|0:0,0:0:0:0:
100,71,232762,1,0,0:0:0:0:
373,181,232922,1,2,1:2:0:0:
131,308,233081,1,2,0:0:0:0:
258,122,233241,1,10,0:0:0:0:
434,336,233400,1,2,0:0:0:0:
502,102,233560,6,0,B|481:95|461:75|461:75|482:140|501:206,1,175.499991966248,2|0,1:2|0:0,0:0:0:0:
512,300,233879,2,0,P|449:288|415:235,1,116.999994644165,10|0,0:0|0:0,0:0:0:0:
270,106,234198,1,2,1:2:0:0:
270,106,234358,1,0,1:2:0:0:
227,372,234517,2,0,P|290:360|324:307,1,116.999994644165,10|0,0:0|0:0,0:0:0:0:
104,74,234837,6,0,P|84:191|66:318,2,233.999989288331,2|8|0,1:2|0:0|1:2,0:0:0:0:
195,16,235634,1,0,0:0:0:0:
317,250,235794,1,8,0:0:0:0:
511,35,235954,6,0,P|458:26|418:78,1,116.999994644165,10|0,0:0|0:0,0:0:0:0:
308,343,236273,1,2,1:2:0:0:
503,140,236432,1,10,0:0:0:0:
209,94,236592,1,2,0:0:0:0:
461,312,236751,5,2,1:2:0:0:
321,70,236911,1,10,0:0:0:0:
321,70,236991,1,8,0:0:0:0:
321,70,237071,1,10,0:0:0:0:
178,306,237230,1,10,0:0:0:0:
178,306,237310,1,8,0:0:0:0:
178,306,237390,6,0,P|144:296|123:273,1,54,6|0,1:2|0:0,0:0:0:0:
10,249,237709,6,0,P|97:263|120:152,1,216,10|0,0:0|0:0,0:0:0:0:
132,61,238028,6,0,P|103:65|77:78,1,58.4999973220826,2|0,1:2|0:0,0:0:0:0:
38,163,238188,1,0,0:0:0:0:
261,241,238347,6,0,P|289:236|315:223,1,58.4999973220826,10|0,0:0|0:0,0:0:0:0:
407,276,238507,2,0,P|417:248|418:219,1,58.4999973220826,2|0,0:0|0:0,0:0:0:0:
378,77,238666,6,0,P|368:102|366:128,1,53.9999983520508,2|0,1:2|0:0,0:0:0:0:
493,211,238985,6,0,P|390:172|267:131,1,216,10|0,0:0|0:0,0:0:0:0:
155,128,239305,6,0,P|187:126|210:109,1,58.4999973220826,2|0,1:2|0:0,0:0:0:0:
268,47,239464,1,0,0:0:0:0:
94,45,239624,2,0,P|108:125|123:235,1,175.499991966248,10|0,0:0|0:0,0:0:0:0:
97,316,239943,5,6,1:2:0:0:
172,6,240102,1,0,0:0:0:0:
237,314,240262,5,8,0:0:0:0:
268,47,240422,1,0,0:0:0:0:
374,306,240581,5,2,1:2:0:0:
371,81,240741,1,2,0:0:0:0:
503,286,240900,5,10,0:0:0:0:
483,110,241060,1,2,0:0:0:0:
483,110,241140,1,0,1:2:0:0:
483,110,241220,5,6,1:2:0:0:
262,275,241379,1,0,1:2:0:0:
172,6,241539,1,8,0:0:0:0:
385,215,241698,2,0,P|413:216|439:202,1,58.4999973220826,2|0,1:2|1:2,0:0:0:0:
326,4,241858,5,10,0:0:0:0:
306,96,242017,1,8,0:3:0:0:
162,192,242177,5,4,0:3:0:0:
179,272,242336,1,6,0:3:0:0:
376,330,242496,6,0,P|446:330|506:289,2,144,6|2|2,1:2|0:0|0:0,0:0:0:0:
447,212,244411,1,2,0:0:0:0:
447,212,244571,2,0,P|411:212|381:232,1,72,2|2,0:0|0:0,0:0:0:0:
268,355,245049,6,0,P|274:319|275:283,1,72,2|0,0:0|0:0,0:0:0:0:
212,197,245528,1,2,0:0:0:0:
212,197,245688,2,0,P|213:161|219:125,1,72,2|2,0:0|0:0,0:0:0:0:
294,45,246166,1,2,0:0:0:0:
294,45,246326,5,0,0:0:0:0:
370,108,246485,5,2,0:0:0:0:
423,209,246645,5,2,0:0:0:0:
440,341,246805,6,0,L|435:370,1,18,10|2,0:0|0:0,0:0:0:0:
254,158,246964,5,10,0:0:0:0:
128,188,247123,1,6,0:3:0:0:
117,317,247283,1,6,0:3:0:0:
236,368,247442,1,6,0:3:0:0:
321,271,247602,5,6,0:2:0:0:
128,188,247761,1,2,1:2:0:0:
236,368,247921,1,2,1:2:0:0:
254,158,248081,1,2,1:2:0:0:
117,317,248240,5,2,1:2:0:0:
411,302,248400,2,0,P|366:264|310:278,1,107.999996704102,10|0,0:0|1:2,0:0:0:0:
46,376,248720,6,0,P|27:328|41:273,1,107.999996704102,10|0,0:0|1:2,0:0:0:0:
267,113,249039,1,10,0:0:0:0:
5,58,249198,1,10,0:0:0:0:
267,113,249358,1,10,0:0:0:0:
39,274,249517,1,8,0:0:0:0:
220,16,249677,1,10,0:0:0:0:
332,318,249837,1,8,0:0:0:0:
435,4,249996,6,0,P|403:4|382:25,1,53.9999983520508,10|0,0:0|0:0,0:0:0:0:
160,214,250156,1,14,0:0:0:0:
218,251,250235,1,8,0:0:0:0:
287,240,250315,1,8,0:0:0:0:
333,187,250395,1,8,0:0:0:0:
347,118,250475,1,8,0:0:0:0:
407,82,250555,1,8,0:0:0:0:
475,93,250634,1,8,0:0:0:0:
511,152,250714,1,8,0:0:0:0:
494,220,250794,5,8,0:0:0:0:
435,258,250874,1,8,0:0:0:0:
364,253,250954,1,8,0:0:0:0:
317,201,251033,1,8,0:0:0:0:
252,173,251113,1,8,0:0:0:0:
181,178,251193,1,8,0:0:0:0:
121,215,251273,1,10,0:0:0:0:
100,281,251352,1,8,0:0:0:0:
121,347,251432,6,0,P|150:347|174:332,1,53.9999983520508,10|8,0:0|0:0,0:0:0:0:
420,161,251592,1,8,0:0:0:0:
364,111,251672,1,8,0:0:0:0:
295,81,251751,1,10,0:0:0:0:
220,73,251831,1,8,0:0:0:0:
146,87,251911,1,10,0:0:0:0:
80,122,251991,1,8,0:0:0:0:
27,176,252071,5,8,0:0:0:0:
77,241,252150,1,8,0:0:0:0:
155,269,252230,1,10,0:0:0:0:
238,268,252310,1,8,0:0:0:0:
315,236,252390,1,10,0:0:0:0:
378,180,252470,1,8,0:0:0:0:
416,106,252549,1,8,0:0:0:0:
420,22,252629,1,8,0:0:0:0:
420,22,253826,6,0,B|477:85|482:170|436:227|436:227|416:247|393:297|417:374|470:383|470:383|514:348|504:259|436:227|436:227|405:218|377:191|368:151|380:127,1,728.999977752686,6|2,0:0|0:0,0:0:0:0:
256,192,255342,12,0,256539,0:0:0:0:
