osu file format v14

[General]
AudioFilename: audio.mp3
AudioLeadIn: 0
PreviewTime: 178746
Countdown: 0
SampleSet: Soft
StackLeniency: 0.7
Mode: 0
LetterboxInBreaks: 0
WidescreenStoryboard: 1

[Editor]
Bookmarks: 11432,17815,28028,38241,48454,56113,66326,76539,86751,96964,107177,117390,127602,135262,145475,155688,165900,178666,188879,201645,211858,222071,232283,242496
DistanceSpacing: 1.5
BeatDivisor: 4
GridSize: 8
TimelineZoom: 3.5

[Metadata]
Title:Hikariiro no Uta
TitleUnicode:ヒカリイロの歌
Artist:Suzuki Aina
ArtistUnicode:鈴木愛奈
Creator:mx10001
Version:Collab Insane
Source:はてな☆イリュージョン
Tags:hatena☆illusion ending ed full ver version anime japanese jpop j-pop pop mx10000 Atipir [Karcher] Karcher
BeatmapID:3877102
BeatmapSetID:1844548

[Difficulty]
HPDrainRate:5
CircleSize:4
OverallDifficulty:8
ApproachRate:9
SliderMultiplier:1.65
SliderTickRate:1

[Events]
//Background and Video events
0,0,"bg.jpg",0,0
//Break Periods
2,76778,80407
2,178866,187481
2,242696,246364
//Storyboard Layer 0 (Background)
//Storyboard Layer 1 (Fail)
//Storyboard Layer 2 (Pass)
//Storyboard Layer 3 (Foreground)
//Storyboard Layer 4 (Overlay)
//Storyboard Sound Samples

[TimingPoints]
1220,319.148936170213,4,2,1,60,1,0
1220,-100,4,2,1,60,0,0
2975,-133.333333333333,4,2,1,60,0,0
3533,-133.333333333333,4,2,1,5,0,0
3773,-83.3333333333333,4,2,1,60,0,0
4331,-83.3333333333333,4,2,1,5,0,0
4411,-166.666666666667,4,2,1,60,0,0
4970,-83.3333333333333,4,2,1,5,0,0
5049,-71.4285714285714,4,2,1,60,0,0
5688,-83.3333333333333,4,2,1,60,0,0
6326,-125,4,2,1,60,0,0
7443,-100,4,2,1,60,0,0
8879,-83.3333333333333,4,2,1,70,0,0
12071,-83.3333333333333,4,2,1,60,0,0
13746,-83.3333333333333,4,2,1,5,0,0
13826,-83.3333333333333,4,2,1,60,0,0
17735,-83.3333333333333,4,2,1,5,0,0
17815,-125,4,2,1,45,0,0
22682,-125,4,2,1,5,0,0
22922,-111.111111111111,4,2,1,60,0,0
25395,-111.111111111111,4,2,1,5,0,0
25475,-111.111111111111,4,2,1,60,0,0
28028,-125,4,2,1,50,0,0
28267,-125,4,2,1,5,0,0
28347,-125,4,2,1,50,0,0
35767,-125,4,2,1,50,0,0
35847,-125,4,2,1,50,0,0
35927,-125,4,2,1,50,0,0
36007,-125,4,2,1,50,0,0
38241,-111.111111111111,4,2,1,50,0,0
38480,-111.111111111111,4,2,1,5,0,0
38560,-111.111111111111,4,2,1,50,0,0
41033,-111.111111111111,4,2,1,5,0,0
41113,-111.111111111111,4,2,1,50,0,0
41831,-111.111111111111,4,2,1,5,0,0
41911,-99.9999999999999,4,2,1,60,0,0
43347,-125,4,2,1,45,0,0
47177,-90.9090909090909,4,2,1,60,0,0
47337,-90.9090909090909,4,2,1,5,0,0
47416,-90.9090909090909,4,2,1,60,0,0
47576,-90.9090909090909,4,2,1,5,0,0
47656,-111.111111111111,4,2,1,60,0,0
48773,-111.111111111111,4,2,1,50,0,0
50927,-111.111111111111,4,2,1,5,0,0
51007,-111.111111111111,4,2,1,60,0,0
51485,-111.111111111111,4,2,1,70,0,0
51964,-111.111111111111,4,2,1,80,0,0
52443,-111.111111111111,4,2,1,90,0,0
52922,-76.9230769230769,4,2,1,90,0,0
53081,-76.9230769230769,4,2,1,5,0,0
53161,-76.9230769230769,4,2,1,90,0,0
53321,-76.9230769230769,4,2,1,5,0,0
53400,-76.9230769230769,4,2,1,90,0,0
53560,-83.3333333333333,4,2,1,75,0,0
53799,-83.3333333333333,4,2,1,5,0,0
53879,-83.3333333333333,4,2,1,75,0,0
55395,-83.3333333333333,4,2,1,5,0,0
55475,-83.3333333333333,4,2,1,75,0,0
55515,-83.3333333333333,4,2,1,45,0,0
55794,-83.3333333333333,4,2,1,75,0,0
56113,-83.3333333333333,4,2,1,70,0,1
56432,-83.3333333333333,4,2,1,70,0,1
57629,-83.3333333333333,4,2,1,5,0,1
57709,-83.3333333333333,4,2,1,70,0,1
61459,-83.3333333333333,4,2,1,5,0,1
61539,-83.3333333333333,4,2,1,70,0,1
61778,-83.3333333333333,4,2,1,5,0,1
61858,-83.3333333333333,4,2,1,70,0,1
62735,-83.3333333333333,4,2,1,5,0,1
62815,-83.3333333333333,4,2,1,70,0,1
63055,-83.3333333333333,4,2,1,5,0,1
63134,-83.3333333333333,4,2,1,70,0,1
63852,-83.3333333333333,4,2,1,5,0,1
63932,-83.3333333333333,4,2,1,70,0,1
64012,-83.3333333333333,4,2,1,5,0,1
64092,-83.3333333333333,4,2,1,70,0,1
64331,-83.3333333333333,4,2,1,5,0,1
64411,-83.3333333333333,4,2,1,70,0,1
65608,-83.3333333333333,4,2,1,5,0,1
65688,-83.3333333333333,4,2,1,70,0,1
66326,-83.3333333333333,4,2,1,70,0,1
67842,-83.3333333333333,4,2,1,5,0,1
67922,-83.3333333333333,4,2,1,70,0,1
70235,-83.3333333333333,4,2,1,5,0,1
70315,-83.3333333333333,4,2,1,70,0,1
71672,-83.3333333333333,4,2,1,5,0,1
71751,-83.3333333333333,4,2,1,70,0,1
71991,-83.3333333333333,4,2,1,5,0,1
72071,-83.3333333333333,4,2,1,70,0,1
72948,-83.3333333333333,4,2,1,5,0,1
73028,-83.3333333333333,4,2,1,70,0,1
73267,-83.3333333333333,4,2,1,5,0,1
73347,-83.3333333333333,4,2,1,70,0,1
75821,-83.3333333333333,4,2,1,5,0,1
75900,-83.3333333333333,4,2,1,70,0,1
76539,-100,4,2,1,70,0,0
76858,-100,4,2,1,30,0,0
80847,-100,4,2,1,50,0,0
81007,-90.9090909090909,4,2,1,50,0,0
81645,-125,4,2,1,60,0,0
82762,-100,4,2,1,60,0,0
84198,-90.9090909090909,4,2,1,70,0,0
86751,-100,4,2,1,60,0,0
87230,-100,4,2,1,50,0,0
88188,-40,4,2,1,50,0,0
88267,-40,4,2,1,5,0,0
88347,-100,4,2,1,50,0,0
90900,-100,4,2,1,50,0,0
91220,-100,4,2,1,60,0,0
91539,-66.6666666666667,4,2,1,60,0,0
91778,-66.6666666666667,4,2,1,5,0,0
91858,-100,4,2,1,60,0,0
93214,-100,4,2,1,5,0,0
93294,-100,4,2,1,60,0,0
96964,-125,4,2,1,45,0,0
102071,-100,4,2,1,60,0,0
103188,-83.3333333333333,4,2,1,60,0,0
103826,-100,4,2,1,60,0,0
107177,-100,4,2,1,50,0,0
107416,-100,4,2,1,5,0,0
107496,-100,4,2,1,50,0,0
112283,-100,4,2,1,60,0,0
114916,-100,4,2,1,60,0,0
114996,-100,4,2,1,60,0,0
115076,-100,4,2,1,60,0,0
115156,-100,4,2,1,60,0,0
117390,-100,4,2,1,60,0,0
117709,-100,4,2,1,50,0,0
122496,-125,4,2,1,50,0,0
122815,-125,4,2,1,30,0,0
126326,-111.111111111111,4,2,1,50,0,0
126485,-111.111111111111,4,2,1,5,0,0
126565,-125,4,2,1,50,0,0
126725,-125,4,2,1,5,0,0
126805,-111.111111111111,4,2,1,50,0,0
127602,-111.111111111111,4,2,1,60,0,0
128161,-111.111111111111,4,2,1,5,0,0
128241,-111.111111111111,4,2,1,60,0,0
129438,-111.111111111111,4,2,1,5,0,0
129517,-111.111111111111,4,2,1,60,0,0
130076,-111.111111111111,4,2,1,5,0,0
130156,-111.111111111111,4,2,1,60,0,0
130634,-111.111111111111,4,2,1,70,0,0
131113,-111.111111111111,4,2,1,80,0,0
131592,-111.111111111111,4,2,1,90,0,0
132071,-76.9230769230769,4,2,1,90,0,0
132230,-76.9230769230769,4,2,1,5,0,0
132310,-76.9230769230769,4,2,1,90,0,0
132470,-76.9230769230769,4,2,1,5,0,0
132549,-76.9230769230769,4,2,1,90,0,0
132709,-83.3333333333333,4,2,1,75,0,0
132948,-83.3333333333333,4,2,1,5,0,0
133028,-83.3333333333333,4,2,1,75,0,0
135262,-83.3333333333333,4,2,1,70,0,1
135581,-83.3333333333333,4,2,1,70,0,1
136778,-83.3333333333333,4,2,1,5,0,1
136858,-83.3333333333333,4,2,1,70,0,1
139172,-83.3333333333333,4,2,1,5,0,1
139251,-83.3333333333333,4,2,1,70,0,1
140608,-83.3333333333333,4,2,1,5,0,1
140688,-83.3333333333333,4,2,1,70,0,1
140927,-83.3333333333333,4,2,1,5,0,1
141007,-83.3333333333333,4,2,1,70,0,1
141884,-83.3333333333333,4,2,1,5,0,1
141964,-83.3333333333333,4,2,1,70,0,1
142204,-83.3333333333333,4,2,1,5,0,1
142283,-83.3333333333333,4,2,1,70,0,1
143001,-83.3333333333333,4,2,1,5,0,1
143081,-83.3333333333333,4,2,1,70,0,1
143161,-83.3333333333333,4,2,1,5,0,1
143241,-83.3333333333333,4,2,1,70,0,1
143480,-83.3333333333333,4,2,1,5,0,1
143560,-83.3333333333333,4,2,1,70,0,1
144757,-83.3333333333333,4,2,1,5,0,1
144837,-83.3333333333333,4,2,1,70,0,1
145475,-83.3333333333333,4,2,1,70,0,1
146991,-83.3333333333333,4,2,1,5,0,1
147071,-83.3333333333333,4,2,1,70,0,1
149384,-83.3333333333333,4,2,1,5,0,1
149464,-83.3333333333333,4,2,1,70,0,1
150821,-83.3333333333333,4,2,1,5,0,1
150900,-83.3333333333333,4,2,1,70,0,1
151140,-83.3333333333333,4,2,1,5,0,1
151220,-83.3333333333333,4,2,1,70,0,1
151299,-83.3333333333333,4,2,1,5,0,1
151379,-83.3333333333333,4,2,1,70,0,1
152097,-83.3333333333333,4,2,1,5,0,1
152177,-83.3333333333333,4,2,1,70,0,1
152416,-83.3333333333333,4,2,1,5,0,1
152496,-83.3333333333333,4,2,1,70,0,1
152576,-83.3333333333333,4,2,1,5,0,1
152656,-83.3333333333333,4,2,1,70,0,1
155688,-83.3333333333333,4,2,1,75,0,0
163666,-83.3333333333333,4,2,1,80,0,0
163906,-83.3333333333333,4,2,1,5,0,0
163985,-83.3333333333333,4,2,1,75,0,0
164305,-83.3333333333333,4,2,1,85,0,0
164544,-83.3333333333333,4,2,1,5,0,0
164624,-83.3333333333333,4,2,1,75,0,0
165182,-83.3333333333333,4,2,1,5,0,0
165262,-83.3333333333333,4,2,1,90,0,0
165900,-83.3333333333333,4,2,1,70,0,0
165980,-83.3333333333333,4,2,1,5,0,0
166060,-83.3333333333333,4,2,1,70,0,0
166140,-83.3333333333333,4,2,1,5,0,0
166220,-83.3333333333333,4,2,1,80,0,0
166459,-83.3333333333333,4,2,1,5,0,0
166539,-83.3333333333333,4,2,1,80,0,0
166778,-83.3333333333333,4,2,1,5,0,0
166858,-83.3333333333333,4,2,1,80,0,0
172922,-71.4285714285714,4,2,1,80,0,0
173560,-83.3333333333333,4,2,1,80,0,0
176113,-83.3333333333333,4,2,1,90,0,0
177310,-83.3333333333333,4,2,1,5,0,0
177390,-83.3333333333333,4,2,1,90,0,0
178746,-100,4,2,1,90,0,0
179305,-100,4,2,1,40,0,0
181858,-100,4,2,1,50,0,0
184411,-100,4,2,1,40,0,0
186964,-100,4,2,1,50,0,0
188081,-100,4,2,1,60,0,0
188321,-100,4,2,1,5,0,0
188400,-100,4,2,1,60,0,0
188879,-90.9090909090909,4,2,1,60,0,0
191432,-90.9090909090909,4,2,1,70,0,0
192789,-90.9090909090909,4,2,1,5,0,0
192868,-90.9090909090909,4,2,1,70,0,0
193985,-90.9090909090909,4,2,1,80,0,0
194225,-90.9090909090909,4,2,1,5,0,0
194305,-90.9090909090909,4,2,1,80,0,0
196778,-90.9090909090909,4,2,1,5,0,0
196858,-90.9090909090909,4,2,1,80,0,0
198932,-90.9090909090909,4,2,1,70,0,0
199092,-90.9090909090909,4,2,1,60,0,0
199172,-90.9090909090909,4,2,1,50,0,0
199251,-90.9090909090909,4,2,1,40,0,0
199331,-90.9090909090909,4,2,1,30,0,0
199411,-90.9090909090909,4,2,1,20,0,0
199491,-90.9090909090909,4,2,1,10,0,0
200368,-90.9090909090909,4,2,1,15,0,0
201645,-125,4,2,1,65,0,1
201725,-125,4,2,1,65,0,0
204198,-125,4,2,1,75,0,0
204278,-125,4,2,1,5,0,0
204358,-125,4,2,1,75,0,0
204438,-125,4,2,1,5,0,0
204517,-125,4,2,1,75,0,0
204757,-125,4,2,1,5,0,0
204837,-125,4,2,1,75,0,0
204916,-125,4,2,1,5,0,0
204996,-125,4,2,1,75,0,0
205076,-125,4,2,1,5,0,0
205156,-125,4,2,1,75,0,0
205395,-125,4,2,1,5,0,0
205475,-100,4,2,1,75,0,0
206751,-83.3333333333333,4,2,1,70,0,1
206991,-83.3333333333333,4,2,1,5,0,1
207071,-83.3333333333333,4,2,1,70,0,1
207310,-83.3333333333333,4,2,1,5,0,1
207390,-83.3333333333333,4,2,1,70,0,1
208267,-83.3333333333333,4,2,1,5,0,1
208347,-83.3333333333333,4,2,1,70,0,1
208587,-83.3333333333333,4,2,1,5,0,1
208666,-83.3333333333333,4,2,1,70,0,1
209384,-83.3333333333333,4,2,1,5,0,1
209464,-83.3333333333333,4,2,1,70,0,1
209544,-83.3333333333333,4,2,1,5,0,1
209624,-83.3333333333333,4,2,1,70,0,1
209863,-83.3333333333333,4,2,1,5,0,1
209943,-83.3333333333333,4,2,1,70,0,1
211140,-83.3333333333333,4,2,1,5,0,1
211220,-83.3333333333333,4,2,1,70,0,1
211858,-83.3333333333333,4,2,1,70,0,1
213374,-83.3333333333333,4,2,1,5,0,1
213454,-83.3333333333333,4,2,1,70,0,1
219438,-83.3333333333333,4,2,1,5,0,1
219517,-83.3333333333333,4,2,1,70,0,1
220395,-83.3333333333333,4,2,1,5,0,1
220475,-83.3333333333333,4,2,1,70,0,1
222071,-76.9230769230769,4,2,1,80,0,1
224624,-83.3333333333333,4,2,1,80,0,1
224863,-83.3333333333333,4,2,1,5,0,1
224943,-83.3333333333333,4,2,1,80,0,1
227416,-83.3333333333333,4,2,1,5,0,1
227496,-83.3333333333333,4,2,1,80,0,1
227735,-83.3333333333333,4,2,1,5,0,1
227815,-83.3333333333333,4,2,1,80,0,1
228693,-83.3333333333333,4,2,1,5,0,1
228773,-83.3333333333333,4,2,1,80,0,1
229012,-83.3333333333333,4,2,1,5,0,1
229092,-83.3333333333333,4,2,1,80,0,1
229650,-83.3333333333333,4,2,1,5,0,1
229730,-83.3333333333333,4,2,1,80,0,1
229810,-83.3333333333333,4,2,1,5,0,1
229890,-83.3333333333333,4,2,1,80,0,1
229970,-83.3333333333333,4,2,1,5,0,1
230049,-83.3333333333333,4,2,1,80,0,1
230289,-83.3333333333333,4,2,1,5,0,1
230368,-83.3333333333333,4,2,1,80,0,1
233799,-83.3333333333333,4,2,1,5,0,1
233879,-83.3333333333333,4,2,1,80,0,1
237629,-83.3333333333333,4,2,1,5,0,1
237709,-83.3333333333333,4,2,1,80,0,1
237948,-83.3333333333333,4,2,1,5,0,1
238028,-83.3333333333333,4,2,1,80,0,1
238906,-83.3333333333333,4,2,1,5,0,1
238985,-83.3333333333333,4,2,1,80,0,1
239225,-83.3333333333333,4,2,1,5,0,1
239305,-83.3333333333333,4,2,1,80,0,1
239863,-83.3333333333333,4,2,1,5,0,1
239943,-83.3333333333333,4,2,1,80,0,1
242496,-83.3333333333333,4,2,1,80,0,0
243134,-83.3333333333333,4,2,1,40,0,0
245049,-83.3333333333333,4,2,1,50,0,0
246805,-83.3333333333333,4,2,1,70,0,0
247602,-125,4,2,1,70,0,0
248720,-100,4,2,1,70,0,0
250156,-83.3333333333333,4,2,1,70,0,0
250315,-83.3333333333333,4,2,1,75,0,0
252071,-83.3333333333333,4,2,1,80,0,0
253826,-166.666666666667,4,2,1,80,0,1
255262,-166.666666666667,4,2,1,80,0,0
255422,-166.666666666667,4,2,1,10,0,0
256539,-166.666666666667,4,2,1,5,0,0

[Colours]
Combo1 : 73,104,166
Combo2 : 237,201,201
Combo3 : 217,130,146
Combo4 : 130,176,217

[HitObjects]
46,218,1220,6,0,B|136:370|273:354|338:291|345:201|248:124|173:177,1,495,6|2,1:2|0:0,0:0:0:0:
220,246,2496,6,0,P|271:169|214:89,1,165,6|0,1:2|0:0,0:0:0:0:
184,171,2975,2,0,P|160:113|178:52,1,123.750004720688,8|4,0:3|0:3,0:0:0:0:
175,56,3454,1,6,0:3:0:0:
377,10,3773,6,0,P|434:61|269:152,1,346.499989425659,14|0,0:0|0:0,0:0:0:0:
311,99,4411,2,0,P|379:110|329:71,1,173.24999471283,12|0,0:0|0:0,0:0:0:0:
364,46,5049,6,0,B|456:78|452:176|452:176|372:224|294:143,1,346.499989425659,14|8,0:0|0:3,0:0:0:0:
294,143,5608,1,8,0:3:0:0:
294,143,5688,5,10,0:3:0:0:
188,122,5847,1,8,0:3:0:0:
112,197,6007,1,6,0:3:0:0:
148,297,6166,1,4,0:3:0:0:
255,296,6326,5,6,1:2:0:0:
112,197,6485,1,2,1:2:0:0:
284,194,6645,1,2,1:2:0:0:
148,297,6805,1,2,1:2:0:0:
188,122,6964,5,2,1:2:0:0:
255,296,7124,2,0,P|298:302|331:291,1,66,10|0,0:0|1:2,0:0:0:0:
148,297,7443,6,0,P|160:250|196:220,1,82.5,10|0,0:0|1:2,0:0:0:0:
303,134,7762,1,10,0:0:0:0:
426,267,7922,1,10,0:0:0:0:
303,134,8081,1,2,1:2:0:0:
492,83,8241,5,10,0:0:0:0:
370,188,8400,1,8,0:0:0:0:
297,0,8560,2,0,P|247:-2|210:17,1,82.5,10|10,0:0|0:0,0:0:0:0:
181,41,8799,5,8,0:0:0:0:
181,41,8879,2,0,L|166:109,3,49.4999984893799,14|0|0|0,1:2|1:2|1:2|1:2,0:0:0:0:
84,149,9198,2,0,L|69:217,3,49.4999984893799,8|0|0|0,1:2|1:2|1:2|1:2,0:0:0:0:
132,282,9517,5,8,1:2:0:0:
156,284,9597,1,0,1:2:0:0:
180,281,9677,1,0,1:2:0:0:
203,274,9757,1,0,1:2:0:0:
225,263,9837,2,0,L|278:276,3,49.4999984893799,8|0|2|0,1:2|1:2|1:2|1:2,0:0:0:0:
352,347,10156,5,10,1:2:0:0:
368,321,10235,1,0,1:2:0:0:
378,293,10315,1,8,0:0:0:0:
379,264,10395,1,8,0:0:0:0:
372,240,10475,2,0,L|361:181,3,49.4999984893799,10|8|10|8,0:0|0:0|0:0|0:0,0:0:0:0:
321,112,10794,5,8,0:0:0:0:
321,112,10874,1,8,0:0:0:0:
321,112,10954,2,0,L|265:122,1,49.4999984893799,10|8,0:0|0:0,0:0:0:0:
189,169,11113,1,10,0:0:0:0:
189,169,11193,1,8,0:0:0:0:
189,169,11273,2,0,L|117:162,1,49.4999984893799,8|8,0:0|0:0,0:0:0:0:
71,60,12071,6,0,L|63:116,3,49.4999984893799,2|2|2|2,0:0|0:0|0:0|0:0,0:0:0:0:
139,164,12390,2,0,L|147:220,3,49.4999984893799,2|2|2|2,0:0|0:0|0:0|0:0,0:0:0:0:
64,262,12709,6,0,B|174:220|157:292|259:247,1,197.99999395752,6|10,1:2|0:0,0:0:0:0:
369,276,13188,2,0,P|350:324|307:352,1,98.9999969787599,2|0,0:0|1:2,0:0:0:0:
462,201,13507,2,0,P|451:152|436:105,1,98.9999969787599,2|8,0:0|0:0,0:0:0:0:
306,43,13826,6,0,B|166:16|166:16|188:33|201:58,1,197.99999395752,2|2,0:0|0:0,0:0:0:0:
280,137,14305,1,10,0:0:0:0:
174,219,14464,1,2,0:0:0:0:
103,95,14624,2,0,P|50:97|19:131,1,98.9999969787599,2|2,1:2|0:0,0:0:0:0:
19,269,14943,2,0,P|37:318|49:364,1,98.9999969787599,10|2,0:0|0:0,0:0:0:0:
245,349,15262,5,14,0:0:0:0:
174,219,15422,1,2,1:2:0:0:
245,349,15581,2,0,P|301:352|337:320,1,98.9999969787599,10|0,0:0|1:2,0:0:0:0:
388,161,15900,1,8,0:0:0:0:
491,292,16060,1,2,1:2:0:0:
296,211,16220,1,10,0:0:0:0:
296,211,16299,1,2,0:0:0:0:
296,211,16379,6,0,P|282:145|390:64,1,197.99999395752,14|0,0:0|1:2,0:0:0:0:
415,84,16778,1,8,0:0:0:0:
415,84,16858,2,0,P|465:87|503:55,1,98.9999969787599,8|4,0:0|0:3,0:0:0:0:
454,255,17177,2,0,P|458:231|472:207,2,49.4999984893799,6|4|4,0:3|0:3|0:3,0:0:0:0:
320,274,17496,2,0,P|317:201|248:164,1,148.49999546814,12|0,0:0|0:0,0:0:0:0:
200,102,17815,6,0,L|205:248,2,132,6|0|0,1:2|1:2|1:2,0:0:0:0:
76,53,18613,1,2,0:0:0:0:
76,53,18773,2,0,P|70:85|77:137,1,66,2|2,1:2|0:0,0:0:0:0:
80,238,19092,2,0,P|145:217|221:246,1,132,2|2,1:2|1:2,0:0:0:0:
343,350,19571,2,0,P|323:287|338:223,1,132,2|2,0:0|0:0,0:0:0:0:
338,223,20049,1,2,1:2:0:0:
424,117,20368,6,0,P|466:164|465:233,2,132,2|0|0,1:2|1:2|1:2,0:0:0:0:
325,31,21166,1,2,0:0:0:0:
325,31,21326,2,0,L|239:42,1,66,2|2,1:2|0:0,0:0:0:0:
112,100,21645,2,0,P|177:114|192:184,1,132,2|2,1:2|1:2,0:0:0:0:
97,243,22124,2,0,L|220:289,1,132,2|2,0:0|0:0,0:0:0:0:
221,290,22523,1,0,1:2:0:0:
221,290,22602,1,10,0:0:0:0:
456,163,22922,6,0,B|409:138|351:186|295:157,1,148.49999546814,6|8,1:2|0:0,0:0:0:0:
290,49,23400,1,2,0:0:0:0:
182,97,23560,2,0,L|169:227,1,111.374996601105,10|0,0:3|1:2,0:0:0:0:
170,207,23879,1,8,0:0:0:0:
309,162,24039,6,0,P|339:232|296:307,2,148.49999546814,2|2|2,1:2|1:2|1:2,0:0:0:0:
290,49,24837,1,10,0:3:0:0:
434,15,24996,1,4,0:3:0:0:
434,15,25076,1,4,0:3:0:0:
434,15,25156,2,0,P|417:64|421:105,1,74.2499977340699,14|0,0:0|0:0,0:0:0:0:
461,202,25475,6,0,P|425:184|390:185,1,74.2499977340699,6|0,1:2|1:2,0:0:0:0:
255,302,25794,2,0,L|242:227,2,74.2499977340699,8|0|0,0:0|0:0|1:2,0:0:0:0:
347,89,26273,1,2,1:2:0:0:
347,89,26432,2,0,P|307:107|290:149,1,74.2499977340699,10|2,0:0|0:0,0:0:0:0:
160,91,26751,5,2,1:2:0:0:
160,91,26911,2,0,L|149:13,1,74.2499977340699,10|10,0:0|0:0,0:0:0:0:
76,184,27230,2,0,L|61:271,1,74.2499977340699,2|2,1:2|1:2,0:0:0:0:
243,279,27549,1,10,0:0:0:0:
247,253,27629,1,8,0:0:0:0:
252,228,27709,1,8,0:0:0:0:
258,202,27789,1,8,0:0:0:0:
261,178,27868,2,0,L|268:137,1,37.1249988670349,8|8,0:0|0:0,0:0:0:0:
314,57,28028,5,4,1:2:0:0:
314,57,28347,2,0,P|283:45|250:49,1,66,10|0,0:0|0:0,0:0:0:0:
164,108,28666,2,0,P|131:111|101:99,1,66,2|0,1:2|0:0,0:0:0:0:
22,7,28985,2,0,P|10:35|-1:75,1,66,10|0,0:0|0:0,0:0:0:0:
56,197,29305,6,0,P|117:227|181:213,1,132,2|10,1:2|0:0,0:0:0:0:
283,155,29783,2,0,P|295:186|303:230,1,66,2|0,0:0|1:2,0:0:0:0:
391,321,30102,2,0,P|397:288|409:258,1,66,2|8,0:0|0:0,0:0:0:0:
479,167,30422,1,2,0:0:0:0:
338,87,30581,6,0,P|276:105|201:122,1,132,2|10,1:2|0:0,0:0:0:0:
81,29,31060,2,0,P|114:30|143:53,1,66,2|0,0:0|1:2,0:0:0:0:
51,119,31379,2,0,P|77:137|110:138,1,66,2|8,0:0|0:0,0:0:0:0:
210,120,31698,1,2,0:0:0:0:
310,219,31858,6,0,P|302:253|299:288,1,66,2|0,1:2|0:0,0:0:0:0:
487,329,32177,1,10,0:0:0:0:
398,375,32337,2,0,P|394:342|387:310,1,66,2|0,0:0|1:2,0:0:0:0:
310,219,32656,2,0,P|320:202|336:196,2,33,8|8|8,0:0|0:0|0:0,0:0:0:0:
468,161,32975,2,0,P|458:144|442:138,2,33,8|8|4,0:0|0:0|1:2,0:0:0:0:
359,81,33294,5,0,1:2:0:0:
212,98,33454,2,0,P|240:114|273:113,1,66,10|0,0:0|0:0,0:0:0:0:
161,13,33773,1,2,1:2:0:0:
161,13,33932,1,0,1:2:0:0:
101,102,34092,2,0,L|122:172,1,66,8|0,0:0|0:0,0:0:0:0:
111,295,34411,6,0,P|74:288|51:269,1,66,2|0,1:2|0:0,0:0:0:0:
23,184,34730,1,10,0:0:0:0:
184,239,34890,2,0,P|159:304|135:382,1,132,6|2,1:2|1:2,0:0:0:0:
259,311,35368,1,10,0:0:0:0:
362,367,35528,1,0,1:2:0:0:
362,367,35608,1,0,1:2:0:0:
362,367,35688,6,0,P|402:363|427:343,1,66,12|0,0:0|1:2,0:0:0:0:
507,260,36007,2,0,P|467:256|442:236,1,66,10|0,0:0|1:2,0:0:0:0:
414,214,36246,1,0,1:2:0:0:
414,214,36326,2,0,L|400:147,1,66,10|0,0:0|1:2,0:0:0:0:
282,81,36645,2,0,L|268:145,1,66,10|0,0:0|1:2,0:0:0:0:
182,259,36964,5,14,0:0:0:0:
122,164,37124,1,0,1:2:0:0:
182,259,37283,2,0,P|151:275|108:277,1,66,8|2,0:0|1:2,0:0:0:0:
4,219,37602,5,0,1:2:0:0:
32,113,37762,1,8,0:0:0:0:
32,113,37842,1,8,0:0:0:0:
32,113,37922,2,0,L|40:78,3,33,8|8|8|8,0:0|0:0|0:0|0:0,0:0:0:0:
115,29,38241,6,0,P|158:45|169:77,1,74.2499977340699,4|0,1:2|0:0,0:0:0:0:
203,223,38560,1,10,0:0:0:0:
301,101,38720,1,2,1:2:0:0:
414,236,38879,2,0,P|370:237|337:208,2,74.2499977340699,10|2|2,0:0|1:2|1:2,0:0:0:0:
470,128,39358,5,10,0:0:0:0:
470,128,39438,1,8,0:0:0:0:
470,128,39517,2,0,L|398:148,1,74.2499977340699,10|2,0:0|1:2,0:0:0:0:
400,321,39837,1,2,1:2:0:0:
399,321,39996,2,0,L|471:301,1,74.2499977340699,14|0,0:0|0:0,0:0:0:0:
279,247,40315,1,2,1:2:0:0:
289,156,40475,2,0,L|297:119,2,37.1249988670349,10|0|2,0:0|1:2|1:2,0:0:0:0:
107,147,40794,6,0,L|123:224,1,74.2499977340699,6|0,1:2|0:0,0:0:0:0:
75,307,41113,1,10,0:0:0:0:
228,369,41273,1,10,0:0:0:0:
228,369,41352,1,8,0:0:0:0:
228,369,41432,1,8,0:0:0:0:
280,282,41592,2,0,P|316:293|352:286,1,74.2499977340699,2|0,1:2|0:0,0:0:0:0:
442,165,41911,6,0,B|386:113|320:212|257:137,1,165,6|0,1:2|1:2,0:0:0:0:
171,46,42390,2,0,L|145:147,1,82.5,8|0,0:0|0:0,0:0:0:0:
82,231,42709,1,2,1:2:0:0:
162,327,42868,2,0,P|179:317|189:299,2,41.25,10|8|10,0:0|0:0|0:0,0:0:0:0:
317,327,43188,1,8,0:0:0:0:
317,327,43267,1,8,0:0:0:0:
317,327,43347,6,0,P|334:258|279:200,1,132,12|2,0:0|0:0,0:0:0:0:
302,211,43826,1,2,1:2:0:0:
162,328,43985,2,0,P|142:267|175:212,1,132,10|2,0:0|0:0,0:0:0:0:
272,82,44464,6,0,P|285:151|302:213,2,132,2|0|0,1:2|1:2|1:2,0:0:0:0:
177,40,45262,1,10,0:0:0:0:
177,40,45422,1,2,0:0:0:0:
83,82,45581,1,2,1:2:0:0:
83,82,45741,1,2,0:0:0:0:
65,181,45900,6,0,P|82:245|96:329,1,132,2|0,1:2|0:0,0:0:0:0:
208,267,46379,1,0,1:2:0:0:
208,267,46539,1,10,0:0:0:0:
282,361,46698,1,8,0:3:0:0:
282,361,46778,1,8,0:3:0:0:
282,361,46858,2,0,L|354:372,1,66,6|6,0:3|0:3,0:0:0:0:
297,228,47177,6,0,P|253:176|176:171,2,136.125004154205,10|2|0,0:0|1:2|1:2,0:0:0:0:
192,353,47815,1,2,1:2:0:0:
60,280,47975,1,2,1:2:0:0:
67,247,48055,1,8,0:0:0:0:
72,214,48134,1,10,0:0:0:0:
79,181,48214,1,8,0:0:0:0:
87,149,48294,2,0,L|99:86,1,37.1249988670349,10|8,0:0|0:0,0:0:0:0:
138,24,48454,5,12,0:0:0:0:
138,24,48773,2,0,P|96:11|59:22,1,74.2499977340699,2|0,1:2|0:0,0:0:0:0:
192,110,49092,2,0,L|245:94,2,49.4999984893799,2|2|2,1:2|0:0|0:0,0:0:0:0:
332,112,49411,1,10,0:0:0:0:
340,107,49517,2,0,L|387:121,1,49.4999984893799,2|2,0:0|0:0,0:0:0:0:
421,224,49730,5,2,1:2:0:0:
421,224,50049,2,0,P|423:264|404:299,1,74.2499977340699,10|2,0:0|0:0,0:0:0:0:
331,365,50368,1,2,1:2:0:0:
331,365,50448,1,10,0:0:0:0:
331,365,50528,1,2,1:2:0:0:
219,281,50688,2,0,P|254:272|279:237,1,74.2499977340699,10|0,0:0|0:0,0:0:0:0:
335,164,51007,5,14,1:2:0:0:
226,76,51166,1,8,0:0:0:0:
226,76,51246,1,8,0:0:0:0:
226,76,51326,2,0,L|215:119,1,37.1249988670349,10|8,0:0|0:0,0:0:0:0:
125,184,51485,1,6,1:2:0:0:
125,184,51565,1,2,1:2:0:0:
125,184,51645,2,0,L|115:148,3,37.1249988670349,2|10|10|10,1:2|0:0|0:0|0:0,0:0:0:0:
206,269,51964,6,0,L|216:233,5,37.1249988670349,14|10|10|10|10|10,0:0|0:0|0:0|0:0|0:0|0:0,0:0:0:0:
297,332,52443,1,6,1:2:0:0:
334,348,52523,1,2,1:2:0:0:
374,350,52602,1,10,0:0:0:0:
414,341,52682,1,10,0:3:0:0:
449,321,52762,1,10,0:3:0:0:
470,286,52842,1,10,0:3:0:0:
480,246,52922,2,0,P|459:160|435:84,2,160.874992635727,10|10|10,0:0|0:0|0:0,0:0:0:0:
322,232,53560,6,0,B|211:206|251:280|130:247,1,197.99999395752,14|0,0:0|1:2,0:0:0:0:
49,171,54039,1,0,1:2:0:0:
191,55,54198,1,0,1:2:0:0:
191,55,54358,2,0,L|175:154,2,98.9999969787599,8|8|8,0:0|0:0|0:0,0:0:0:0:
42,38,54837,6,0,P|23:23|-5:15,2,49.4999984893799,8|0|0,0:0|1:2|1:2,0:0:0:0:
175,152,55156,2,0,P|217:129|266:132,1,98.9999969787599,12|0,0:0|0:0,0:0:0:0:
387,250,55475,6,0,L|382:280,6,24.74999924469,2|2|2|2|2|2|2,1:2|0:0|1:2|0:0|1:2|0:0|0:0,0:0:0:0:
477,214,55794,1,14,0:0:0:0:
472,189,55874,1,10,0:0:0:0:
467,164,55954,1,10,0:0:0:0:
462,139,56033,1,10,0:0:0:0:
457,113,56113,6,0,B|346:88|378:171|257:133,2,197.99999395752,6|8|2,1:2|0:0|1:2,0:0:0:0:
308,49,56911,1,2,0:0:0:0:
357,233,57071,2,0,P|304:238|246:226,1,98.9999969787599,10|0,0:0|0:0,0:0:0:0:
121,169,57390,6,0,P|119:252|132:327,1,148.49999546814,2|0,1:2|0:0,0:0:0:0:
166,359,57709,2,0,P|221:368|279:357,1,98.9999969787599,10|0,0:0|0:0,0:0:0:0:
350,228,58028,1,2,1:2:0:0:
350,228,58188,1,0,1:2:0:0:
464,349,58347,2,0,P|452:289|463:235,1,98.9999969787599,10|0,0:0|0:0,0:0:0:0:
334,114,58666,6,0,P|419:140|453:40,2,197.99999395752,2|8|0,1:2|0:0|1:2,0:0:0:0:
209,62,59464,1,0,0:0:0:0:
228,165,59624,1,8,0:0:0:0:
98,38,59783,6,0,P|115:134|132:242,1,197.99999395752,2|2,0:0|0:0,0:0:0:0:
238,383,60262,1,10,0:0:0:0:
84,355,60422,1,2,0:0:0:0:
238,271,60581,2,0,L|219:152,1,98.9999969787599,2|2,1:2|0:0,0:0:0:0:
175,10,60900,1,10,0:0:0:0:
284,61,61060,1,2,0:0:0:0:
222,173,61220,6,0,P|288:169|369:183,1,148.49999546814,6|0,1:2|0:0,0:0:0:0:
413,203,61539,2,0,P|414:250|402:316,1,98.9999969787599,10|0,0:0|0:0,0:0:0:0:
267,372,61858,2,0,P|261:316|271:264,1,98.9999969787599,2|2,1:2|0:0,0:0:0:0:
333,110,62177,1,10,0:0:0:0:
413,203,62337,1,2,1:2:0:0:
421,47,62496,6,0,P|341:56|255:53,1,148.49999546814,2|0,1:2|0:0,0:0:0:0:
228,33,62815,2,0,P|220:81|204:143,1,98.9999969787599,10|0,0:0|0:0,0:0:0:0:
83,275,63134,2,0,P|71:220|56:170,1,98.9999969787599,2|2,1:2|0:0,0:0:0:0:
0,20,63454,1,10,0:0:0:0:
103,81,63613,1,2,1:2:0:0:
228,33,63773,6,0,P|306:15|369:117,2,197.99999395752,2|12|2,1:2|0:0|1:2,0:0:0:0:
135,41,64571,1,2,1:2:0:0:
244,207,64730,1,14,0:0:0:0:
61,170,64890,1,10,0:0:0:0:
199,121,65049,1,10,0:0:0:0:
199,121,65368,6,0,B|254:80|295:159|358:106,1,148.49999546814,10|0,0:0|0:0,0:0:0:0:
435,82,65688,5,8,0:0:0:0:
439,114,65767,1,8,0:0:0:0:
443,147,65847,1,8,0:0:0:0:
447,180,65927,1,8,0:0:0:0:
451,213,66007,2,0,L|458:267,3,49.4999984893799,8|8|8|8,0:0|0:0|0:0|0:0,0:0:0:0:
395,321,66326,6,0,B|286:279|310:376|206:325,2,197.99999395752,6|8|2,1:2|0:0|1:2,0:0:0:0:
253,240,67124,1,2,0:0:0:0:
411,223,67283,2,0,P|401:265|394:326,1,98.9999969787599,10|2,0:0|0:0,0:0:0:0:
486,150,67602,6,0,P|438:124|389:124,1,98.9999969787599,2|0,1:2|0:0,0:0:0:0:
194,194,67922,2,0,P|242:191|285:166,1,98.9999969787599,10|0,0:0|0:0,0:0:0:0:
301,52,68241,1,2,1:2:0:0:
301,52,68400,1,0,1:2:0:0:
147,7,68560,2,0,P|134:55|129:104,1,98.9999969787599,10|0,0:0|0:0,0:0:0:0:
0,286,68879,6,0,P|75:304|80:197,2,197.99999395752,6|8|0,1:2|0:0|1:2,0:0:0:0:
0,182,69677,1,0,1:2:0:0:
140,116,69837,1,8,0:0:0:0:
10,12,69996,6,0,P|30:58|47:106,1,98.9999969787599,10|0,0:0|0:0,0:0:0:0:
216,179,70315,1,2,1:2:0:0:
91,296,70475,1,10,0:0:0:0:
91,296,70634,1,2,0:0:0:0:
163,365,70794,6,0,P|188:321|187:271,1,98.9999969787599,2|2,1:2|0:0,0:0:0:0:
290,137,71113,1,10,0:0:0:0:
402,218,71273,1,10,0:0:0:0:
402,218,71352,1,8,0:0:0:0:
402,218,71432,6,0,P|465:225|484:145,1,148.49999546814,14|0,1:2|0:0,0:0:0:0:
471,108,71751,2,0,P|421:117|370:133,1,98.9999969787599,10|0,0:0|0:0,0:0:0:0:
260,216,72071,1,2,1:2:0:0:
128,82,72230,1,10,0:0:0:0:
104,259,72390,1,10,0:0:0:0:
228,122,72549,1,2,1:2:0:0:
228,122,72629,1,2,0:0:0:0:
228,122,72709,6,0,P|292:113|349:177,1,148.49999546814,2|0,1:2|0:0,0:0:0:0:
368,215,73028,2,0,P|357:263|349:323,1,98.9999969787599,10|0,0:0|0:0,0:0:0:0:
441,147,73347,1,2,1:2:0:0:
272,242,73507,1,10,0:0:0:0:
447,316,73666,1,10,0:0:0:0:
308,144,73826,1,2,0:0:0:0:
308,144,73906,1,2,0:0:0:0:
308,144,73985,6,0,P|248:140|197:173,1,98.9999969787599,2|0,1:2|1:2,0:0:0:0:
135,333,74305,2,0,P|168:283|165:222,1,98.9999969787599,8|0,0:0|0:0,0:0:0:0:
156,72,74624,1,0,1:2:0:0:
58,89,74783,2,0,P|84:142|138:170,2,98.9999969787599,2|10|2,1:2|0:0|1:2,0:0:0:0:
214,156,75262,5,10,0:0:0:0:
352,276,75422,1,0,1:2:0:0:
382,63,75581,2,0,P|432:67|465:103,1,98.9999969787599,12|0,0:0|0:0,0:0:0:0:
449,199,75900,5,10,0:3:0:0:
415,208,75980,1,8,0:3:0:0:
380,203,76060,1,8,0:0:0:0:
349,186,76140,1,8,0:0:0:0:
331,155,76220,1,8,0:0:0:0:
294,13,76379,2,0,P|284:38|276:63,2,49.4999984893799,2|0|6,1:2|1:2|1:2,0:0:0:0:
361,154,81007,6,0,P|321:161|251:169,2,90.7500027694703,10|10|6,0:0|0:3|0:3,0:0:0:0:
199,92,81485,1,6,0:3:0:0:
134,202,81645,6,0,P|125:157|115:123,1,66,6|2,1:2|1:2,0:0:0:0:
270,166,81964,2,0,P|259:210|254:246,1,66,2|2,1:2|1:2,0:0:0:0:
297,78,82283,1,2,1:2:0:0:
297,78,82443,2,0,P|340:99|355:132,1,66,10|0,0:0|1:2,0:0:0:0:
389,262,82762,6,0,P|458:257|502:168,1,165,10|10,0:0|0:0,0:0:0:0:
439,25,83241,1,10,0:0:0:0:
411,174,83400,1,2,1:2:0:0:
297,78,83560,2,0,P|271:113|265:155,1,82.5,10|8,0:0|0:0,0:0:0:0:
186,245,83879,1,10,0:0:0:0:
186,245,84039,1,10,0:0:0:0:
152,140,84198,6,0,L|144:96,3,45.3750013847352,14|0|0|0,1:2|1:2|1:2|1:2,0:0:0:0:
264,150,84517,2,0,L|271:194,3,45.3750013847352,8|0|0|0,1:2|1:2|1:2|1:2,0:0:0:0:
270,297,84837,5,8,1:2:0:0:
305,300,84916,1,0,1:2:0:0:
341,299,84996,1,0,1:2:0:0:
375,288,85076,1,0,1:2:0:0:
409,277,85156,2,0,L|403:220,3,45.3750013847352,8|0|2|0,1:2|1:2|1:2|1:2,0:0:0:0:
415,139,85475,5,10,0:0:0:0:
415,139,85555,1,0,1:2:0:0:
415,139,85634,2,0,L|354:152,1,45.3750013847352,8|8,0:0|0:0,0:0:0:0:
325,78,85794,1,10,0:0:0:0:
325,78,85874,1,8,0:0:0:0:
325,78,85954,2,0,L|265:68,1,45.3750013847352,10|8,0:0|0:0,0:0:0:0:
199,35,86113,5,8,0:0:0:0:
193,70,86193,1,8,0:0:0:0:
188,106,86273,1,10,0:0:0:0:
182,142,86353,1,8,0:0:0:0:
176,177,86432,2,0,L|168:243,3,45.3750013847352,10|8|8|8,0:0|0:0|0:0|0:0,0:0:0:0:
200,314,86751,6,0,P|148:318|78:218,1,165,6|0,0:0|0:0,0:0:0:0:
18,91,87230,1,8,0:0:0:0:
18,91,87310,1,8,0:0:0:0:
18,91,87390,2,0,L|-3:180,2,82.5,8|0|0,0:0|1:2|1:2,0:0:0:0:
102,27,87868,5,2,1:2:0:0:
298,236,88188,6,0,B|289:264|266:274|266:274|258:247|273:224,1,103.125,8|0,0:0|0:0,0:0:0:0:
468,25,88507,5,8,0:3:0:0:
474,123,88826,5,4,0:3:0:0:
474,123,88985,2,0,P|432:116|400:88,1,82.5,4|4,0:3|0:3,0:0:0:0:
224,54,89305,6,0,B|240:40|250:15|250:15|275:131,1,165,6|0,0:0|0:0,0:0:0:0:
284,248,89783,1,0,1:2:0:0:
284,248,89863,1,0,1:2:0:0:
284,248,89943,2,0,P|259:246|241:237,3,41.25,0|0|0|0,1:2|1:2|1:2|1:2,0:0:0:0:
183,172,90262,5,8,0:0:0:0:
308,332,90422,2,0,L|344:147,1,165,6|8,1:2|0:0,0:0:0:0:
389,90,90900,1,8,0:0:0:0:
220,0,91220,6,0,P|228:20|236:45,3,41.25,0|0|0|0,1:2|1:2|1:2|1:2,0:0:0:0:
299,90,91539,2,0,P|234:75|150:154,1,185.625007081032,12|0,0:0|0:0,0:0:0:0:
159,196,91858,5,2,1:2:0:0:
119,304,92017,2,0,P|69:285|29:275,2,82.5,2|10|2,0:0|0:0|0:0,0:0:0:0:
219,339,92496,2,0,P|258:327|296:312,1,82.5,2|2,1:2|1:2,0:0:0:0:
318,212,92815,1,2,1:2:0:0:
484,320,92975,6,0,P|439:355|401:270,1,165,10|2,0:0|1:2,0:0:0:0:
445,144,93454,2,0,P|459:186|470:237,1,82.5,10|2,0:0|0:0,0:0:0:0:
325,76,93773,1,2,1:2:0:0:
447,46,93932,1,2,1:2:0:0:
326,175,94092,1,10,0:0:0:0:
247,17,94251,2,0,P|222:19|202:30,1,41.25,2|0,1:2|1:2,0:0:0:0:
124,85,94411,5,14,0:0:0:0:
124,85,94571,2,0,P|116:43|103:-4,2,82.5,2|10|2,1:2|0:0|1:2,0:0:0:0:
200,210,95049,2,0,P|208:168|221:121,1,82.5,10|2,0:0|1:2,0:0:0:0:
91,180,95368,5,10,0:0:0:0:
217,37,95528,2,0,P|263:44|293:71,1,82.5,2|8,1:2|0:0,0:0:0:0:
364,206,95847,5,2,1:2:0:0:
364,206,95927,1,2,0:0:0:0:
364,206,96007,2,0,L|404:191,3,41.25,10|2|2|2,0:0|0:0|0:0|0:0,0:0:0:0:
289,277,96326,1,10,0:3:0:0:
266,242,96405,1,2,0:0:0:0:
258,202,96485,1,10,0:0:0:0:
265,162,96565,1,10,0:0:0:0:
288,128,96645,2,0,L|328:113,3,41.25,10|2|10|10,0:0|0:0|0:0|0:0,0:0:0:0:
416,48,96964,5,6,1:2:0:0:
416,48,97283,6,0,P|373:33|354:-8,1,66,0|0,1:2|0:0,0:0:0:0:
193,31,97762,5,2,0:0:0:0:
193,31,97922,2,0,P|177:54|161:104,1,66,2|2,1:2|0:0,0:0:0:0:
57,172,98241,2,0,P|120:181|157:234,1,132,2|2,1:2|1:2,0:0:0:0:
279,289,98720,2,0,L|246:143,1,132,2|2,0:0|0:0,0:0:0:0:
346,107,99198,2,0,L|365:186,1,66,2|0,1:2|0:0,0:0:0:0:
412,247,99517,1,2,1:2:0:0:
413,247,99837,6,0,P|384:264|352:268,1,66,0|0,1:2|0:0,0:0:0:0:
483,64,100315,5,2,0:0:0:0:
483,64,100475,2,0,P|437:73|402:94,1,66,2|2,1:2|0:0,0:0:0:0:
364,170,100794,2,0,P|320:123|320:42,1,132,2|2,1:2|1:2,0:0:0:0:
460,189,101273,2,0,P|430:246|370:268,1,132,2|2,0:0|0:0,0:0:0:0:
273,307,101751,2,0,P|280:321|290:334,2,33,10|8|4,1:2|0:3|0:3,0:0:0:0:
131,159,102071,5,6,1:2:0:0:
131,159,102230,2,0,P|117:240|109:332,1,165,8|2,0:0|1:2,0:0:0:0:
22,159,102709,2,0,P|40:92|131:54,1,165,10|10,0:0|0:0,0:0:0:0:
239,205,103188,2,0,P|248:107|265:4,2,197.99999395752,2|10|2,1:2|0:0|1:2,0:0:0:0:
312,308,103985,2,0,P|295:353|251:369,1,82.5,10|0,0:0|1:2,0:0:0:0:
150,373,104305,1,2,0:0:0:0:
96,225,104624,5,6,1:2:0:0:
96,225,104783,2,0,P|120:144|139:61,1,165,8|0,0:0|1:2,0:0:0:0:
267,86,105262,2,0,P|305:93|344:120,1,82.5,8|2,0:0|1:2,0:0:0:0:
456,235,105581,2,0,L|401:248,1,41.25,10|8,0:0|0:0,0:0:0:0:
340,201,105741,2,0,L|290:212,1,41.25,10|8,0:0|0:0,0:0:0:0:
219,262,105900,5,10,0:0:0:0:
267,86,106060,1,0,1:2:0:0:
341,292,106220,1,10,0:0:0:0:
193,160,106379,6,0,P|170:127|162:85,1,82.5,10|0,0:0|1:2,0:0:0:0:
364,38,106698,2,0,P|356:114|339:202,1,165,10|0,0:0|0:0,0:0:0:0:
264,338,107177,5,4,1:2:0:0:
264,338,107496,2,0,P|219:354|183:341,1,82.5,10|0,0:0|0:0,0:0:0:0:
43,261,107815,2,0,P|88:277|124:264,1,82.5,2|0,1:2|0:0,0:0:0:0:
238,169,108134,2,0,P|228:212|221:257,1,82.5,10|0,0:0|0:0,0:0:0:0:
344,150,108454,6,0,P|292:156|259:62,1,165,2|10,1:2|0:0,0:0:0:0:
143,28,108932,2,0,P|95:28|61:50,1,82.5,2|0,0:0|1:2,0:0:0:0:
163,121,109251,2,0,P|126:139|86:137,1,82.5,2|8,0:0|0:0,0:0:0:0:
0,113,109571,1,2,0:0:0:0:
82,285,109730,6,0,B|119:234|119:234|84:132,1,165,2|10,1:2|0:0,0:0:0:0:
143,28,110209,2,0,P|185:32|237:43,1,82.5,2|0,0:0|1:2,0:0:0:0:
379,113,110528,2,0,P|337:116|297:124,1,82.5,2|8,0:0|0:0,0:0:0:0:
334,21,110847,1,2,0:0:0:0:
471,50,111007,6,0,P|487:137|435:217,1,165,2|10,1:2|0:0,0:0:0:0:
348,296,111485,1,10,0:3:0:0:
348,296,111565,1,8,0:3:0:0:
348,296,111645,2,0,L|335:212,1,82.5,8|4,0:3|0:3,0:0:0:0:
185,332,111964,2,0,L|206:241,1,82.5,4|4,0:3|0:3,0:0:0:0:
286,384,112283,5,4,1:2:0:0:
286,384,112443,1,0,1:2:0:0:
451,323,112602,2,0,P|418:288|344:299,1,123.75,10|0,0:0|0:0,0:0:0:0:
305,288,112922,2,0,P|294:248|310:209,1,82.5,2|0,1:2|1:2,0:0:0:0:
382,141,113241,1,8,0:0:0:0:
171,11,113560,6,0,P|197:94|214:175,1,165,2|10,1:2|0:0,0:0:0:0:
199,305,114039,2,0,B|117:262|128:334|39:287,1,165,6|2,0:0|1:2,0:0:0:0:
213,170,114517,1,10,0:0:0:0:
116,119,114677,1,0,1:2:0:0:
116,119,114757,1,0,1:2:0:0:
116,119,114837,6,0,P|104:159|95:208,1,82.5,12|0,0:0|1:2,0:0:0:0:
199,305,115156,2,0,P|247:304|275:281,1,82.5,10|0,0:0|1:2,0:0:0:0:
405,215,115475,2,0,P|357:214|329:191,1,82.5,10|0,0:0|1:2,0:0:0:0:
314,164,115714,1,0,1:2:0:0:
314,164,115794,1,10,0:0:0:0:
155,105,115954,1,0,1:2:0:0:
217,28,116113,6,0,P|247:61|253:107,1,82.5,14|0,0:0|1:2,0:0:0:0:
149,203,116432,2,0,P|106:194|78:165,1,82.5,8|10,0:0|0:3,0:0:0:0:
60,124,116672,1,8,0:3:0:0:
60,124,116751,1,10,0:3:0:0:
10,256,116911,1,4,0:3:0:0:
10,256,116991,1,4,0:3:0:0:
10,256,117071,2,0,L|39:338,1,82.5,4|4,0:3|0:3,0:0:0:0:
127,374,117390,6,0,P|169:374|200:335,1,82.5,4|0,0:3|0:0,0:0:0:0:
250,202,117709,1,10,0:0:0:0:
250,202,117868,1,2,1:2:0:0:
150,249,118028,2,0,P|134:213|148:163,2,82.5,10|2|2,0:0|1:2|1:2,0:0:0:0:
311,290,118507,1,10,0:0:0:0:
311,290,118587,1,8,0:0:0:0:
311,290,118666,6,0,P|322:330|350:360,1,82.5,10|2,0:0|1:2,0:0:0:0:
419,256,118985,1,2,1:2:0:0:
419,256,119145,2,0,P|411:216|384:186,1,82.5,10|0,0:0|0:0,0:0:0:0:
275,123,119464,2,0,P|263:165|262:211,1,82.5,2|10,1:2|0:0,0:0:0:0:
87,344,119783,1,10,0:0:0:0:
87,344,119863,1,8,0:0:0:0:
87,344,119943,6,0,L|103:263,1,82.5,6|0,1:2|0:0,0:0:0:0:
129,175,120262,1,10,0:0:0:0:
225,268,120422,1,10,0:0:0:0:
225,268,120501,1,8,0:0:0:0:
225,268,120581,1,8,0:0:0:0:
321,189,120741,2,0,P|360:179|401:186,1,82.5,2|8,1:2|0:0,0:0:0:0:
476,278,121060,6,0,B|416:319|392:235|287:301,1,165,6|0,1:2|1:2,0:0:0:0:
154,341,121539,2,0,P|181:366|225:376,1,82.5,10|0,0:0|1:2,0:0:0:0:
316,285,121858,1,2,1:2:0:0:
246,209,122017,5,10,0:0:0:0:
253,172,122097,1,8,0:0:0:0:
260,135,122177,2,0,L|269:92,2,41.25,10|8|0,0:0|0:0|1:2,0:0:0:0:
396,5,122496,5,2,1:2:0:0:
396,5,122815,2,0,P|403:71|415:138,1,132,2|2,0:0|0:0,0:0:0:0:
318,274,123454,1,2,0:0:0:0:
379,334,123613,2,0,P|317:313|255:332,1,132,2|0,0:0|0:0,0:0:0:0:
69,327,124092,6,0,P|98:311|115:284,1,66
144,131,124411,2,0,P|116:149|98:176,1,66
249,228,124730,2,0,P|215:215|180:214,1,66,2|0,0:0|0:0,0:0:0:0:
317,273,125049,6,0,P|304:208|295:142,1,132,2|0,0:0|0:0,0:0:0:0:
413,29,125688,2,0,P|421:94|434:159,1,132,2|2,0:0|0:0,0:0:0:0:
418,242,126166,1,2,0:0:0:0:
296,143,126326,6,0,P|278:174|271:211,1,74.2499977340699,10|0,0:0|0:0,0:0:0:0:
201,264,126565,2,0,P|227:288|269:298,1,66,2|0,1:2|0:0,0:0:0:0:
341,263,126805,1,0,1:2:0:0:
382,116,126964,5,10,0:0:0:0:
365,82,127043,1,8,0:0:0:0:
336,58,127123,1,10,0:0:0:0:
301,47,127203,1,8,0:0:0:0:
265,51,127283,2,0,L|209:62,3,37.1249988670349,10|8|10|8,0:0|0:0|0:0|0:0,0:0:0:0:
147,105,127602,5,6,1:2:0:0:
147,105,127922,2,0,P|134:145|124:192,1,74.2499977340699,2|0,1:2|0:0,0:0:0:0:
240,269,128241,2,0,B|161:239|178:303|94:272,1,148.49999546814,2|8,1:2|0:0,0:0:0:0:
97,273,128720,1,0,0:0:0:0:
220,168,128879,5,0,1:2:0:0:
220,168,129198,2,0,P|261:166|286:142,1,74.2499977340699,10|0,0:0|0:0,0:0:0:0:
373,63,129517,1,2,1:2:0:0:
373,63,129597,1,0,1:2:0:0:
373,63,129677,1,0,1:2:0:0:
424,170,129837,2,0,P|412:207|404:246,1,74.2499977340699,10|0,0:0|0:0,0:0:0:0:
457,333,130156,6,0,P|415:348|375:342,1,74.2499977340699,14|8,1:2|0:0,0:0:0:0:
344,339,130395,1,8,0:0:0:0:
344,339,130475,1,10,0:0:0:0:
292,261,130634,1,14,0:3:0:0:
292,261,130714,1,10,0:3:0:0:
292,261,130794,2,0,L|250:269,3,37.1249988670349,10|10|10|10,0:3|0:3|0:3|0:3,0:0:0:0:
167,316,131113,6,0,L|120:310,5,37.1249988670349,6|2|10|10|10|10,1:2|1:2|0:0|0:0|0:0|0:0,0:0:0:0:
159,215,131592,1,6,1:2:0:0:
198,208,131672,1,2,1:2:0:0:
232,187,131751,1,10,0:0:0:0:
255,153,131831,1,10,0:0:0:0:
264,112,131911,1,10,0:3:0:0:
258,71,131991,1,10,0:3:0:0:
230,40,132071,2,0,P|149:57|71:78,2,160.874992635727,10|8|10,0:0|0:0|0:0,0:0:0:0:
333,6,132709,6,0,P|367:55|358:187,1,197.99999395752,6|8,1:2|0:0,0:0:0:0:
440,270,133188,1,8,0:0:0:0:
292,350,133347,1,8,0:0:0:0:
292,350,133507,2,0,P|238:349|206:315,2,98.9999969787599,8|8|8,0:0|0:0|0:0,0:0:0:0:
212,217,133985,5,8,0:0:0:0:
212,217,134065,1,8,0:0:0:0:
212,217,134145,2,0,P|184:220|158:228,1,49.4999984893799,8|8,0:0|0:0,0:0:0:0:
85,305,134305,2,0,P|50:260|61:212,1,98.9999969787599,12|0,0:0|1:2,0:0:0:0:
57,220,134544,1,0,1:2:0:0:
57,220,134624,1,12,0:0:0:0:
223,322,134783,1,0,1:2:0:0:
223,322,134863,1,0,1:2:0:0:
223,322,134943,5,8,0:0:0:0:
256,312,135023,1,8,0:0:0:0:
289,304,135102,1,8,0:0:0:0:
323,298,135182,1,8,0:0:0:0:
357,296,135262,6,0,P|408:263|423:359,2,197.99999395752,6|8|2,1:2|0:0|1:2,0:0:0:0:
279,157,136060,1,2,0:0:0:0:
217,319,136220,2,0,P|265:291|277:247,1,98.9999969787599,10|2,0:0|0:0,0:0:0:0:
418,77,136539,6,0,P|347:62|292:122,1,148.49999546814,2|0,1:2|0:0,0:0:0:0:
279,157,136858,2,0,P|337:172|363:218,1,98.9999969787599,10|0,0:0|0:0,0:0:0:0:
443,323,137177,1,2,1:2:0:0:
443,323,137337,1,0,1:2:0:0:
503,217,137496,2,0,L|487:114,1,98.9999969787599,10|0,0:0|0:0,0:0:0:0:
341,28,137815,6,0,P|249:22|202:108,2,197.99999395752,2|8|0,1:2|0:0|1:2,0:0:0:0:
494,96,138613,1,0,0:0:0:0:
401,124,138773,1,8,0:0:0:0:
503,217,138932,6,0,P|401:230|296:251,1,197.99999395752,2|2,0:0|0:0,0:0:0:0:
112,242,139411,1,10,0:0:0:0:
223,144,139571,1,2,0:0:0:0:
232,321,139730,6,0,P|269:350|330:352,1,98.9999969787599,2|2,1:2|0:0,0:0:0:0:
463,366,140049,1,10,0:0:0:0:
411,230,140209,1,10,0:0:0:0:
411,230,140289,1,8,0:0:0:0:
411,230,140368,6,0,P|375:170|393:86,1,148.49999546814,6|0,1:2|0:0,0:0:0:0:
390,49,140688,2,0,P|341:63|292:85,1,98.9999969787599,10|0,0:0|0:0,0:0:0:0:
207,187,141007,2,0,P|259:206|305:227,1,98.9999969787599,2|0,1:2|0:0,0:0:0:0:
486,199,141326,1,10,0:0:0:0:
435,313,141485,1,2,0:0:0:0:
299,224,141645,6,0,P|219:233|140:225,1,148.49999546814,2|0,1:2|0:0,0:0:0:0:
102,225,141964,2,0,P|110:279|124:335,1,98.9999969787599,10|0,0:0|0:0,0:0:0:0:
0,159,142283,2,0,P|9:104|21:47,1,98.9999969787599,2|0,1:2|0:0,0:0:0:0:
3,262,142602,1,10,0:0:0:0:
96,125,142762,1,0,1:2:0:0:
211,241,142922,6,0,P|228:342|317:369,2,197.99999395752,2|12|0,1:2|0:0|1:2,0:0:0:0:
232,142,143720,1,2,1:2:0:0:
425,155,143879,1,10,0:0:0:0:
302,275,144039,1,2,1:2:0:0:
472,283,144198,5,10,0:0:0:0:
369,381,144358,1,0,1:2:0:0:
369,381,144438,1,0,1:2:0:0:
369,381,144517,2,0,L|392:235,1,148.49999546814,14|0,0:0|0:0,0:0:0:0:
482,168,144837,5,8,0:0:0:0:
487,201,144916,1,8,0:0:0:0:
492,235,144996,1,8,0:0:0:0:
497,269,145076,1,8,0:0:0:0:
502,302,145156,2,0,L|510:350,3,49.4999984893799,8|8|8|8,0:0|0:0|0:0|0:0,0:0:0:0:
418,357,145475,6,0,B|312:316|343:396|224:345,2,197.99999395752,6|8|2,1:2|0:0|1:2,0:0:0:0:
308,225,146273,1,2,0:0:0:0:
442,261,146432,2,0,P|426:314|416:365,1,98.9999969787599,10|2,0:0|0:0,0:0:0:0:
507,177,146751,6,0,P|464:153|415:157,1,98.9999969787599,2|0,1:2|0:0,0:0:0:0:
340,317,147071,2,0,P|287:320|246:294,1,98.9999969787599,10|0,0:0|0:0,0:0:0:0:
201,171,147390,1,2,1:2:0:0:
201,171,147549,1,0,1:2:0:0:
100,241,147709,2,0,P|90:192|74:144,1,98.9999969787599,10|0,0:0|0:0,0:0:0:0:
221,42,148028,6,0,B|348:9|348:9|414:43,2,197.99999395752,2|8|0,1:2|0:0|1:2,0:0:0:0:
96,140,148826,1,0,0:0:0:0:
69,0,148985,1,8,0:0:0:0:
225,164,149145,6,0,P|214:213|205:267,1,98.9999969787599,10|0,0:0|0:0,0:0:0:0:
391,317,149464,1,2,1:2:0:0:
285,367,149624,1,10,0:0:0:0:
285,367,149783,1,2,0:0:0:0:
366,189,149943,5,2,1:2:0:0:
225,164,150102,1,10,0:0:0:0:
200,158,150182,1,8,0:0:0:0:
176,151,150262,2,0,L|125:137,2,49.4999984893799,10|8|10,0:0|0:0|0:3,0:0:0:0:
134,356,150581,6,0,P|191:366|225:279,1,148.49999546814,14|0,0:3|0:0,0:0:0:0:
212,251,150900,2,0,P|164:241|113:232,1,98.9999969787599,10|0,0:0|0:0,0:0:0:0:
30,85,151220,1,2,1:2:0:0:
187,34,151379,1,8,0:0:0:0:
30,85,151539,2,0,P|10:135|18:187,1,98.9999969787599,10|2,0:0|1:2,0:0:0:0:
194,158,151858,6,0,P|261:133|341:111,1,148.49999546814,2|0,1:2|0:0,0:0:0:0:
381,133,152177,2,0,P|409:87|396:45,1,98.9999969787599,10|0,0:0|0:0,0:0:0:0:
275,31,152496,1,2,1:2:0:0:
321,206,152656,1,8,0:0:0:0:
275,31,152815,2,0,P|222:27|168:52,1,98.9999969787599,10|8,0:0|0:0,0:0:0:0:
157,83,153055,1,8,0:0:0:0:
157,83,153134,6,0,P|137:132|126:179,1,98.9999969787599,14|0,0:0|1:2,0:0:0:0:
320,248,153454,2,0,P|290:210|255:172,1,98.9999969787599,8|0,0:0|1:2,0:0:0:0:
36,240,153773,1,8,0:0:0:0:
95,307,153932,2,0,P|141:300|191:287,2,98.9999969787599,2|10|2,1:2|0:0|1:2,0:0:0:0:
16,141,154411,5,14,0:0:0:0:
126,176,154571,1,0,1:2:0:0:
126,176,154650,1,0,1:2:0:0:
126,176,154730,2,0,L|141:227,3,49.4999984893799,8|0|2|0,1:2|1:2|1:2|1:2,0:0:0:0:
236,269,155049,2,0,L|221:320,3,49.4999984893799,10|8|8|8,0:0|0:0|0:0|0:0,0:0:0:0:
316,197,155368,1,8,0:0:0:0:
347,177,155447,1,8,0:0:0:0:
383,170,155528,1,10,0:0:0:0:
420,176,155608,1,8,0:0:0:0:
453,195,155688,6,0,P|486:112|407:51,2,197.99999395752,6|8|2,1:2|0:0|1:2,0:0:0:0:
296,218,156485,1,2,0:0:0:0:
388,354,156645,2,0,P|399:306|394:257,1,98.9999969787599,10|2,0:0|0:0,0:0:0:0:
248,130,156964,6,0,P|214:165|199:214,1,98.9999969787599,2|2,1:2|0:0,0:0:0:0:
215,328,157283,1,10,0:0:0:0:
296,218,157443,1,2,0:0:0:0:
296,218,157523,1,2,0:0:0:0:
296,218,157602,2,0,P|245:205|180:223,1,98.9999969787599,2|0,1:2|0:0,0:0:0:0:
74,76,157922,2,0,P|122:87|169:70,1,98.9999969787599,8|2,0:0|0:0,0:0:0:0:
346,11,158241,6,0,P|364:107|381:210,2,197.99999395752,2|8|2,1:2|0:0|1:2,0:0:0:0:
463,130,159039,1,2,0:0:0:0:
261,108,159198,2,0,P|244:155|233:213,1,98.9999969787599,10|2,0:0|0:0,0:0:0:0:
87,221,159517,5,2,1:2:0:0:
203,310,159677,1,2,0:0:0:0:
150,130,159837,1,10,0:0:0:0:
56,313,159996,1,2,0:0:0:0:
84,320,160076,1,2,0:0:0:0:
113,326,160156,2,0,P|161:333|206:308,1,98.9999969787599,2|2,1:2|0:0,0:0:0:0:
344,211,160475,2,0,P|295:203|252:226,1,98.9999969787599,10|0,0:0|0:0,0:0:0:0:
417,343,160794,6,0,P|382:250|415:143,1,197.99999395752,6|8,1:2|0:0,0:0:0:0:
475,49,161273,1,2,0:0:0:0:
475,49,161352,1,2,0:0:0:0:
475,49,161432,2,0,P|416:22|365:34,1,98.9999969787599,2|2,1:2|0:0,0:0:0:0:
207,165,161751,2,0,L|228:53,1,98.9999969787599,10|2,0:0|0:0,0:0:0:0:
348,203,162071,5,2,1:2:0:0:
225,67,162230,1,0,0:0:0:0:
172,254,162390,2,0,P|224:248|286:271,1,98.9999969787599,8|2,0:0|0:0,0:0:0:0:
403,350,162709,2,0,P|355:362|306:356,1,98.9999969787599,2|2,1:2|0:0,0:0:0:0:
92,200,163028,2,0,P|74:250|88:308,1,98.9999969787599,10|2,0:0|1:2,0:0:0:0:
348,203,163347,6,0,P|288:137|317:26,1,197.99999395752,6|14,1:2|0:0,0:0:0:0:
306,36,163826,1,0,0:0:0:0:
465,144,163985,2,0,L|477:250,1,98.9999969787599,2|0,1:2|0:0,0:0:0:0:
332,300,164305,2,0,L|348:202,1,98.9999969787599,14|0,0:0|0:0,0:0:0:0:
437,322,164624,5,2,1:2:0:0:
437,322,164783,1,2,1:2:0:0:
375,113,164943,2,0,P|316:114|268:163,1,98.9999969787599,14|0,0:0|0:0,0:0:0:0:
167,305,165262,5,14,0:0:0:0:
170,275,165342,1,8,0:0:0:0:
172,245,165422,1,10,0:3:0:0:
175,215,165501,1,8,0:3:0:0:
179,185,165581,2,0,L|189:122,3,49.4999984893799,6|4|6|4,0:3|0:3|0:3|0:3,0:0:0:0:
232,42,165900,5,2,1:2:0:0:
232,42,166220,2,0,P|179:31|131:48,1,98.9999969787599,14|0,0:0|0:0,0:0:0:0:
352,193,166539,2,0,P|440:203|441:103,1,197.99999395752,2|8,1:2|0:0,0:0:0:0:
352,89,167017,1,2,0:2:0:0:
242,235,167177,6,0,L|264:139,1,98.9999969787599,2|2,1:2|0:0,0:0:0:0:
264,139,167416,1,2,0:0:0:0:
264,139,167496,1,10,0:0:0:0:
361,255,167656,2,0,P|264:278|171:311,1,197.99999395752,2|0,0:0|0:0,0:0:0:0:
85,367,168134,1,8,0:0:0:0:
155,54,168454,5,2,1:2:0:0:
212,147,168613,1,2,0:0:0:0:
32,229,168773,1,10,0:0:0:0:
55,137,168932,1,2,0:0:0:0:
224,260,169092,6,0,P|169:254|132:221,1,98.9999969787599,2|2,1:2|0:0,0:0:0:0:
136,227,169331,1,0,0:0:0:0:
136,227,169411,1,10,0:0:0:0:
212,147,169571,1,2,0:0:0:0:
316,190,169730,6,0,P|332:235|346:288,1,98.9999969787599,2|2,1:2|0:0,0:0:0:0:
474,373,170049,2,0,P|479:347|491:322,2,49.4999984893799,10|0|2,0:0|0:0|0:0,0:0:0:0:
450,235,170368,1,2,1:2:0:0:
450,235,170528,1,2,0:0:0:0:
358,381,170688,2,0,P|300:375|272:345,1,98.9999969787599,10|10,0:0|0:0,0:0:0:0:
273,347,170927,1,8,0:0:0:0:
273,347,171007,5,6,1:2:0:0:
153,258,171166,1,2,0:0:0:0:
223,134,171326,2,0,P|245:184|256:237,1,98.9999969787599,10|2,0:0|0:0,0:0:0:0:
159,366,171645,5,2,1:2:0:0:
353,285,171805,1,2,0:0:0:0:
159,366,171964,2,0,P|104:361|68:328,1,98.9999969787599,10|2,0:0|0:0,0:0:0:0:
49,149,172283,5,2,1:2:0:0:
254,227,172443,1,2,0:0:0:0:
49,149,172602,1,10,0:0:0:0:
193,62,172762,1,0,1:2:0:0:
193,62,172842,1,0,1:2:0:0:
193,62,172922,2,0,P|168:129|136:232,2,173.24999471283,10|14|14,0:0|0:0|0:0,0:0:0:0:
295,137,173560,6,0,B|400:93|382:180|488:134,1,197.99999395752,6|8,1:2|0:0,0:0:0:0:
439,326,174039,2,0,P|381:336|344:223,1,197.99999395752,2|0,0:0|0:0,0:0:0:0:
438,51,174517,1,10,0:0:0:0:
265,42,174677,1,2,0:0:0:0:
265,42,174757,1,2,0:0:0:0:
265,42,174837,6,0,L|296:142,1,98.9999969787599,2|0,1:2|0:0,0:0:0:0:
74,236,175156,2,0,L|103:141,1,98.9999969787599,10|0,0:0|1:2,0:0:0:0:
101,91,175395,1,2,1:2:0:0:
101,91,175475,2,0,P|87:67|63:53,2,49.4999984893799,2|2|2,1:2|1:2|1:2,0:0:0:0:
190,302,175794,2,0,P|245:305|289:270,1,98.9999969787599,10|2,0:0|1:2,0:0:0:0:
492,133,176113,6,0,B|381:104|416:189|300:148,1,197.99999395752,14|0,0:0|1:2,0:0:0:0:
92,330,176592,2,0,B|203:301|168:386|284:345,1,197.99999395752,14|0,0:0|1:2,0:0:0:0:
482,340,177071,2,0,P|484:285|458:242,1,98.9999969787599,14|0,0:0|0:0,0:0:0:0:
390,78,177390,5,2,1:2:0:0:
326,245,177549,1,12,0:0:0:0:
326,245,177709,2,0,P|316:194|301:145,1,98.9999969787599,12|0,0:0|1:2,0:0:0:0:
206,58,178028,6,0,P|179:62|152:77,1,49.4999984893799,8|8,0:0|0:0,0:0:0:0:
30,111,178188,2,0,P|57:115|84:130,1,49.4999984893799,8|8,0:0|0:0,0:0:0:0:
216,160,178347,2,0,P|189:164|162:179,1,49.4999984893799,8|8,0:0|0:0,0:0:0:0:
40,213,178507,2,0,P|67:217|94:232,1,49.4999984893799,8|8,0:0|0:0,0:0:0:0:
177,280,178666,5,4,1:2:0:0:
177,280,188081,6,0,P|237:244|181:201,1,165,10|0,0:0|1:2,0:0:0:0:
100,335,188560,2,0,P|124:367|163:382,1,82.5,2|0,1:2|1:2,0:0:0:0:
347,282,188879,6,0,B|252:215|234:338|154:262,1,181.500005538941,14|8,0:0|0:0,0:0:0:0:
118,92,189358,1,0,1:2:0:0:
118,92,189517,2,0,P|76:84|25:103,1,90.7500027694703,8|0,0:0|1:2,0:0:0:0:
204,173,189837,1,2,1:2:0:0:
204,173,189996,2,0,P|230:137|238:92,1,90.7500027694703,8|2,0:0|1:2,0:0:0:0:
87,203,190315,1,8,0:0:0:0:
87,203,190475,2,0,P|104:249|139:275,1,90.7500027694703,10|0,0:0|1:2,0:0:0:0:
238,92,190794,6,0,P|282:103|320:77,1,90.7500027694703,10|0,0:0|1:2,0:0:0:0:
455,65,191113,2,0,P|438:130|427:206,1,136.125004154205,10|0,0:0|1:2,0:0:0:0:
438,247,191432,2,0,P|392:246|348:256,1,90.7500027694703,14|0,0:0|1:2,0:0:0:0:
204,313,191751,1,0,1:2:0:0:
254,165,191911,1,8,0:0:0:0:
291,329,192071,6,0,P|219:267|114:275,1,181.500005538941,2|8,1:2|0:0,0:0:0:0:
25,362,192549,2,0,L|-2:172,1,181.500005538941,14|8,0:0|0:0,0:0:0:0:
102,42,193028,2,0,P|156:44|190:26,1,90.7500027694703,8|0,0:0|1:2,0:0:0:0:
338,75,193347,6,0,L|370:107,3,45.3750013847352,8|8|8|8,0:3|0:3|0:3|0:3,0:0:0:0:
388,133,193666,1,10,0:0:0:0:
400,157,193746,1,8,0:0:0:0:
405,183,193826,1,10,0:0:0:0:
406,210,193906,1,8,0:0:0:0:
398,237,193985,6,0,P|436:262|481:267,1,90.7500027694703,14|0,0:0|0:0,0:0:0:0:
288,190,194305,2,0,P|239:182|192:142,1,90.7500027694703,8|0,0:0|1:2,0:0:0:0:
367,105,194624,2,0,P|397:137|404:182,1,90.7500027694703,8|0,0:0|1:2,0:0:0:0:
264,328,194943,1,10,0:0:0:0:
288,190,195102,1,0,1:2:0:0:
150,249,195262,6,0,P|227:281|327:278,1,181.500005538941,10|8,0:0|0:0,0:0:0:0:
468,321,195741,1,0,1:2:0:0:
468,321,195900,2,0,P|472:276|458:229,1,90.7500027694703,10|0,0:0|1:2,0:0:0:0:
318,124,196220,2,0,P|262:132|235:156,1,90.7500027694703,10|0,0:0|1:2,0:0:0:0:
468,321,196539,6,0,P|375:339|322:254,1,181.500005538941,14|0,0:0|1:2,0:0:0:0:
318,124,197017,1,10,0:0:0:0:
413,246,197177,1,10,0:0:0:0:
265,203,197337,1,8,0:0:0:0:
409,150,197496,1,8,0:0:0:0:
324,279,197656,1,8,0:0:0:0:
191,135,197815,6,0,P|166:172|162:233,1,90.7500027694703,8|8,0:0|0:0,0:0:0:0:
8,316,198134,2,0,L|26:227,1,90.7500027694703,8|8,0:0|0:0,0:0:0:0:
142,48,198454,5,8,0:0:0:0:
383,135,198613,1,10,0:0:0:0:
159,216,198773,1,10,0:0:0:0:
321,29,198932,1,6,1:2:0:0:
256,192,199012,12,2,200368,0:0:0:0:
465,328,201645,6,0,P|408:354|361:253,1,197.99999395752,6|0,0:0|0:0,0:0:0:0:
445,165,202283,2,0,P|454:199|462:238,3,66,2|2|2|2,0:0|0:0|0:0|0:0,0:0:0:0:
287,111,202922,6,0,B|208:88|228:141|147:111,1,132,2|2,1:2|0:0,0:0:0:0:
79,51,203400,1,8,0:0:0:0:
27,291,203720,1,4,0:3:0:0:
27,291,203879,2,0,P|65:289|89:268,1,66,6|0,0:3|1:2,0:0:0:0:
272,225,204198,5,2,1:2:0:0:
272,225,204358,1,0,1:2:0:0:
256,373,204517,2,0,P|247:337|236:306,1,66,12|0,0:0|0:0,0:0:0:0:
170,79,204837,5,0,1:2:0:0:
170,79,204997,1,0,1:2:0:0:
168,236,205156,2,0,P|177:200|188:169,1,66,12|0,0:0|0:0,0:0:0:0:
413,24,205475,6,0,P|436:54|442:100,1,82.5,8|2,0:0|1:2,0:0:0:0:
341,135,205794,2,0,P|317:104|311:58,1,82.5,14|2,0:0|1:2,0:0:0:0:
422,197,206113,1,2,1:2:0:0:
326,331,206273,1,10,0:0:0:0:
326,331,206352,1,8,0:0:0:0:
326,331,206432,2,0,L|333:287,3,41.25,10|8|10|8,0:0|0:0|0:0|0:0,0:0:0:0:
327,241,206751,6,0,P|255:229|197:279,1,148.49999546814,6|0,1:2|0:0,0:0:0:0:
160,304,207071,2,0,P|114:308|77:271,1,98.9999969787599,10|0,0:0|0:0,0:0:0:0:
53,92,207390,2,0,P|37:131|21:186,1,98.9999969787599,2|0,1:2|0:0,0:0:0:0:
132,181,207709,1,10,0:0:0:0:
132,181,207868,1,2,0:0:0:0:
226,94,208028,6,0,B|316:68|316:68|372:99,1,148.49999546814,2|0,1:2|0:0,0:0:0:0:
399,135,208347,2,0,P|448:142|480:104,1,98.9999969787599,10|0,0:0|0:0,0:0:0:0:
297,175,208666,2,0,P|285:215|273:274,1,98.9999969787599,2|0,1:2|0:0,0:0:0:0:
412,349,208985,2,0,P|404:308|388:252,1,98.9999969787599,10|0,0:0|1:2,0:0:0:0:
204,137,209305,6,0,P|262:78|374:103,2,197.99999395752,2|12|0,1:2|0:0|1:2,0:0:0:0:
139,70,210102,1,2,1:2:0:0:
47,135,210262,1,14,0:0:0:0:
9,22,210422,1,0,1:2:0:0:
124,208,210581,5,10,0:0:0:0:
124,208,210900,2,0,L|105:310,1,98.9999969787599,14|0,0:0|0:0,0:0:0:0:
247,333,211220,1,8,0:0:0:0:
285,187,211379,1,8,0:0:0:0:
285,187,211459,1,8,0:0:0:0:
285,187,211539,2,0,L|273:136,3,49.4999984893799,8|8|8|8,0:0|0:0|0:0|0:0,0:0:0:0:
235,103,211858,6,0,B|150:161|125:71|35:130,2,197.99999395752,6|8|2,1:2|0:0|1:2,0:0:0:0:
86,35,212656,1,2,0:0:0:0:
244,10,212815,2,0,P|253:63|232:107,1,98.9999969787599,10|2,0:0|0:0,0:0:0:0:
135,224,213134,6,0,P|171:249|228:249,1,98.9999969787599,2|0,1:2|0:0,0:0:0:0:
431,161,213454,2,0,P|390:193|344:192,1,98.9999969787599,10|0,0:0|0:0,0:0:0:0:
315,306,213773,1,2,1:2:0:0:
315,306,213932,1,0,1:2:0:0:
405,370,214092,2,0,P|423:327|419:271,1,98.9999969787599,10|0,0:0|0:0,0:0:0:0:
360,84,214411,6,0,P|417:155|341:191,2,197.99999395752,2|8|0,1:2|0:0|1:2,0:0:0:0:
265,25,215209,1,0,0:0:0:0:
184,154,215368,1,8,0:0:0:0:
364,140,215528,6,0,P|306:129|262:120,1,98.9999969787599,2|0,0:0|1:2,0:0:0:0:
85,72,215847,1,2,0:0:0:0:
129,237,216007,1,10,0:0:0:0:
129,237,216166,1,2,0:0:0:0:
59,320,216326,6,0,P|29:286|23:229,1,98.9999969787599,2|2,1:2|0:0,0:0:0:0:
119,147,216645,1,10,0:0:0:0:
246,225,216805,1,10,0:0:0:0:
246,225,216884,1,8,0:0:0:0:
246,225,216964,6,0,P|291:144|219:76,2,197.99999395752,6|8|0,1:2|0:0|1:2,0:0:0:0:
154,320,217762,1,2,0:0:0:0:
324,288,217922,2,0,P|316:333|327:386,1,98.9999969787599,10|2,0:0|0:0,0:0:0:0:
415,206,218241,6,0,P|393:161|398:98,1,98.9999969787599,2|0,1:2|0:0,0:0:0:0:
221,166,218560,1,10,0:0:0:0:
221,166,218720,1,0,0:0:0:0:
324,288,218879,2,0,P|368:279|418:296,1,98.9999969787599,2|0,1:2|0:0,0:0:0:0:
486,125,219198,2,0,P|441:133|394:113,1,98.9999969787599,10|0,0:0|0:0,0:0:0:0:
284,15,219517,6,0,P|298:91|203:85,2,197.99999395752,4|8|2,1:2|0:0|1:2,0:0:0:0:
155,14,220315,1,0,0:0:0:0:
125,146,220475,2,0,L|163:345,1,197.99999395752,10|0,0:0|1:2,0:0:0:0:
39,253,220954,5,12,0:0:0:0:
39,253,221034,1,8,0:0:0:0:
39,253,221113,2,0,L|50:195,3,49.4999984893799,8|8|8|8,0:0|0:3|0:3|0:3,0:0:0:0:
125,146,221432,5,4,0:3:0:0:
165,141,221512,1,4,0:3:0:0:
204,150,221592,1,4,0:3:0:0:
237,173,221672,1,4,0:3:0:0:
264,202,221751,2,0,P|281:242|277:298,1,98.9999969787599,12|0,0:0|0:0,0:0:0:0:
212,351,221991,1,0,1:2:0:0:
202,342,222071,6,0,B|322:299|297:377|412:332,1,214.49999018097,14|8,0:0|0:0,0:0:0:0:
444,255,222470,1,8,0:0:0:0:
444,255,222549,2,0,P|438:225|420:205,1,53.6249975452424,0|0,1:2|1:2,0:0:0:0:
341,120,222709,6,0,P|312:122|289:137,1,53.6249975452424,10|8,1:2|0:0,0:0:0:0:
207,195,222868,2,0,P|180:193|157:180,1,53.6249975452424,10|8,0:0|0:0,0:0:0:0:
113,82,223028,1,10,0:3:0:0:
113,82,223108,1,8,0:3:0:0:
113,82,223188,1,10,0:3:0:0:
27,233,223347,6,0,L|62:346,1,107.249995090485,2|12,1:2|0:0,0:0:0:0:
158,368,223666,1,10,1:2:0:0:
189,372,223746,1,8,0:0:0:0:
220,365,223826,1,8,0:0:0:0:
249,351,223906,1,8,0:0:0:0:
265,323,223985,2,0,P|271:298|269:269,3,53.6249975452424,10|8|8|8,0:0|0:0|0:0|0:0,0:0:0:0:
238,185,224305,2,0,P|232:160|234:131,3,53.6249975452424,10|8|4|4,0:3|0:3|0:3|0:3,0:0:0:0:
312,89,224624,6,0,B|208:50|237:132|116:86,1,197.99999395752,14|0,1:2|1:2,0:0:0:0:
18,36,225102,1,8,0:0:0:0:
17,226,225262,1,0,1:2:0:0:
17,226,225422,2,0,P|73:219|106:182,2,98.9999969787599,8|8|10,0:0|0:0|0:0,0:0:0:0:
205,129,225900,6,0,P|216:179|226:237,1,98.9999969787599,12|2,0:0|1:2,0:0:0:0:
122,384,226220,2,0,P|130:335|141:287,1,98.9999969787599,14|2,0:0|1:2,0:0:0:0:
303,152,226539,1,14,0:0:0:0:
418,313,226698,1,10,0:0:0:0:
418,313,226778,1,8,0:0:0:0:
418,313,226858,2,0,L|368:327,3,49.4999984893799,10|8|10|8,0:0|0:0|0:0|0:0,0:0:0:0:
283,378,227177,6,0,P|273:306|315:247,1,148.49999546814,6|0,1:2|0:0,0:0:0:0:
364,232,227496,2,0,P|416:213|432:170,1,98.9999969787599,10|0,0:0|0:0,0:0:0:0:
479,14,227815,2,0,P|495:67|508:115,1,98.9999969787599,2|0,1:2|0:0,0:0:0:0:
342,62,228134,1,10,0:0:0:0:
342,62,228294,1,2,0:0:0:0:
250,174,228454,6,0,P|187:190|139:117,1,148.49999546814,2|0,1:2|0:0,0:0:0:0:
94,104,228773,2,0,P|82:156|71:215,1,98.9999969787599,10|0,0:0|0:0,0:0:0:0:
135,337,229092,2,0,P|82:337|41:304,1,98.9999969787599,2|0,1:2|0:0,0:0:0:0:
267,185,229411,2,0,P|287:259|303:335,1,148.49999546814,10|0,0:0|0:0,0:0:0:0:
348,362,229730,6,0,P|442:365|467:277,2,197.99999395752,2|12|0,1:2|0:0|1:2,0:0:0:0:
372,255,230528,1,2,1:2:0:0:
240,159,230688,2,0,P|210:201|206:252,1,98.9999969787599,14|2,0:0|1:2,0:0:0:0:
371,111,231007,5,14,0:0:0:0:
270,32,231166,1,8,0:0:0:0:
270,32,231246,1,8,0:0:0:0:
270,32,231326,2,0,P|246:23|221:22,3,49.4999984893799,10|8|8|8,0:0|0:0|0:0|0:0,0:0:0:0:
159,105,231645,2,0,P|134:103|111:94,3,49.4999984893799,8|8|8|8,0:0|0:0|0:0|0:0,0:0:0:0:
32,32,231964,1,8,0:0:0:0:
13,64,232044,1,8,0:0:0:0:
8,100,232124,1,8,0:0:0:0:
16,136,232204,1,8,0:0:0:0:
36,167,232283,6,0,B|126:102|140:217|241:137,1,197.99999395752,6|8,1:2|0:0,0:0:0:0:
94,251,232762,1,0,0:0:0:0:
254,242,232922,2,0,P|231:198|226:114,1,98.9999969787599,2|2,1:2|0:0,0:0:0:0:
303,60,233241,1,10,0:0:0:0:
404,111,233400,1,2,0:0:0:0:
342,264,233560,6,0,P|300:270|253:240,1,98.9999969787599,2|0,1:2|0:0,0:0:0:0:
438,337,233879,2,0,P|464:293|462:238,1,98.9999969787599,10|0,0:0|0:0,0:0:0:0:
404,111,234198,1,2,1:2:0:0:
404,111,234358,1,0,1:2:0:0:
233,144,234517,2,0,L|255:251,1,98.9999969787599,10|0,0:0|0:0,0:0:0:0:
112,198,234837,6,0,P|96:111|188:37,2,197.99999395752,2|8|0,1:2|0:0|1:2,0:0:0:0:
153,340,235634,1,0,0:0:0:0:
253,241,235794,1,8,0:0:0:0:
199,134,235954,6,0,B|276:84|298:179|419:92,1,197.99999395752,10|2,0:0|1:2,0:0:0:0:
506,75,236432,2,0,L|484:204,1,98.9999969787599,10|2,0:0|0:0,0:0:0:0:
348,278,236751,2,0,P|300:281|258:241,1,98.9999969787599,2|10,1:2|0:0,0:0:0:0:
225,223,236991,1,8,0:0:0:0:
225,223,237071,2,0,L|214:173,3,49.4999984893799,10|8|10|8,0:0|0:0|0:0|0:0,0:0:0:0:
151,125,237390,6,0,B|215:144|219:83|317:133,1,148.49999546814,6|0,1:2|0:0,0:0:0:0:
345,139,237709,2,0,P|344:87|362:32,1,98.9999969787599,10|0,0:0|0:0,0:0:0:0:
460,254,238028,2,0,P|461:202|443:147,1,98.9999969787599,2|0,1:2|0:0,0:0:0:0:
272,227,238347,1,10,0:0:0:0:
272,227,238507,1,2,0:0:0:0:
140,64,238666,6,0,P|110:133|134:201,1,148.49999546814,2|0,1:2|0:0,0:0:0:0:
103,242,238985,2,0,P|155:248|208:273,1,98.9999969787599,10|0,0:0|0:0,0:0:0:0:
342,339,239305,2,0,P|305:303|307:247,1,98.9999969787599,2|0,1:2|0:0,0:0:0:0:
216,137,239624,1,10,0:0:0:0:
216,137,239783,1,0,0:0:0:0:
89,335,239943,6,0,P|134:354|183:359,1,98.9999969787599,6|0,1:2|0:0,0:0:0:0:
401,209,240262,2,0,P|438:245|436:301,1,98.9999969787599,8|0,0:0|0:0,0:0:0:0:
342,339,240581,2,0,P|305:303|307:247,1,98.9999969787599,2|2,1:2|0:0,0:0:0:0:
267,165,240900,1,10,0:0:0:0:
267,165,241060,1,2,0:0:0:0:
433,53,241220,6,0,P|397:114|322:80,1,148.49999546814,6|0,1:2|0:0,0:0:0:0:
308,55,241539,2,0,P|262:39|198:50,1,98.9999969787599,8|2,0:0|1:2,0:0:0:0:
113,32,241858,5,10,0:0:0:0:
112,55,241938,1,8,0:0:0:0:
117,77,242017,1,8,0:3:0:0:
64,192,242177,5,4,0:3:0:0:
142,270,242337,5,6,0:3:0:0:
245,229,242496,5,6,1:2:0:0:
282,328,246964,6,0,P|330:331|363:295,2,98.9999969787599,10|6|6,0:0|0:3|0:3,0:0:0:0:
295,221,247443,1,6,0:3:0:0:
183,195,247602,6,0,P|195:242|201:279,1,66,6|2,0:2|1:2,0:0:0:0:
101,321,247922,2,0,P|52:324|25:294,1,66,2|2,1:2|1:2,0:0:0:0:
8,182,248240,1,2,1:2:0:0:
8,182,248400,2,0,P|42:179|69:207,1,66,10|0,0:0|1:2,0:0:0:0:
198,259,248720,6,0,B|288:225|267:295|359:257,1,165,10|10,0:0|0:0,0:0:0:0:
489,242,249198,1,10,0:0:0:0:
344,164,249357,1,10,0:0:0:0:
363,335,249517,2,0,P|369:282|349:250,1,82.5,8|10,0:0|0:0,0:0:0:0:
241,173,249837,1,8,0:0:0:0:
398,73,249996,1,10,0:0:0:0:
261,266,250156,6,0,P|236:270|209:258,3,49.4999984893799,14|8|8|8,0:0|0:0|0:0|0:0,0:0:0:0:
147,191,250475,2,0,P|123:182|99:186,3,49.4999984893799,8|8|8|8,0:0|0:0|0:0|0:0,0:0:0:0:
48,272,250794,5,8,0:0:0:0:
39,302,250874,1,8,0:0:0:0:
44,333,250954,1,8,0:0:0:0:
65,355,251033,1,8,0:0:0:0:
96,362,251113,2,0,P|115:354|129:328,3,49.4999984893799,8|8|10|8,0:0|0:0|0:0|0:0,0:0:0:0:
213,261,251432,6,0,L|203:210,3,49.4999984893799,10|8|8|8,0:0|0:0|0:0|0:0,0:0:0:0:
132,139,251751,2,0,L|142:88,1,49.4999984893799,10|8,0:0|0:0,0:0:0:0:
225,23,251911,1,10,0:0:0:0:
228,32,251991,1,8,0:0:0:0:
232,41,252071,5,8,0:0:0:0:
266,59,252150,1,8,0:0:0:0:
305,62,252230,1,10,0:0:0:0:
344,58,252310,1,8,0:0:0:0:
380,42,252390,2,0,P|402:31|420:11,1,49.4999984893799,10|8,0:0|0:0,0:0:0:0:
512,202,252549,2,0,P|490:191|472:171,1,49.4999984893799,8|8,0:0|0:0,0:0:0:0:
430,222,253826,6,0,B|467:201|512:203|512:203|355:151|429:279|256:212|256:212|307:223|342:197,1,445.499986404419,6|2,0:0|0:0,0:0:0:0:
256,192,255342,12,0,256539,0:0:0:0:
