osu file format v14

[General]
AudioFilename: audio.mp3
AudioLeadIn: 0
PreviewTime: 55770
Countdown: 0
SampleSet: Soft
StackLeniency: 0.5
Mode: 0
LetterboxInBreaks: 0
WidescreenStoryboard: 1

[Editor]
Bookmarks: 3430,4068,4706,5983,16036,17153,25132,26408,32632,34547,35345,36621,39653,50664,53217,54494,58323,59440,60877,62153,63430,65025,68536,71089,72366,73642,73962,74919,76196,81302,83855
DistanceSpacing: 1.2
BeatDivisor: 4
GridSize: 32
TimelineZoom: 1.9

[Metadata]
Title:Hikariiro no Uta (TV Size)
TitleUnicode:ヒカリイロの歌 (TV Size)
Artist:Suzuki Aina
ArtistUnicode:鈴木愛奈
Creator:PikAqours
Version:Eli & Didah's Hard
Source:はてな☆イリュージョン
Tags:ending ed jpop j-pop pop j-rock jrock rock anime japanese hatena☆illusion [_eli_] elinor kirishima- tritobandito adinda didah ZAQ 伊藤 翼 Tsubasa Ito Itō Itou
BeatmapID:3088030
BeatmapSetID:1489381

[Difficulty]
HPDrainRate:4
CircleSize:3.5
OverallDifficulty:6.5
ApproachRate:8
SliderMultiplier:1.4
SliderTickRate:1

[Events]
//Background and Video events
0,0,"bg.jpg",0,0
//Break Periods
2,76396,79754
//Storyboard Layer 0 (Background)
//Storyboard Layer 1 (Fail)
//Storyboard Layer 2 (Pass)
//Storyboard Layer 3 (Foreground)
//Storyboard Layer 4 (Overlay)
//Storyboard Sound Samples

[TimingPoints]
877,319.148936170213,4,2,1,70,1,0
877,-125,4,2,1,70,0,0
5983,-111.111111111111,4,2,1,80,0,0
12366,-100,4,2,1,80,0,0
17153,-100,4,2,1,60,0,0
17472,-125,4,2,1,50,0,0
22579,-111.111111111111,4,2,1,70,0,0
27685,-111.111111111111,4,2,1,70,0,0
37898,-111.111111111111,4,2,1,70,0,0
43004,-111.111111111111,4,2,1,70,0,0
50664,-100,4,2,1,80,0,0
55770,-90.9090909090909,4,2,1,85,0,1
61116,-90.9090909090909,4,2,1,5,0,1
61196,-90.9090909090909,4,2,1,85,0,1
62392,-90.9090909090909,4,2,1,5,0,1
62472,-90.9090909090909,4,2,1,85,0,1
63669,-90.9090909090909,4,2,1,5,0,1
63749,-90.9090909090909,4,2,1,85,0,1
76196,-125,4,2,1,60,0,0
81302,-100,4,2,1,80,0,0
87525,-166.666666666667,4,2,1,70,0,0
88882,-166.666666666667,4,2,1,5,0,0

[Colours]
Combo1 : 244,205,138
Combo2 : 96,202,96
Combo3 : 128,255,128
Combo4 : 255,255,168

[HitObjects]
84,40,877,6,0,B|29:21|-32:112|75:170|75:170|108:112|174:113|224:149|219:207,1,392,6|2,1:2|0:2,0:0:0:0:
198,264,2153,2,0,P|252:260|290:220,1,112,6|0,1:2|0:0,0:0:0:0:
324,149,2632,2,0,P|351:156|378:161,1,56,8|0,0:3|0:0,0:0:0:0:
412,238,2951,1,4,0:3:0:0:
412,238,3111,2,0,P|439:230|466:224,1,56,4|0,0:3|0:0,0:0:0:0:
505,112,3430,6,0,P|476:40|396:40,1,168,6|0,1:2|0:0,0:0:0:0:
328,136,4068,2,0,B|262:169|247:44|187:82,1,168,4|2,1:2|0:2,0:0:0:0:
92,148,4706,2,0,B|52:220|52:220|113:279,1,168,4|8,1:2|0:2,0:0:0:0:
152,292,5265,1,8,0:2:0:0:
152,292,5345,2,0,P|188:289|211:274,1,56,10|4,0:2|0:3,0:0:0:0:
260,224,5664,2,0,P|296:226|319:241,1,56,6|4,0:3|0:3,0:0:0:0:
402,312,5983,5,6,1:2:0:0:
402,312,6142,1,2,1:2:0:0:
473,271,6302,2,0,L|460:208,1,62.9999980773926,2|2,1:2|1:2,0:0:0:0:
396,156,6621,1,2,1:2:0:0:
396,156,6781,2,0,L|414:95,1,62.9999980773926,2|0,1:2|1:2,0:0:0:0:
484,52,7100,6,0,P|432:17|371:25,1,125.999996154785,2|10,1:2|0:2,0:0:0:0:
324,96,7579,2,0,P|291:113|261:106,1,62.9999980773926,10|10,0:2|0:2,0:0:0:0:
231,34,7898,2,0,P|198:16|168:23,1,62.9999980773926,10|8,0:2|0:2,0:0:0:0:
100,56,8217,2,0,P|109:92|113:120,1,62.9999980773926,10|10,0:2|0:2,0:0:0:0:
124,161,8456,1,8,0:2:0:0:
124,161,8536,2,0,P|165:183|194:176,1,62.9999980773926,14|0,0:2|1:2,0:0:0:0:
251,140,8855,6,0,L|281:149,3,31.4999990386963,8|0|0|0,0:2|1:2|1:2|1:2,0:0:0:0:
309,178,9174,2,0,L|339:168,3,31.4999990386963,8|0|0|0,0:2|1:2|1:2|1:2,0:0:0:0:
379,160,9494,2,0,P|386:176|388:190,3,31.4999990386963,8|0|2|0,0:2|1:2|1:2|1:2,0:0:0:0:
408,225,9813,6,0,L|392:308,1,62.9999980773926,10|0,0:2|1:2,0:0:0:0:
392,302,10052,1,0,1:2:0:0:
389,317,10132,1,10,0:2:0:0:
322,359,10291,1,10,1:2:0:0:
322,359,10371,1,8,1:2:0:0:
322,359,10451,2,0,L|291:368,3,31.4999990386963,8|8|8|8,0:2|0:2|0:2|0:2,0:0:0:0:
254,349,10770,2,0,L|223:340,3,31.4999990386963,10|8|10|8,0:2|0:2|0:2|0:2,0:0:0:0:
256,191,12366,6,0,P|234:146|147:145,1,140,6|10,1:2|0:2,0:0:0:0:
75,191,12845,2,0,P|59:151|69:119,1,70,2|0,0:2|1:2,0:0:0:0:
75,35,13164,2,0,P|115:19|147:29,1,70,2|8,0:2|0:2,0:0:0:0:
212,79,13483,6,0,B|261:111|282:16|334:38,1,140,2|2,0:2|0:2,0:0:0:0:
424,29,13962,2,0,P|443:57|432:91,1,70,10|2,0:2|0:2,0:0:0:0:
359,143,14281,2,0,P|369:183|375:219,1,70,2|2,1:2|0:2,0:0:0:0:
456,249,14600,2,0,P|446:289|440:325,1,70,10|2,0:2|0:2,0:0:0:0:
355,350,14919,5,14,0:2:0:0:
355,350,15079,1,2,1:2:0:0:
287,289,15238,2,0,P|256:269|222:280,1,70,10|0,0:2|1:2,0:0:0:0:
165,345,15557,2,0,P|134:365|100:354,1,70,8|2,0:2|1:2,0:0:0:0:
28,305,15877,1,10,0:2:0:0:
46,189,16036,6,0,P|83:133|150:139,1,140,14|8,0:2|0:2,0:0:0:0:
164,148,16435,1,8,0:2:0:0:
175,160,16515,1,8,0:2:0:0:
244,233,16674,1,4,0:3:0:0:
244,233,16754,1,4,0:3:0:0:
244,233,16834,2,0,P|277:224|312:218,1,70,4|8,0:3|0:3,0:0:0:0:
432,200,17153,1,12,0:2:0:0:
382,56,17472,6,0,P|327:70|267:84,2,112,4|0|0,1:2|1:2|1:2,0:0:0:0:
460,35,18270,1,2,0:2:0:0:
460,35,18430,2,0,P|473:55|469:95,1,56,2|2,1:2|0:2,0:0:0:0:
454,162,18749,2,0,P|419:197|346:184,1,112,2|2,1:2|1:2,0:0:0:0:
292,153,19228,2,0,B|253:140|253:140|180:177,1,112,2|2,0:2|0:2,0:0:0:0:
162,245,19706,1,2,1:2:0:0:
8,215,20025,6,0,P|5:269|42:309,2,112,0|0|0,1:2|1:2|1:2,0:0:0:0:
73,169,20823,1,2,0:2:0:0:
73,169,20983,2,0,L|58:110,1,56,2|2,1:2|0:2,0:0:0:0:
70,36,21302,2,0,P|125:50|185:64,1,112,2|2,1:2|1:2,0:0:0:0:
238,114,21781,2,0,P|293:116|337:58,1,112,2|2,0:2|0:2,0:0:0:0:
392,29,22259,1,10,0:2:0:0:
392,29,22579,6,0,P|445:60|433:136,1,125.999996154785,6|8,1:2|0:2,0:0:0:0:
381,167,23057,1,2,1:2:0:0:
381,167,23217,2,0,B|336:215|336:215|357:272,1,125.999996154785,2|8,1:2|0:2,0:0:0:0:
387,347,23696,1,2,1:2:0:0:
244,266,24015,1,2,1:2:0:0:
101,346,24334,1,2,1:2:0:0:
101,346,24494,2,0,L|84:276,1,62.9999980773926,2|0,1:2|1:2,0:0:0:0:
71,251,24733,1,0,1:2:0:0:
71,251,24813,2,0,L|88:181,1,62.9999980773926,14|0,0:2|0:0,0:0:0:0:
128,78,25132,6,0,P|70:62|23:103,2,125.999996154785,6|8|4,1:2|0:2|1:2,0:0:0:0:
194,126,25930,1,2,1:2:0:0:
194,126,26089,2,0,L|264:138,1,62.9999980773926,10|2,0:2|0:2,0:0:0:0:
350,64,26408,2,0,B|387:42|387:42|475:80,1,125.999996154785,6|10,1:2|0:2,0:0:0:0:
501,147,26887,2,0,P|503:177|486:203,1,62.9999980773926,2|0,1:2|0:0,0:0:0:0:
442,273,27206,1,10,0:2:0:0:
442,273,27286,1,8,0:2:0:0:
442,273,27366,2,0,L|409:257,3,31.4999990386963,8|8|8|8,0:2|0:2|0:2|0:2,0:0:0:0:
377,239,27685,6,0,P|318:222|274:263,1,125.999996154785,4|10,1:2|0:2,0:0:0:0:
246,339,28164,1,0,0:0:0:0:
167,361,28323,2,0,P|135:361|112:342,1,62.9999980773926,2|0,1:2|0:0,0:0:0:0:
36,310,28642,2,0,P|25:281|34:251,1,62.9999980773926,10|0,0:2|0:0,0:0:0:0:
97,198,28962,6,0,B|137:147|137:147|107:93,1,125.999996154785,2|10,1:2|0:2,0:0:0:0:
47,37,29440,2,0,P|69:15|100:10,1,62.9999980773926,2|0,0:2|1:2,0:0:0:0:
176,41,29759,1,2,0:2:0:0:
344,40,30079,5,2,0:2:0:0:
344,40,30238,2,0,B|372:76|372:76|344:152,1,125.999996154785,2|10,1:2|0:2,0:0:0:0:
276,200,30717,2,0,P|268:236|276:260,1,62.9999980773926,2|0,0:2|1:2,0:0:0:0:
340,308,31036,1,2,0:2:0:0:
184,352,31355,5,2,0:2:0:0:
184,352,31515,2,0,P|124:335|59:319,1,125.999996154785,2|8,1:2|0:2,0:0:0:0:
40,240,31994,2,0,P|30:176|95:148,1,125.999996154785,2|8,0:2|0:2,0:0:0:0:
90,141,32392,1,8,0:2:0:0:
106,139,32472,1,8,0:2:0:0:
228,152,32632,5,8,0:2:0:0:
228,152,32712,1,8,0:2:0:0:
228,152,32791,2,0,L|288:172,1,62.9999980773926,4|0,1:2|1:2,0:0:0:0:
368,184,33111,2,0,P|394:158|387:118,1,62.9999980773926,10|0,0:2|0:0,0:0:0:0:
400,52,33430,2,0,B|352:23|334:101|284:74,1,125.999996154785,2|8,1:2|0:2,0:0:0:0:
128,24,34068,6,0,L|110:100,1,62.9999980773926,2|0,1:2|1:2,0:0:0:0:
24,160,34387,1,10,0:2:0:0:
24,160,34547,2,0,L|53:283,1,125.999996154785,6|2,1:2|1:2,0:0:0:0:
112,336,35025,2,0,P|150:349|174:340,1,62.9999980773926,10|0,1:2|1:2,0:0:0:0:
251,256,35345,6,0,P|285:265|327:273,1,62.9999980773926,8|0,0:2|1:2,0:0:0:0:
345,345,35664,2,0,P|375:336|406:330,1,62.9999980773926,10|0,0:2|1:2,0:0:0:0:
445,320,35903,1,0,1:2:0:0:
445,320,35983,2,0,P|462:271|443:240,1,62.9999980773926,10|0,0:2|1:2,0:0:0:0:
390,217,36302,2,0,P|373:168|392:137,1,62.9999980773926,10|0,0:2|1:2,0:0:0:0:
457,72,36621,6,0,P|433:34|354:43,1,125.999996154785,14|8,0:2|0:2,0:0:0:0:
299,94,37100,1,0,1:2:0:0:
299,94,37259,2,0,L|216:111,1,62.9999980773926,10|4,0:3|0:3,0:0:0:0:
178,48,37579,2,0,L|125:35,3,31.4999990386963,8|8|8|8,0:2|0:2|0:2|0:2,0:0:0:0:
108,54,37898,6,0,P|72:73|77:162,1,125.999996154785,4|10,1:2|1:2,0:0:0:0:
91,234,38377,1,2,1:2:0:0:
91,234,38536,2,0,P|137:249|159:236,1,62.9999980773926,10|2,0:2|1:2,0:0:0:0:
184,170,38855,2,0,P|214:165|241:180,1,62.9999980773926,2|10,1:2|0:2,0:0:0:0:
267,219,39095,5,8,0:2:0:0:
267,219,39174,2,0,L|278:282,1,62.9999980773926,10|2,0:2|1:2,0:0:0:0:
360,364,39494,1,2,1:2:0:0:
360,364,39653,2,0,L|484:344,1,125.999996154785,14|2,0:2|1:2,0:0:0:0:
500,264,40132,2,0,P|500:228|480:208,1,62.9999980773926,10|2,0:2|1:2,0:0:0:0:
442,202,40371,5,0,1:2:0:0:
442,202,40451,2,0,B|411:162|411:162|436:82,1,125.999996154785,6|10,1:2|0:2,0:0:0:0:
500,42,40930,1,10,0:2:0:0:
496,26,41010,1,8,0:2:0:0:
492,10,41089,1,8,0:2:0:0:
410,3,41249,1,2,1:2:0:0:
260,60,41568,6,0,P|251:122|239:188,1,125.999996154785,6|0,1:2|1:2,0:0:0:0:
188,248,42047,2,0,P|156:260|128:248,1,62.9999980773926,10|2,0:2|0:0,0:0:0:0:
54,218,42366,1,2,1:2:0:0:
93,146,42525,2,0,L|102:116,2,31.4999990386963,10|8|2,0:2|0:2|1:2,0:0:0:0:
52,48,42845,5,8,0:2:0:0:
52,48,42924,1,8,0:2:0:0:
52,48,43004,2,0,B|110:21|110:92|167:70,1,125.999996154785,6|2,1:2|0:0,0:0:0:0:
216,4,43483,1,0,1:2:0:0:
216,4,43642,2,0,L|340:36,1,125.999996154785,10|2,0:2|0:0,0:0:0:0:
400,88,44121,2,0,P|400:141|342:185,1,125.999996154785,2|0,1:2|1:2,0:0:0:0:
176,192,44759,2,0,L|116:216,2,62.9999980773926,0|8|0,1:2|0:2|1:0,0:0:0:0:
252,224,45238,1,2,0:2:0:0:
364,344,45557,6,0,B|420:344|400:284|468:284,1,125.999996154785,2|0,1:2|0:0,0:0:0:0:
512,216,46036,1,0,1:2:0:0:
512,216,46196,2,0,L|500:152,1,62.9999980773926,10|0,0:2|1:2,0:0:0:0:
444,92,46515,1,2,1:2:0:0:
428,96,46595,1,0,1:2:0:0:
412,100,46674,1,0,1:2:0:0:
356,160,46834,2,0,B|312:164|324:120|272:128,2,94.499997116089,10|8|10,0:2|0:2|0:2,0:0:0:0:
424,208,47472,2,0,P|436:236|428:268,1,62.9999980773926,2|8,1:2|0:2,0:0:0:0:
420,288,47712,1,8,0:2:0:0:
408,300,47791,2,0,L|376:308,3,31.4999990386963,8|8|8|8,0:2|0:2|0:2|0:2,0:0:0:0:
340,320,48111,5,4,1:2:0:0:
176,348,48430,2,0,L|116:324,1,62.9999980773926,2|0,1:2|0:0,0:0:0:0:
76,252,48749,2,0,P|76:228|156:188,1,125.999996154785,2|8,1:2|1:2,0:0:0:0:
304,120,49387,2,0,P|316:88|304:64,1,62.9999980773926,0|0,1:2|0:0,0:0:0:0:
244,8,49706,2,0,L|184:24,1,62.9999980773926,10|0,0:2|0:0,0:0:0:0:
144,96,50025,2,0,L|112:84,2,31.4999990386963,2|0|0,1:2|1:2|1:2,0:0:0:0:
215,136,50345,2,0,P|227:164|218:193,1,62.9999980773926,10|0,0:2|0:0,0:0:0:0:
144,284,50664,6,0,L|44:252,1,105,6|0,1:2|1:2,0:0:0:0:
16,215,50983,1,10,0:2:0:0:
21,124,51142,2,0,L|88:104,1,70,2|0,1:2|1:0,0:0:0:0:
105,98,51382,1,8,0:0:0:0:
121,93,51462,1,8,0:0:0:0:
182,26,51621,2,0,L|249:46,1,70,2|8,1:2|0:0,0:0:0:0:
266,52,51861,1,8,0:0:0:0:
283,57,51941,1,8,0:0:0:0:
328,147,52100,5,8,0:0:0:0:
328,147,52180,1,8,0:0:0:0:
328,147,52259,2,0,L|385:135,3,35,8|0|2|0,0:0|1:0|1:2|1:0,0:0:0:0:
391,115,52579,2,0,P|443:115|475:155,2,105,10|10|10,0:2|0:2|0:2,0:0:0:0:
295,190,53217,6,0,B|275:242|331:242|319:286,1,105,6|0,1:2|0:0,0:0:0:0:
302,328,53536,2,0,P|274:348|240:343,1,70,2|0,1:2|1:2,0:0:0:0:
170,293,53855,1,8,0:2:0:0:
170,293,54015,1,8,0:2:0:0:
198,209,54174,1,8,0:2:0:0:
198,209,54334,1,8,0:2:0:0:
294,130,54494,6,0,B|350:130|342:170|390:170,1,105,10|0,0:2|0:0,0:0:0:0:
424,143,54813,2,0,B|460:99|460:99|432:55,1,105,14|0,0:2|0:0,0:0:0:0:
413,17,55132,2,0,L|378:23,3,35,2|2|2|2,1:2|1:2|1:2|1:2,0:0:0:0:
340,47,55451,2,0,L|308:35,3,35,2|2|2|2,1:2|1:2|1:2|1:2,0:0:0:0:
260,20,55770,6,0,P|200:48|200:128,1,154.000004699707,6|8,1:2|0:2,0:0:0:0:
232,308,56408,2,0,L|156:332,1,77.0000023498536,2|2,1:2|0:2,0:0:0:0:
64,328,56728,1,10,0:2:0:0:
64,328,56887,1,2,0:2:0:0:
5,252,57047,6,0,P|5:212|25:179,1,77.0000023498536,2|0,1:2|0:0,0:0:0:0:
91,118,57366,2,0,P|135:118|163:138,1,77.0000023498536,10|0,0:2|0:0,0:0:0:0:
221,206,57685,2,0,P|261:206|289:185,1,77.0000023498536,2|0,1:2|0:0,0:0:0:0:
356,115,58004,2,0,P|356:70|332:46,1,77.0000023498536,10|0,0:2|0:0,0:0:0:0:
212,0,58323,6,0,B|104:44|104:44|68:32,2,154.000004699707,2|8|0,1:2|0:2|1:2,0:0:0:0:
396,0,59281,1,8,0:2:0:0:
496,84,59440,2,0,L|464:236,1,154.000004699707,2|2,0:2|0:2,0:0:0:0:
388,284,59919,2,0,P|356:308|320:308,1,77.0000023498536,10|2,0:2|0:2,0:0:0:0:
256,244,60238,2,0,P|228:220|188:220,1,77.0000023498536,2|2,1:2|0:2,0:0:0:0:
116,276,60557,1,10,0:2:0:0:
116,276,60717,1,2,0:2:0:0:
48,160,60877,6,0,B|20:120|20:120|52:60,1,115.50000352478,2|0,1:2|0:0,0:0:0:0:
76,24,61196,1,10,0:2:0:0:
260,8,61515,2,0,L|280:84,1,77.0000023498536,2|0,1:2|0:0,0:0:0:0:
348,148,61834,2,0,L|368:72,1,77.0000023498536,10|0,0:2|0:0,0:0:0:0:
492,24,62153,6,0,B|480:76|544:76|508:136,1,115.50000352478,2|0,1:2|0:0,0:0:0:0:
492,172,62472,1,10,0:2:0:0:
448,352,62791,2,0,P|408:352|380:328,1,77.0000023498536,2|0,1:2|0:0,0:0:0:0:
344,244,63111,2,0,P|304:244|276:268,1,77.0000023498536,10|0,0:2|0:0,0:0:0:0:
176,352,63430,6,0,L|64:316,1,115.50000352478,2|0,1:2|0:0,0:0:0:0:
52,272,63749,2,0,P|52:216|136:184,1,154.000004699707,12|2,0:2|1:2,0:0:0:0:
212,136,64228,1,2,0:2:0:0:
160,60,64387,2,0,L|84:48,1,77.0000023498536,10|10,0:2|0:2,0:0:0:0:
40,48,64627,5,8,0:2:0:0:
40,48,64706,2,0,P|17:87|33:131,1,77.0000023498536,10|0,0:2|1:0,0:0:0:0:
25,240,65025,1,14,0:2:0:0:
186,331,65345,2,0,L|222:319,3,38.5000011749268,8|8|8|8,0:2|0:2|0:2|0:2,0:0:0:0:
262,295,65664,2,0,L|298:307,3,38.5000011749268,8|8|8|8,0:2|0:2|0:2|0:2,0:0:0:0:
334,339,65983,6,0,B|406:375|406:279|474:319,1,154.000004699707,6|8,1:2|0:2,0:0:0:0:
508,137,66621,2,0,P|476:113|436:113,1,77.0000023498536,2|2,1:2|0:2,0:0:0:0:
370,172,66940,1,10,0:2:0:0:
370,172,67100,1,2,0:2:0:0:
284,140,67259,6,0,L|296:64,1,77.0000023498536,2|0,1:2|0:0,0:0:0:0:
216,12,67579,2,0,L|140:0,1,77.0000023498536,10|0,0:2|0:0,0:0:0:0:
52,28,67898,2,0,P|40:64|52:100,1,77.0000023498536,2|0,1:2|0:0,0:0:0:0:
133,144,68217,2,0,P|145:184|133:216,1,77.0000023498536,10|0,0:2|0:0,0:0:0:0:
132,341,68536,6,0,P|76:293|-12:302,2,154.000004699707,2|8|0,1:2|0:2|1:0,0:0:0:0:
293,249,69494,1,8,0:0:0:0:
356,162,69653,6,0,P|329:141|270:146,1,77.0000023498536,10|0,0:2|1:2,0:0:0:0:
197,161,69972,1,2,0:2:0:0:
138,89,70132,2,0,L|47:108,1,77.0000023498536,10|2,0:2|0:2,0:0:0:0:
12,182,70451,2,0,L|103:201,1,77.0000023498536,2|2,1:2|0:2,0:0:0:0:
163,250,70770,1,10,0:2:0:0:
119,355,70930,5,10,1:2:0:0:
119,355,71009,1,8,1:2:0:0:
119,355,71089,2,0,P|158:357|186:335,1,77.0000023498536,6|0,1:2|0:0,0:0:0:0:
255,272,71408,2,0,P|292:272|323:295,1,77.0000023498536,10|0,0:2|0:0,0:0:0:0:
392,357,71728,2,0,P|431:357|461:336,1,77.0000023498536,2|8,1:2|1:2,0:0:0:0:
490,249,72047,1,10,0:2:0:0:
490,249,72206,1,2,0:2:0:0:
472,116,72366,6,0,P|436:105|396:96,1,77.0000023498536,2|0,1:2|0:0,0:0:0:0:
332,32,72685,2,0,P|292:43|256:52,1,77.0000023498536,10|0,0:2|0:0,0:0:0:0:
188,108,73004,2,0,P|172:144|184:180,1,77.0000023498536,2|8,1:2|0:2,0:0:0:0:
228,260,73323,1,10,0:2:0:0:
228,260,73483,1,0,0:0:0:0:
128,348,73642,6,0,P|88:336|48:328,1,77.0000023498536,2|0,1:2|1:0,0:0:0:0:
0,208,73962,2,0,P|12:168|20:128,1,77.0000023498536,12|0,0:2|0:0,0:0:0:0:
108,112,74281,2,0,P|148:124|188:132,1,77.0000023498536,0|2,1:2|1:2,0:0:0:0:
268,168,74600,1,10,0:2:0:0:
308,296,74759,5,10,0:2:0:0:
308,296,74839,1,8,0:2:0:0:
308,296,74919,2,0,B|384:271|380:342|455:321,1,154.000004699707,10|12,0:2|1:2,0:0:0:0:
508,248,75398,1,2,0:2:0:0:
512,156,75557,2,0,P|512:120|484:92,1,77.0000023498536,2|8,1:2|0:2,0:0:0:0:
468,84,75797,1,8,0:2:0:0:
452,84,75877,1,8,0:2:0:0:
324,120,76036,1,10,0:2:0:0:
328,136,76116,1,8,0:2:0:0:
332,152,76196,1,14,0:2:0:0:
464,149,80504,5,8,0:2:0:0:
393,187,80664,1,10,0:2:0:0:
393,187,80823,1,6,0:3:0:0:
328,136,80983,2,0,L|313:68,1,56,6|6,0:3|0:3,0:0:0:0:
220,20,81302,6,0,P|184:20|160:44,1,70,6|2,1:2|1:2,0:0:0:0:
116,112,81621,2,0,L|132:180,1,70,2|2,1:2|1:2,0:0:0:0:
192,240,81940,1,2,1:2:0:0:
192,240,82100,2,0,L|260:220,1,70,2|0,1:2|1:2,0:0:0:0:
344,224,82419,6,0,B|384:280|384:280|348:344,1,140,2|10,1:2|0:2,0:0:0:0:
268,364,82898,2,0,P|232:364|208:340,1,70,10|10,0:2|0:2,0:0:0:0:
140,292,83217,2,0,B|112:232|192:232|156:160,1,140,10|10,0:2|0:2,0:0:0:0:
124,84,83696,1,10,0:2:0:0:
224,16,83855,6,0,L|296:32,1,70,14|0,0:2|1:2,0:0:0:0:
320,64,84095,1,0,1:2:0:0:
320,64,84174,2,0,L|388:48,1,70,8|0,0:2|1:2,0:0:0:0:
472,36,84494,2,0,L|480:72,3,35,8|0|0|0,0:2|1:2|1:2|1:2,0:0:0:0:
492,112,84813,2,0,L|484:148,3,35,8|0|2|0,0:2|1:2|1:2|1:2,0:0:0:0:
456,176,85132,6,0,L|472:244,1,70,10|0,0:2|1:2,0:0:0:0:
476,260,85371,1,0,1:2:0:0:
480,276,85451,1,10,0:2:0:0:
428,344,85611,1,10,1:2:0:0:
428,344,85690,1,8,1:2:0:0:
428,344,85770,2,0,L|392:332,3,35,8|8|8|8,0:2|0:2|0:2|0:2,0:0:0:0:
360,308,86089,2,0,L|326:319,3,35,10|8|10|8,0:2|0:2|0:2|0:2,0:0:0:0:
390,108,87525,6,0,B|311:50|213:163|289:225|188:332|116:268,1,377.999988464356,4|0,1:2|0:0,0:0:0:0:
