osu file format v14

[General]
AudioFilename: audio.mp3
AudioLeadIn: 0
PreviewTime: 55770
Countdown: 0
SampleSet: Soft
StackLeniency: 0.6
Mode: 0
LetterboxInBreaks: 0
WidescreenStoryboard: 0

[Editor]
DistanceSpacing: 0.1
BeatDivisor: 4
GridSize: 32
TimelineZoom: 1.9

[Metadata]
Title:Hikariiro no Uta (TV Size)
TitleUnicode:ヒカリイロの歌 (TV Size)
Artist:Suzuki Aina
ArtistUnicode:鈴木愛奈
Creator:PikAqours
Version:Adinda's Expert
Source:はてな☆イリュージョン
Tags:ending ed jpop j-pop pop j-rock jrock rock anime japanese hatena☆illusion [_eli_] elinor kirishima- tritobandito adinda didah ZAQ 伊藤 翼 Tsubasa Ito Itō Itou
BeatmapID:3077584
BeatmapSetID:1489381

[Difficulty]
HPDrainRate:5.1
CircleSize:4
OverallDifficulty:8.6
ApproachRate:9.2
SliderMultiplier:1.96
SliderTickRate:1

[Events]
//Background and Video events
0,0,"bg.jpg",0,0
//Break Periods
//Storyboard Layer 0 (Background)
//Storyboard Layer 1 (Fail)
//Storyboard Layer 2 (Pass)
//Storyboard Layer 3 (Foreground)
//Storyboard Layer 4 (Overlay)
//Storyboard Sound Samples

[TimingPoints]
877,319.148936170213,4,2,1,70,1,0
877,-181.818181818181,4,2,1,70,0,0
5983,-100,4,2,1,80,0,0
8536,-100,4,2,1,80,0,0
9813,-100,4,2,1,80,0,0
12366,-83.3333333333333,4,2,1,80,0,0
16036,-71.4285714285714,4,2,1,80,0,0
17153,-71.4285714285714,4,2,1,60,0,0
17472,-133.333333333333,4,2,1,50,0,0
22259,-100,4,2,1,50,0,0
22299,-100,4,2,1,5,0,0
22579,-100,4,2,1,70,0,0
24813,-83.3333333333333,4,2,1,70,0,0
25132,-100,4,2,1,70,0,0
41568,-83.3333333333333,4,2,1,70,0,0
42047,-100,4,2,1,70,0,0
43004,-133.333333333333,4,2,1,70,0,0
46834,-83.3333333333333,4,2,1,70,0,0
47791,-100,4,2,1,70,0,0
50664,-100,4,2,1,80,0,0
52579,-76.9230769230769,4,2,1,80,0,0
54813,-76.9230769230769,4,2,1,80,0,0
55770,-66.6666666666667,4,2,1,85,0,1
57286,-66.6666666666667,4,2,1,5,0,1
57366,-66.6666666666667,4,2,1,85,0,1
61116,-66.6666666666667,4,2,1,5,0,1
61196,-66.6666666666667,4,2,1,85,0,1
61754,-66.6666666666667,4,2,1,5,0,1
61834,-66.6666666666667,4,2,1,85,0,1
62392,-66.6666666666667,4,2,1,5,0,1
62472,-66.6666666666667,4,2,1,85,0,1
63031,-66.6666666666667,4,2,1,5,0,1
63111,-66.6666666666667,4,2,1,85,0,1
63669,-66.6666666666667,4,2,1,5,0,1
63749,-66.6666666666667,4,2,1,85,0,1
64706,-181.818181818181,4,2,1,85,0,1
65025,-62.5,4,2,1,85,0,1
65265,-62.5,4,2,1,5,0,1
65345,-62.5,4,2,1,85,0,1
65983,-66.6666666666667,4,2,1,85,0,1
67499,-66.6666666666667,4,2,1,5,0,1
67579,-66.6666666666667,4,2,1,85,0,1
71329,-66.6666666666667,4,2,1,5,0,1
71409,-66.6666666666667,4,2,1,85,0,1
72605,-66.6666666666667,4,2,1,5,0,1
72685,-66.6666666666667,4,2,1,85,0,1
74919,-181.818181818181,4,2,1,85,0,1
75238,-62.5,4,2,1,85,0,1
75478,-62.5,4,2,1,5,0,1
75557,-62.5,4,2,1,85,0,1
76196,-62.5,4,2,1,60,0,0
78749,-62.5,4,2,1,60,0,0
80025,-285.714285714284,4,2,1,60,0,0
80504,-285.714285714284,4,2,1,60,0,0
81302,-76.9230769230769,4,2,1,80,0,0
82100,-100,4,2,1,80,0,0
83855,-76.9230769230769,4,2,1,80,0,0
85132,-76.9230769230769,4,2,1,80,0,0
87366,-76.9230769230769,4,2,1,25,0,0
87525,-76.9230769230769,4,2,1,70,0,0
87605,-76.9230769230769,4,2,1,70,0,0
88962,-76.9230769230769,4,2,1,5,0,0

[Colours]
Combo1 : 255,255,168
Combo2 : 128,255,128

[HitObjects]
42,256,877,6,0,B|86:240|119:244|119:244|143:256|143:256|182:258|251:214|218:114|143:102,1,323.400009869385,6|2,1:2|0:2,0:0:0:0:
137,94,2153,2,0,B|220:84|220:84|244:42|199:10,1,161.700004934693,6|8,1:2|0:3,0:0:0:0:
106,301,2951,5,4,0:3:0:0:
140,223,3111,1,4,0:3:0:0:
159,230,3430,6,0,B|305:221|221:284|365:280,2,215.60000657959,6|4|4,1:2|1:2|1:2,0:0:0:0:
361,280,5185,5,8,0:2:0:0:
361,280,5265,1,8,0:2:0:0:
361,280,5345,2,0,L|369:218,1,53.9000016448975,10|4,0:2|0:3,0:0:0:0:
307,149,5664,2,0,P|274:142|246:128,1,53.9000016448975,6|4,0:3|0:3,0:0:0:0:
376,48,5983,6,0,P|422:28|470:20,1,98,6|2,1:2|1:2,0:0:0:0:
255,133,6302,5,2,1:2:0:0:
213,44,6462,1,2,1:2:0:0:
119,83,6621,1,2,1:2:0:0:
180,265,6781,6,0,P|181:214|157:167,1,98,2|0,1:2|1:2,0:0:0:0:
15,296,7100,6,0,B|42:336|42:336|194:366,1,196,2|10,1:2|0:2,0:0:0:0:
275,244,7579,2,0,L|165:268,1,98,10|10,0:2|0:2,0:0:0:0:
399,115,7898,2,0,P|388:188|489:217,1,196,10|10,0:2|0:2,0:0:0:0:
252,33,8377,5,10,0:2:0:0:
252,33,8456,1,8,0:2:0:0:
252,33,8536,2,0,L|206:63,3,49,14|0|0|0,0:2|1:2|1:2|1:2,0:0:0:0:
161,58,8855,2,0,L|131:103,3,49,8|0|0|0,0:2|1:2|1:2|1:2,0:0:0:0:
66,123,9174,2,0,L|56:199,3,49,8|0|0|0,0:2|1:2|1:2|1:2,0:0:0:0:
3,250,9494,2,0,L|23:306,3,49,8|0|2|0,0:2|1:2|1:2|1:2,0:0:0:0:
186,365,9813,5,10,0:2:0:0:
199,338,9892,1,0,1:2:0:0:
208,311,9972,1,0,1:2:0:0:
211,281,10052,1,0,1:2:0:0:
206,253,10132,1,10,0:2:0:0:
195,225,10212,1,0,1:2:0:0:
184,198,10291,1,2,1:2:0:0:
178,169,10371,1,0,1:2:0:0:
182,139,10451,5,8,0:2:0:0:
199,173,10531,1,8,0:2:0:0:
231,195,10611,1,8,0:2:0:0:
270,201,10690,1,8,0:2:0:0:
306,188,10770,1,10,0:2:0:0:
333,160,10850,1,8,0:2:0:0:
344,122,10930,1,10,0:2:0:0:
336,84,11009,1,8,0:2:0:0:
472,365,11728,6,0,L|415:359,1,49,2|2,0:2|0:2,0:0:0:0:
355,287,11887,2,0,L|412:281,1,49,2|2,0:2|0:2,0:0:0:0:
468,206,12047,5,2,0:2:0:0:
469,196,12127,1,2,0:2:0:0:
471,186,12206,1,2,0:2:0:0:
472,176,12286,1,2,0:2:0:0:
472,166,12366,6,0,B|439:157|399:159|399:159|366:104|366:104|321:104|260:80,1,235.199992822266,6|10,1:2|0:2,0:0:0:0:
118,192,12845,2,0,L|237:183,1,117.599996411133,2|0,0:2|1:2,0:0:0:0:
101,286,13164,2,0,L|225:286,1,117.599996411133,2|8,0:2|0:2,0:0:0:0:
69,110,13483,2,0,L|196:85,1,117.599996411133,2|0,0:2|1:2,0:0:0:0:
100,288,13802,5,2,0:2:0:0:
26,259,13962,1,10,0:2:0:0:
224,288,14121,5,2,0:2:0:0:
195,213,14281,1,2,1:2:0:0:
343,375,14440,5,2,0:2:0:0:
390,289,14600,2,0,P|373:247|381:175,1,117.599996411133,10|0,0:2|0:2,0:0:0:0:
456,6,14919,5,14,0:2:0:0:
389,205,15079,1,0,1:2:0:0:
303,22,15238,5,10,0:2:0:0:
389,205,15398,1,0,1:2:0:0:
303,22,15557,5,10,0:2:0:0:
235,212,15717,1,0,1:2:0:0:
155,25,15877,2,0,L|139:97,1,58.7999982055665,10|2,0:2|0:0,0:0:0:0:
106,211,16036,6,0,B|72:256|72:256|60:155|60:155|-6:58,1,274.399991625977,14|8,0:2|0:2,0:0:0:0:
6,38,16435,1,8,0:2:0:0:
6,38,16515,1,8,0:2:0:0:
106,211,16674,5,4,0:3:0:0:
97,226,16754,1,4,0:3:0:0:
90,242,16834,1,4,0:3:0:0:
227,366,16994,5,8,0:3:0:0:
222,328,17073,1,8,0:3:0:0:
221,292,17153,2,0,B|210:254|210:254|217:221|217:221|197:147,1,137.199995812988,12|0,0:2|0:0,0:0:0:0:
290,26,17472,6,0,B|324:28|354:44|354:44|362:61|362:61|391:77|441:80,2,147.000005607605,4|0|0,1:2|1:2|1:2,0:0:0:0:
203,61,18270,1,2,0:2:0:0:
203,61,18430,2,0,P|161:72|127:86,1,73.5000028038026,2|2,1:2|0:2,0:0:0:0:
310,155,18749,6,0,B|334:197|334:197|454:229,1,147.000005607605,2|2,1:2|1:2,0:0:0:0:
362,317,19228,2,0,P|342:288|352:254,1,73.5000028038026,2|0,0:2|1:2,0:0:0:0:
452,313,19547,1,2,0:2:0:0:
452,313,19706,2,0,P|461:347|441:376,1,73.5000028038026,2|0,1:2|0:0,0:0:0:0:
313,281,20025,6,0,B|277:273|246:278|246:278|209:246|236:204,2,147.000005607605,2|0|0,1:2|1:2|1:2,0:0:0:0:
203,305,20823,1,2,0:2:0:0:
203,305,20983,2,0,P|162:321|135:343,1,73.5000028038026,2|2,1:2|0:2,0:0:0:0:
31,224,21302,6,0,B|-8:191|9:133|9:133|33:146|43:174,1,147.000005607605,2|2,1:2|1:2,0:0:0:0:
172,118,21781,2,0,P|134:115|103:95,1,73.5000028038026,2|0,0:2|1:2,0:0:0:0:
198,30,22100,1,2,0:2:0:0:
268,239,22259,6,0,L|273:276,1,24.5,10|0,0:2|0:0,0:0:0:0:
272,264,22579,5,6,1:2:0:0:
465,245,22738,1,0,1:2:0:0:
275,181,22898,1,8,0:2:0:0:
412,316,23057,1,2,1:2:0:0:
390,166,23217,1,2,1:2:0:0:
358,248,23377,1,0,1:2:0:0:
358,248,23456,1,0,1:2:0:0:
358,248,23536,1,8,0:2:0:0:
486,106,23696,6,0,L|474:6,1,98,2|0,1:2|0:0,0:0:0:0:
263,83,24015,2,0,L|274:180,1,98,2|0,1:2|0:0,0:0:0:0:
81,58,24334,5,2,1:2:0:0:
199,0,24494,1,2,1:2:0:0:
141,242,24653,1,0,1:2:0:0:
141,242,24733,1,0,1:2:0:0:
141,242,24813,2,0,B|104:259|86:284|86:284|79:260|88:229,1,117.599996411133,14|0,0:2|0:0,0:0:0:0:
263,346,25132,5,6,1:2:0:0:
263,346,25291,1,0,1:2:0:0:
85,236,25451,2,0,P|69:187|71:131,1,98,8|0,0:2|0:0,0:0:0:0:
263,346,25770,5,4,1:2:0:0:
263,346,25930,1,2,1:2:0:0:
442,140,26089,2,0,P|442:189|427:236,1,98,10|2,0:2|0:2,0:0:0:0:
263,346,26408,5,6,1:2:0:0:
372,56,26568,1,0,1:0:0:0:
503,330,26728,1,10,0:2:0:0:
375,237,26887,1,2,1:2:0:0:
364,223,27206,6,0,L|302:216,1,49,10|8,0:2|0:2,0:0:0:0:
442,140,27366,2,0,L|504:133,1,49,8|8,0:2|0:2,0:0:0:0:
372,56,27525,2,0,L|310:49,1,49,8|8,0:2|0:2,0:0:0:0:
194,96,27685,6,0,P|201:154|84:187,2,196,4|10|2,1:2|0:2|1:2,0:0:0:0:
135,33,28483,1,0,0:0:0:0:
90,192,28642,2,0,L|82:293,1,98,10|0,0:2|0:0,0:0:0:0:
271,278,28962,6,0,B|349:275|349:275|383:295|383:295|464:292,1,196,2|10,1:2|0:2,0:0:0:0:
365,245,29440,2,0,P|347:215|352:146,1,98,2|0,0:2|1:2,0:0:0:0:
464,89,29759,2,0,P|469:137|447:180,1,98,2|8,0:2|0:2,0:0:0:0:
447,180,30079,1,2,0:2:0:0:
213,34,30238,6,0,B|270:26|270:26|295:33|295:33|434:13,1,196,2|10,1:2|0:2,0:0:0:0:
311,42,30717,2,0,L|423:12,1,98,2|0,0:2|1:2,0:0:0:0:
180,126,31036,2,0,L|215:28,1,98,2|8,0:2|0:2,0:0:0:0:
311,42,31355,5,2,0:2:0:0:
248,223,31515,2,0,B|221:243|201:249|201:249|121:246|77:180,1,196,2|10,1:2|0:2,0:0:0:0:
248,223,31994,2,0,P|263:265|266:325,1,98,2|0,0:2|1:2,0:0:0:0:
464,208,32313,5,8,0:2:0:0:
450,205,32392,1,8,0:2:0:0:
437,202,32472,1,8,0:2:0:0:
399,54,32632,5,8,0:2:0:0:
429,46,32712,1,8,0:2:0:0:
458,41,32791,1,4,1:2:0:0:
437,202,32951,1,0,1:2:0:0:
318,117,33111,2,0,P|286:101|223:119,1,98,10|0,0:2|0:0,0:0:0:0:
94,218,33430,5,2,1:2:0:0:
227,135,33589,1,0,1:2:0:0:
86,72,33749,2,0,P|65:50|106:0,1,98,8|0,0:2|0:0,0:0:0:0:
227,135,34068,5,2,1:2:0:0:
227,135,34228,1,0,1:2:0:0:
94,218,34387,1,8,0:2:0:0:
346,300,34547,6,0,B|283:286|283:286|245:238|245:238|172:219,1,196,6|2,1:2|1:2,0:0:0:0:
371,218,35025,2,0,L|470:198,1,98,10|0,0:2|1:2,0:0:0:0:
393,81,35345,5,8,0:2:0:0:
346,300,35504,1,0,1:2:0:0:
284,77,35664,2,0,P|286:34|190:23,1,147,10|0,0:2|1:2,0:0:0:0:
187,27,35983,2,0,P|203:71|174:107,1,98,10|0,0:2|1:2,0:0:0:0:
49,157,36302,2,0,L|16:49,1,98,10|0,0:2|1:2,0:0:0:0:
191,251,36621,5,14,0:2:0:0:
14,53,36781,1,0,1:2:0:0:
36,330,36940,2,0,B|65:330|65:330|92:344|92:344|142:350,1,98,8|0,0:2|1:2,0:0:0:0:
191,251,37180,1,8,0:0:0:0:
191,251,37259,2,0,L|301:235,1,98,10|4,0:3|0:3,0:0:0:0:
334,133,37499,1,4,0:3:0:0:
334,133,37579,2,0,L|390:102,1,49,8|8,0:2|0:2,0:0:0:0:
297,237,37738,2,0,L|254:260,1,49,8|8,0:2|0:2,0:0:0:0:
276,55,37898,5,4,1:2:0:0:
276,55,38057,1,0,1:2:0:0:
397,111,38217,5,10,1:2:0:0:
435,42,38377,1,2,1:2:0:0:
295,237,38536,5,10,0:2:0:0:
239,173,38696,1,2,1:2:0:0:
453,277,38855,1,2,1:2:0:0:
414,353,39015,5,10,0:2:0:0:
414,353,39095,1,8,0:2:0:0:
414,353,39174,1,10,0:2:0:0:
382,246,39334,1,2,1:2:0:0:
425,180,39494,1,2,1:2:0:0:
249,55,39653,6,0,B|206:46|206:46|187:53|187:53|138:43,1,98,14|0,0:2|0:0,0:0:0:0:
18,126,39972,5,2,1:2:0:0:
154,47,40132,1,10,0:2:0:0:
105,211,40291,5,2,1:2:0:0:
104,199,40371,1,0,1:2:0:0:
104,186,40451,1,6,1:2:0:0:
181,131,40611,1,0,1:2:0:0:
115,294,40770,2,0,L|9:280,1,98,10|10,0:2|0:2,0:0:0:0:
10,248,41009,1,8,0:2:0:0:
10,248,41089,1,8,0:2:0:0:
254,266,41249,2,0,L|283:365,1,98,2|0,1:2|0:0,0:0:0:0:
492,198,41568,6,0,B|375:173|375:173|317:234|385:286,1,235.199992822266,6|0,1:2|1:2,0:0:0:0:
405,148,42047,2,0,P|417:104|389:47,1,98,10|2,0:2|0:0,0:0:0:0:
373,44,42286,1,8,0:3:0:0:
373,44,42366,1,2,1:2:0:0:
208,161,42525,5,10,0:2:0:0:
231,157,42605,1,8,0:2:0:0:
253,153,42685,1,2,1:2:0:0:
60,39,42845,5,8,0:2:0:0:
60,39,42924,1,8,0:2:0:0:
60,39,43004,2,0,B|43:78|43:78|64:135|64:135|45:184,1,147.000005607605,6|2,1:2|0:0,0:0:0:0:
48,175,43483,1,0,1:2:0:0:
6,279,43642,2,0,B|54:273|54:273|90:303|90:303|166:296,1,147.000005607605,10|2,0:2|0:0,0:0:0:0:
266,362,44121,6,0,L|186:355,1,73.5000028038026,2|0,1:2|0:0,0:0:0:0:
324,289,44440,2,0,L|404:282,1,73.5000028038026,2|0,1:2|0:0,0:0:0:0:
266,226,44759,5,2,1:2:0:0:
324,289,44919,1,10,0:2:0:0:
361,121,45079,5,2,1:2:0:0:
280,144,45238,1,2,0:2:0:0:
410,277,45398,5,2,1:2:0:0:
426,185,45557,2,0,B|455:203|455:203|495:159|469:98,1,147.000005607605,2|0,1:2|0:0,0:0:0:0:
280,144,46036,5,0,1:2:0:0:
394,0,46196,1,10,0:2:0:0:
426,185,46355,1,0,1:2:0:0:
256,45,46515,5,2,1:2:0:0:
256,45,46595,1,0,1:2:0:0:
256,45,46674,2,0,L|201:35,1,36.7500014019013,2|0,1:2|1:2,0:0:0:0:
246,186,46834,6,0,B|275:172|314:176|314:176|299:154|275:141,1,117.599996411133,10|0,0:2|0:0,0:0:0:0:
155,188,47073,2,0,B|152:220|129:251|129:251|156:249|179:235,1,117.599996411133,8|0,0:2|0:0,0:0:0:0:
188,114,47313,2,0,B|161:95|145:60|145:60|133:84|134:111,1,117.599996411133,10|2,0:2|1:2,0:0:0:0:
259,353,47632,5,8,0:2:0:0:
259,353,47712,1,8,0:2:0:0:
259,353,47791,2,0,L|327:345,1,49,8|8,0:2|0:2,0:0:0:0:
412,287,47951,2,0,L|344:279,1,49,8|8,0:2|0:2,0:0:0:0:
279,236,48111,6,0,P|267:201|281:139,1,98,4|0,1:2|0:0,0:0:0:0:
412,193,48430,2,0,P|424:239|411:286,1,98,2|0,1:2|0:0,0:0:0:0:
359,29,48749,5,2,1:2:0:0:
320,23,48855,5,2,0:0:0:0:
281,28,48961,5,2,0:0:0:0:
248,49,49068,5,10,0:0:0:0:
210,55,49174,5,2,0:0:0:0:
172,47,49280,5,2,0:0:0:0:
141,29,49387,6,0,P|90:27|53:84,1,98,2|0,1:2|0:0,0:0:0:0:
0,256,49706,2,0,P|35:288|82:284,1,98,10|0,0:2|0:0,0:0:0:0:
157,371,50025,1,2,1:2:0:0:
157,371,50105,1,8,0:0:0:0:
157,371,50185,1,0,1:0:0:0:
304,259,50345,2,0,L|207:233,1,98,10|0,0:2|0:0,0:0:0:0:
325,88,50664,6,0,L|422:62,1,98,6|0,1:2|1:2,0:0:0:0:
458,85,50903,1,0,1:2:0:0:
458,85,50983,2,0,P|472:109|471:138,1,49,10|8,0:2|0:2,0:0:0:0:
398,284,51142,6,0,L|301:258,1,98,2|0,1:2|1:2,0:0:0:0:
245,202,51382,1,0,1:2:0:0:
245,202,51462,2,0,L|197:155,1,49,8|8,0:2|0:2,0:0:0:0:
187,53,51621,2,0,L|170:118,1,49,8|8,0:2|0:2,0:0:0:0:
86,177,51781,2,0,L|150:158,1,49,8|8,0:2|0:2,0:0:0:0:
0,25,51940,5,8,0:2:0:0:
0,58,52020,1,8,0:2:0:0:
0,90,52100,1,8,0:2:0:0:
0,124,52180,1,8,0:2:0:0:
0,158,52259,1,0,1:2:0:0:
0,192,52339,1,0,1:2:0:0:
0,226,52419,2,0,L|0:282,1,49,2|0,1:2|1:2,0:0:0:0:
0,363,52579,5,10,0:2:0:0:
0,363,52818,1,10,0:2:0:0:
0,363,53057,1,10,0:2:0:0:
202,89,53217,6,0,B|250:88|250:88|276:99|276:99|332:97,1,127.399994168091,14|0,0:2|0:2,0:0:0:0:
434,43,53536,5,2,1:2:0:0:
356,91,53696,1,0,1:2:0:0:
471,138,53855,1,8,0:2:0:0:
344,191,54015,1,8,0:2:0:0:
504,229,54174,1,8,0:2:0:0:
330,290,54334,1,8,0:2:0:0:
463,313,54494,5,10,0:2:0:0:
265,42,54653,1,0,1:2:0:0:
161,337,54813,2,0,B|207:367|207:367|218:274|218:274|304:197,1,254.799988336182,14|2,0:2|1:2,0:0:0:0:
302,208,55212,1,2,1:2:0:0:
307,212,55291,2,0,P|313:241|342:238,1,63.6999970840455,2|2,1:2|1:2,0:0:0:0:
433,219,55451,5,2,1:2:0:0:
482,219,55531,1,2,1:2:0:0:
512,182,55611,1,2,1:2:0:0:
505,134,55690,1,2,1:2:0:0:
484,101,55770,6,0,B|442:138|442:138|202:177,2,294.00001121521,6|8|2,1:2|0:2|1:2,0:0:0:0:
432,29,56568,1,2,0:2:0:0:
433,219,56728,2,0,P|418:271|481:355,1,147.000005607605,10|2,0:2|0:2,0:0:0:0:
308,81,57047,6,0,B|256:14|178:42|178:42|183:84|222:109,1,220.500008411408,2|0,1:2|0:0,0:0:0:0:
261,192,57366,2,0,P|284:152|206:109,1,147.000005607605,10|0,0:2|0:0,0:0:0:0:
58,201,57685,2,0,P|35:161|113:118,1,147.000005607605,2|0,1:2|0:0,0:0:0:0:
102,293,58004,2,0,P|135:333|215:291,1,147.000005607605,10|0,0:2|0:0,0:0:0:0:
475,196,58323,6,0,B|428:199|428:199|411:204|411:204|390:200|390:200|359:230|276:196|267:134|307:78,2,294.00001121521,2|8|0,1:2|0:2|1:2,0:0:0:0:
332,223,59121,2,0,L|302:62,1,147.000005607605,2|8,0:0|0:2,0:0:0:0:
140,318,59440,6,0,B|104:204|104:204|96:203|96:203|103:200|103:200|55:40,1,294.00001121521,2|2,0:2|0:2,0:0:0:0:
140,318,59919,1,10,0:2:0:0:
216,344,60079,1,2,0:2:0:0:
332,223,60238,5,2,1:2:0:0:
334,298,60398,1,2,0:2:0:0:
398,262,60557,1,10,0:2:0:0:
301,53,60717,5,2,0:2:0:0:
297,59,60797,1,2,0:0:0:0:
294,65,60877,2,0,B|265:70|241:62|241:62|217:71|198:91|198:91|132:93|91:46,1,220.500008411408,2|0,1:2|0:0,0:0:0:0:
34,144,61196,2,0,B|72:141|72:141|136:114|84:31,1,147.000005607605,10|0,0:2|0:0,0:0:0:0:
135,228,61515,2,0,B|167:268|167:268|356:302,1,220.500008411408,2|0,1:2|0:0,0:0:0:0:
345,273,61834,2,0,L|513:234,1,147.000005607605,10|0,0:2|0:0,0:0:0:0:
186,127,62153,6,0,L|402:50,1,220.500008411408,2|0,1:2|0:0,0:0:0:0:
457,131,62472,2,0,P|463:68|380:64,1,147.000005607605,10|0,0:2|0:0,0:0:0:0:
450,300,62791,2,0,B|475:274|496:262|496:262|404:218|326:287,1,220.500008411408,2|0,1:2|0:0,0:0:0:0:
322,312,63111,2,0,P|309:346|211:348,1,147.000005607605,10|0,0:2|0:0,0:0:0:0:
21,172,63430,6,0,B|-4:206|-4:206|65:193|65:193|83:178|83:178|175:168,1,220.500008411408,2|0,1:2|0:0,0:0:0:0:
218,105,63749,2,0,B|280:62|280:62|205:53,1,147.000005607605,12|0,0:2|0:0,0:0:0:0:
80,306,64068,2,0,L|12:152,1,147.000005607605,2|2,1:2|0:2,0:0:0:0:
161,357,64387,1,10,0:2:0:0:
80,306,64547,5,10,0:2:0:0:
80,306,64627,1,8,0:2:0:0:
80,306,64706,2,0,P|77:288|108:291,1,53.9000016448975,10|0,0:2|1:2,0:0:0:0:
495,253,65025,6,0,B|471:238|444:238|444:238|435:213|414:194|414:194|345:198|281:137,1,235.2,14|0,0:2|0:0,0:0:0:0:
332,74,65345,6,0,L|408:48,1,78.4,8|8,0:2|0:2,0:0:0:0:
287,153,65504,2,0,L|212:178,1,78.4,8|8,0:2|0:2,0:0:0:0:
323,68,65664,2,0,L|389:22,1,78.4,8|8,0:2|0:2,0:0:0:0:
291,163,65823,2,0,L|225:209,1,78.4,8|8,0:2|0:2,0:0:0:0:
38,117,65983,6,0,B|12:104|12:104|74:90|74:90|112:103|112:103|215:82|215:82|145:57,2,294.00001121521,6|8|2,1:2|0:2|1:2,0:0:0:0:
92,15,66781,1,2,0:2:0:0:
123,255,66940,2,0,P|167:223|141:130,1,147.000005607605,10|2,0:2|0:2,0:0:0:0:
18,353,67259,6,0,B|54:358|80:373|80:373|114:334|114:334|164:341|228:308,1,220.500008411408,2|0,1:2|0:0,0:0:0:0:
357,345,67579,2,0,L|213:314,1,147.000005607605,10|0,0:2|0:0,0:0:0:0:
365,188,67898,2,0,L|509:157,1,147.000005607605,2|0,1:2|0:0,0:0:0:0:
358,30,68217,2,0,L|214:-1,1,147.000005607605,10|0,0:2|0:0,0:0:0:0:
14,186,68536,6,0,B|50:169|82:178|82:178|99:144|132:137|132:137|170:182|236:186|283:132,2,294.00001121521,2|8|0,1:2|0:2|1:2,0:0:0:0:
192,306,69334,2,0,B|163:336|163:336|48:370,1,147.000005607605,2|8,0:0|0:2,0:0:0:0:
243,61,69653,5,14,0:2:0:0:
271,143,69813,1,0,1:2:0:0:
432,13,69972,5,2,0:2:0:0:
386,76,70132,1,10,0:2:0:0:
465,86,70291,1,2,0:2:0:0:
305,238,70451,5,2,1:2:0:0:
271,143,70611,1,2,0:2:0:0:
426,337,70770,1,10,0:2:0:0:
477,244,70930,5,10,0:2:0:0:
475,250,71009,1,8,0:2:0:0:
473,257,71089,2,0,B|437:295|437:295|260:336,1,220.500008411408,6|0,1:2|0:0,0:0:0:0:
165,284,71408,2,0,P|243:279|273:338,1,147.000005607605,10|0,0:2|0:0,0:0:0:0:
192,378,71728,1,2,1:2:0:0:
120,108,71887,5,8,0:2:0:0:
55,373,72047,2,0,L|80:222,1,147.000005607605,10|2,0:2|0:2,0:0:0:0:
466,26,72366,6,0,B|426:148|426:148|316:163,1,220.500008411408,2|0,1:2|0:0,0:0:0:0:
381,230,72685,2,0,P|318:224|344:156,1,147.000005607605,10|0,0:2|0:0,0:0:0:0:
471,284,73004,1,2,1:2:0:0:
316,43,73164,5,8,0:2:0:0:
333,336,73323,2,0,L|479:280,1,147.000005607605,10|0,0:2|0:0,0:0:0:0:
316,43,73642,5,2,1:2:0:0:
316,43,73802,1,0,1:0:0:0:
160,241,73962,2,0,B|150:291|150:291|156:326|156:326|144:401,1,147.000005607605,8|0,0:2|0:0,0:0:0:0:
316,43,74281,1,0,1:2:0:0:
316,43,74440,1,2,1:2:0:0:
75,254,74600,2,0,P|15:238|53:176,1,147.000005607605,10|2,0:2|1:2,0:0:0:0:
44,178,74839,1,0,1:2:0:0:
44,178,74919,6,0,L|33:116,1,53.9000016448975,10|0,0:2|1:2,0:0:0:0:
316,43,75238,6,0,P|318:142|201:125,1,235.2,12|0,1:2|0:0,0:0:0:0:
123,80,75557,2,8,P|105:59|128:4,1,78.4,10|8,0:3|0:3,0:3:0:0:
216,68,75717,2,0,P|228:103|208:135,1,78.4,8|8,0:2|0:2,0:0:0:0:
44,178,75877,1,8,0:2:0:0:
66,11,76036,5,10,0:2:0:0:
66,11,76116,1,8,0:2:0:0:
66,11,76196,1,6,1:2:0:0:
256,192,76275,12,2,78749,0:0:0:0:
452,354,80025,6,0,L|491:344,2,34.2999989532471,2|2|2,0:0|0:0|0:0,0:0:0:0:
360,176,80504,5,8,0:2:0:0:
290,365,80664,1,10,0:2:0:0:
246,291,80823,5,6,0:3:0:0:
204,360,80983,1,6,0:3:0:0:
252,339,81142,1,6,0:3:0:0:
57,249,81302,6,0,L|80:381,1,127.399994168091,6|2,1:2|1:2,0:0:0:0:
57,249,81621,5,2,1:2:0:0:
11,186,81781,1,2,1:2:0:0:
49,117,81940,1,2,1:2:0:0:
127,121,82100,2,0,L|224:111,1,98,2|0,1:2|1:2,0:0:0:0:
274,12,82419,6,0,L|371:22,1,98,2|10,1:2|0:2,0:0:0:0:
511,173,82738,5,10,0:2:0:0:
368,217,82898,1,10,0:2:0:0:
401,103,83057,5,10,0:2:0:0:
480,285,83217,2,0,B|456:309|456:309|385:332,1,98,10|8,0:2|0:2,0:0:0:0:
368,217,83536,1,10,0:2:0:0:
380,347,83696,1,10,0:2:0:0:
241,267,83855,6,0,B|233:218|233:218|234:213|234:213|232:211|232:211|218:120,1,127.399994168091,14|0,0:2|1:2,0:0:0:0:
159,85,84095,1,0,1:2:0:0:
149,87,84174,2,0,L|116:25,3,63.6999970840455,8|0|0|0,0:2|1:2|1:2|1:2,0:0:0:0:
221,142,84494,2,0,L|183:201,3,63.6999970840455,8|0|0|0,0:2|1:2|1:2|1:2,0:0:0:0:
231,52,84813,2,0,L|301:54,3,63.6999970840455,8|0|2|0,0:2|1:2|1:2|1:2,0:0:0:0:
414,28,85132,5,10,0:2:0:0:
407,52,85212,1,0,1:2:0:0:
405,77,85291,1,0,1:2:0:0:
410,108,85371,1,0,1:2:0:0:
419,126,85451,1,10,0:2:0:0:
428,150,85531,1,0,1:2:0:0:
431,175,85611,1,2,1:2:0:0:
430,201,85690,1,0,1:2:0:0:
415,226,85770,5,8,0:2:0:0:
385,249,85850,1,8,0:2:0:0:
348,260,85930,1,8,0:2:0:0:
310,256,86009,1,8,0:2:0:0:
277,239,86089,1,10,0:2:0:0:
252,210,86169,1,8,0:2:0:0:
239,174,86249,1,10,0:2:0:0:
241,136,86329,1,8,0:2:0:0:
256,192,86408,12,0,87366,0:0:0:0:
293,356,87525,5,4,1:2:0:0:
256,192,87605,12,0,88962,0:0:0:0:
