osu file format v14

[General]
AudioFilename: audio.mp3
AudioLeadIn: 0
PreviewTime: 178666
Countdown: 0
SampleSet: Soft
StackLeniency: 0.7
Mode: 0
LetterboxInBreaks: 0
EpilepsyWarning: 1
WidescreenStoryboard: 1

[Editor]
Bookmarks: 1220,28028,56113,86751,107177,135262,155688,178666,178746,178826,178906,178985,179145,179225,179305,179384,179464,179544,179624,179704,179783,179863,179943,180023,180102,180182,180262,180422,180501,180581,180661,180741,180821,180900,180980,181140,181220,181299,181379,181459,181618,181698,181778,181858,181938,182017,182097,182177,182257,182337,182496,182576,182656,182735,182815,182975,183055,183134,183214,183294,183374,183454,183533,183613,183693,183773,183932,184012,184092,184172,184251,184411,184571,184650,184730,184810,184890,185049,185129,185209,185289,185368,185528,185608,185688,185767,185847,185927,186007,186166,186246,186406,186565,186645,186725,186805,186884,187044,187124,187204,187283,187363,187523,187682,187842,187922,188001,188081,206751,227177
DistanceSpacing: 1
BeatDivisor: 4
GridSize: 4
TimelineZoom: 1.8

[Metadata]
Title:Hikariiro no Uta
TitleUnicode:ヒカリイロの歌
Artist:Suzuki Aina
ArtistUnicode:鈴木愛奈
Creator:Sekai
Version:kotachi & Kowari's Extra
Source:はてな☆イリュージョン
Tags:hatena☆illusion ending anime japanese ring zaq Kazato Asa Shizuku- Kowari -Brethia _kotachi_ -_ex_- ohm002 Sekaii Sekai-nyan iMage-- Meg kuei jpop j-pop
BeatmapID:2714361
BeatmapSetID:1307279

[Difficulty]
HPDrainRate:6
CircleSize:3.8
OverallDifficulty:8.7
ApproachRate:9.3
SliderMultiplier:1.78
SliderTickRate:1

[Events]
//Background and Video events
0,0,"bg5.jpg",0,0
//Break Periods
2,178866,187527
//Storyboard Layer 0 (Background)
//Storyboard Layer 1 (Fail)
//Storyboard Layer 2 (Pass)
//Storyboard Layer 3 (Foreground)
//Storyboard Layer 4 (Overlay)
//Storyboard Sound Samples

[TimingPoints]
1220,319.148936170213,4,2,2,60,1,0
1220,-125,4,2,2,60,0,0
11113,-83.3333333333333,4,2,2,60,0,0
12071,-125,4,2,2,60,0,0
12709,-100,4,2,2,60,0,0
17496,-76.9230769230769,4,2,2,60,0,0
17815,-133.333333333333,4,2,2,60,0,0
22922,-100,4,2,2,60,0,0
28028,-111.111111111111,4,2,2,70,0,0
34890,-83.3333333333333,4,2,2,70,0,0
35368,-111.111111111111,4,2,2,70,0,0
47177,-76.9230769230769,4,2,2,70,0,0
47815,-100,4,2,2,70,0,0
52922,-71.4285714285714,4,2,2,70,0,0
53560,-100,4,2,2,70,0,0
55794,-76.9230769230769,4,2,2,70,0,0
56113,-90.9090909090909,4,2,2,80,0,1
64092,-76.9230769230769,4,2,2,80,0,1
64411,-90.9090909090909,4,2,2,80,0,1
64730,-76.9230769230769,4,2,2,80,0,1
66326,-90.9090909090909,4,2,2,80,0,1
74305,-76.9230769230769,4,2,2,80,0,1
74624,-90.9090909090909,4,2,2,80,0,1
75581,-76.9230769230769,4,2,2,80,0,1
76539,-200,4,2,2,70,0,0
79092,-142.857142857143,4,2,2,70,0,0
79730,-166.666666666667,4,2,2,70,0,0
80368,-200,4,2,2,70,0,0
80847,-100,4,2,2,70,0,0
81645,-100,4,2,2,40,0,0
82283,-100,4,2,2,50,0,0
82922,-100,4,2,2,60,0,0
83560,-100,4,2,2,70,0,0
84198,-100,4,2,2,80,0,0
86751,-125,4,2,2,60,0,0
91539,-83.3333333333333,4,2,2,60,0,0
91858,-100,4,2,2,60,0,0
96964,-125,4,2,2,60,0,0
107177,-111.111111111111,4,2,2,70,0,0
122496,-200,4,2,2,70,0,0
126326,-76.9230769230769,4,2,2,70,0,0
126964,-100,4,2,2,70,0,0
132071,-71.4285714285714,4,2,2,70,0,0
133826,-100,4,2,2,70,0,0
135262,-90.9090909090909,4,2,2,80,0,1
143241,-76.9230769230769,4,2,2,80,0,1
143560,-90.9090909090909,4,2,2,80,0,1
143879,-76.9230769230769,4,2,2,80,0,1
145475,-90.9090909090909,4,2,2,80,0,1
153454,-76.9230769230769,4,2,2,80,0,1
153773,-90.9090909090909,4,2,2,80,0,1
154730,-76.9230769230769,4,2,2,80,0,1
155688,-95.2380952380952,4,2,2,70,0,0
166220,-76.9230769230769,4,2,2,70,0,0
166539,-95.2380952380952,4,2,2,70,0,0
172922,-76.9230769230769,4,2,2,70,0,0
173560,-95.2380952380952,4,2,2,70,0,0
176113,-95.2380952380952,4,2,2,80,0,0
178666,-95.2380952380952,4,2,2,60,0,0
188081,-125,4,2,2,60,0,0
188879,-100,4,2,2,70,0,0
196858,-100,4,2,2,40,0,0
197337,-100,4,2,2,50,0,0
197815,-100,4,2,2,60,0,0
198134,-100,4,2,2,70,0,0
198454,-100,4,2,2,80,0,0
198773,-100,4,2,2,90,0,0
201645,-125,4,2,2,70,0,0
202922,-111.111111111111,4,2,2,70,0,0
204517,-111.111111111111,4,2,2,60,0,0
206432,-76.9230769230769,4,2,2,60,0,0
206751,-90.9090909090909,4,2,2,80,0,1
209624,-76.9230769230769,4,2,2,80,0,1
209943,-90.9090909090909,4,2,2,80,0,1
219837,-76.9230769230769,4,2,2,80,0,1
220794,-90.9090909090909,4,2,2,80,0,1
221751,-71.4285714285714,4,2,2,80,0,1
222071,-83.3333333333333,4,2,2,70,0,0
224943,-83.3333333333333,4,2,2,50,0,0
225900,-83.3333333333333,4,2,2,70,0,0
226220,-71.4285714285714,4,2,2,70,0,0
226539,-83.3333333333333,4,2,2,70,0,0
227177,-83.3333333333333,4,2,2,80,0,1
242496,-200,4,2,2,70,0,0
245049,-142.857142857143,4,2,2,70,0,0
245688,-166.666666666667,4,2,2,70,0,0
246326,-200,4,2,2,70,0,0
247602,-100,4,2,2,50,0,0
248241,-100,4,2,2,60,0,0
248879,-100,4,2,2,70,0,0
249517,-100,4,2,2,80,0,0
252071,-100,4,2,2,90,0,0
252709,-100,4,2,2,100,0,0
253028,-142.857142857143,4,2,2,40,0,0
253826,-142.857142857143,4,2,2,100,0,0
255262,-142.857142857143,4,2,2,30,0,0

[Colours]
Combo1 : 27,126,180
Combo2 : 252,219,103
Combo3 : 255,139,70
Combo4 : 255,60,60
Combo5 : 255,155,205
Combo6 : 176,176,255
Combo7 : 6,230,168
Combo8 : 134,45,232
SliderBorder : 255,155,205
SliderTrackOverride : 176,176,255

[HitObjects]
85,149,1220,6,0,B|41:180|-13:136|2:67|73:43|138:63|156:120|156:120|176:176|246:193|289:144,1,427.2,4|0,1:2|0:0,0:0:0:0:
313,76,2337,1,0,0:0:0:0:
413,21,2496,6,0,P|453:77|435:143,1,142.4,4|0,1:2|0:0,0:0:0:0:
374,218,2975,2,0,P|356:284|396:340,1,142.4,8|0,1:3|0:0,0:0:0:0:
487,369,3454,2,0,B|500:314|500:314|466:273,1,106.8,4|0,1:3|0:0,0:0:0:0:
396,340,3773,6,0,B|280:372|311:281|182:321,1,213.6,4|0,1:2|0:0,0:0:0:0:
38,370,4411,2,0,B|18:266|18:266|69:295,1,142.4,4|0,1:2|0:0,0:0:0:0:
49,284,4890,1,0,0:0:0:0:
158,177,5049,6,0,B|110:168|110:168|72:184|72:184|20:175,1,142.4,4|0,1:2|0:0,0:0:0:0:
53,31,5528,1,0,1:0:0:0:
53,31,5608,1,0,1:0:0:0:
53,31,5688,2,0,P|60:71|65:104,1,71.2,8|8,0:0|1:3,0:0:0:0:
180,97,6007,2,0,P|174:132|169:167,1,71.2,8|4,0:3|0:3,0:0:0:0:
367,82,6326,5,12,0:0:0:0:
367,82,6485,1,0,1:0:0:0:
297,231,6645,1,0,1:0:0:0:
281,139,6804,1,0,1:0:0:0:
495,187,6964,5,0,1:0:0:0:
297,231,7124,1,0,1:0:0:0:
465,109,7283,1,8,0:0:0:0:
420,302,7443,1,8,0:0:0:0:
281,139,7602,5,0,1:0:0:0:
336,314,7762,1,0,1:0:0:0:
363,170,7922,1,0,1:0:0:0:
226,279,8081,1,0,1:0:0:0:
290,35,8241,5,8,1:2:0:0:
297,231,8400,1,8,1:2:0:0:
147,100,8560,1,8,1:2:0:0:
363,170,8720,1,8,1:2:0:0:
363,170,8799,1,0,1:0:0:0:
363,170,8879,6,0,L|372:208,3,35.6,12|0|0|0,0:2|1:0|1:0|1:0,0:0:0:0:
373,282,9198,1,8,1:2:0:0:
350,310,9277,1,0,1:0:0:0:
318,324,9357,1,0,1:0:0:0:
283,321,9437,1,0,1:0:0:0:
253,302,9517,1,8,1:2:0:0:
223,283,9597,1,0,1:0:0:0:
188,280,9677,1,0,1:0:0:0:
156,294,9757,1,0,1:0:0:0:
134,322,9837,6,0,L|83:313,1,35.6,8|0,1:2|1:0,0:0:0:0:
38,205,9996,2,0,L|89:214,1,35.6,0|0,1:0|1:0,0:0:0:0:
258,60,10156,5,8,1:2:0:0:
228,41,10235,1,8,0:0:0:0:
193,37,10315,1,8,0:0:0:0:
159,49,10395,1,8,0:0:0:0:
135,74,10475,1,8,1:2:0:0:
123,107,10554,1,8,0:0:0:0:
128,142,10634,1,8,0:0:0:0:
147,172,10714,1,8,0:0:0:0:
180,187,10794,5,8,1:2:0:0:
220,164,10873,1,8,0:0:0:0:
267,159,10953,1,8,0:0:0:0:
312,173,11033,1,8,0:0:0:0:
348,204,11113,2,0,L|412:197,1,53.3999983703614,8|8,1:2|0:0,0:0:0:0:
187,327,11273,2,0,L|123:320,1,53.3999983703614,8|8,0:0|0:0,0:0:0:0:
481,190,12071,6,0,L|476:154,1,35.6,0|0,3:0|3:0,0:0:0:0:
460,41,12230,2,0,L|464:76,1,35.6,0|0,3:0|3:0,0:0:0:0:
393,218,12390,6,0,L|388:182,1,35.6,0|0,3:0|3:0,0:0:0:0:
368,43,12549,2,0,L|372:78,1,35.6,0|0,3:0|3:0,0:0:0:0:
252,153,12709,6,0,B|155:188|179:109|71:142,1,178,6|10,1:2|0:0,0:0:0:0:
0,199,13188,1,2,0:0:0:0:
149,324,13347,2,0,P|142:277|133:227,1,89,0|2,1:0|0:0,0:0:0:0:
2,351,13666,1,8,0:0:0:0:
259,285,13826,6,0,P|251:328|244:372,1,89,2|0,0:0|1:0,0:0:0:0:
280,175,14145,1,2,0:0:0:0:
401,296,14305,1,10,0:0:0:0:
372,78,14464,1,2,0:0:0:0:
493,199,14624,5,2,1:0:0:0:
364,166,14783,1,2,0:0:0:0:
401,295,14943,1,10,0:0:0:0:
493,199,15102,1,2,0:0:0:0:
268,190,15262,6,0,L|255:101,1,89,12|0,0:0|1:0,0:0:0:0:
187,238,15581,5,8,0:0:0:0:
364,166,15741,1,0,1:0:0:0:
156,151,15900,5,8,0:0:0:0:
386,185,16060,2,0,L|433:191,1,44.5,0|0,1:0|1:0,0:0:0:0:
160,252,16220,2,0,L|113:246,1,44.5,8|0,0:0|1:0,0:0:0:0:
285,12,16379,6,0,P|271:139|267:199,1,178,4|8,1:2|0:0,0:0:0:0:
267,189,16778,1,8,0:0:0:0:
267,189,16858,1,8,0:0:0:0:
409,48,17017,1,8,0:3:0:0:
409,48,17097,1,8,0:3:0:0:
409,48,17177,2,0,L|400:-3,1,44.5,4|4,0:3|0:3,0:0:0:0:
430,235,17337,2,0,L|436:286,1,44.5,4|4,0:3|0:3,0:0:0:0:
262,110,17496,6,0,B|365:91|328:156|427:140,1,173.549992055512,12|0,0:2|0:0,0:0:0:0:
512,57,17815,6,0,P|506:121|500:201,2,133.500005092621,4|0|0,1:2|1:0|1:0,0:0:0:0:
426,140,18613,1,2,0:0:0:0:
332,73,18773,2,0,P|336:106|341:139,1,66.7500025463105,2|2,1:0|0:0,0:0:0:0:
272,248,19092,6,0,B|226:237|226:237|203:211|203:211|141:195,1,133.500005092621,2|2,1:0|1:0,0:0:0:0:
103,327,19571,2,0,P|135:311|154:288,1,66.7500025463105,2|0,0:0|1:0,0:0:0:0:
74,231,19890,1,2,0:0:0:0:
14,307,20049,2,0,L|25:372,1,66.7500025463105,0|0,1:0|0:0,0:0:0:0:
71,218,20368,6,0,L|49:80,2,133.500005092621,0|0|0,1:0|1:0|1:0,0:0:0:0:
154,287,21166,1,2,0:0:0:0:
218,209,21326,2,0,L|153:198,1,66.7500025463105,2|0,1:0|0:0,0:0:0:0:
271,309,21645,6,0,B|347:296|323:346|398:334,1,133.500005092621,2|2,1:0|1:0,0:0:0:0:
480,275,22124,1,2,3:0:0:0:
483,278,22204,1,0,3:0:0:0:
487,282,22283,1,0,1:0:0:0:
399,228,22443,1,2,0:0:0:0:
502,118,22602,2,0,L|489:183,1,66.7500025463105,10|0,0:0|0:0,0:0:0:0:
287,31,22922,6,0,L|299:120,1,89,6|0,1:2|1:0,0:0:0:0:
220,269,23241,1,8,0:0:0:0:
171,118,23400,1,2,1:0:0:0:
411,139,23560,2,0,L|399:228,1,89,10|0,0:3|1:0,0:0:0:0:
399,227,23799,1,0,1:0:0:0:
399,227,23879,1,8,0:0:0:0:
171,118,24039,6,0,L|159:29,1,89,6|0,1:2|0:0,0:0:0:0:
13,190,24358,2,0,P|78:188|129:228,1,133.5,2|0,1:0|0:0,0:0:0:0:
130,229,24677,1,2,1:0:0:0:
208,357,24837,2,0,L|220:268,1,89,8|4,0:3|0:3,0:0:0:0:
219,268,25076,1,4,0:3:0:0:
219,268,25156,2,0,B|269:263|269:263|298:272|298:272|356:266,1,133.5,14|0,0:2|0:0,0:0:0:0:
444,234,25475,6,0,P|437:286|431:332,1,89,6|0,1:2|1:0,0:0:0:0:
293,146,25794,1,8,0:0:0:0:
350,266,25954,1,0,0:0:0:0:
401,97,26113,5,4,1:2:0:0:
274,234,26273,1,2,1:0:0:0:
279,120,26432,1,10,0:0:0:0:
443,211,26592,1,2,0:0:0:0:
280,25,26751,6,0,L|172:19,1,89,2|0,1:0|1:0,0:0:0:0:
31,105,27071,1,10,0:0:0:0:
103,18,27230,2,0,P|117:88|126:154,1,133.5,2|0,1:0|0:0,0:0:0:0:
125,165,27549,2,0,L|120:213,1,44.5,10|8,0:0|0:0,0:0:0:0:
213,331,27709,2,0,L|208:286,1,44.5,8|8,0:0|0:0,0:0:0:0:
297,185,27868,2,0,L|351:195,1,44.5,8|8,0:0|0:0,0:0:0:0:
428,272,28028,6,0,P|486:261|496:196,1,120.149996333313,4|0,1:2|0:0,0:0:0:0:
505,112,28347,2,0,L|416:129,1,80.0999975555421,10|0,0:0|0:0,0:0:0:0:
263,171,28666,2,0,P|236:135|231:86,1,80.0999975555421,2|0,1:0|0:0,0:0:0:0:
341,9,28985,2,0,P|329:88|327:109,1,80.0999975555421,10|0,0:0|0:0,0:0:0:0:
298,273,29305,6,0,B|215:257|218:309|141:287,1,160.199995111084,2|10,1:0|0:0,0:0:0:0:
154,130,29783,2,0,P|176:201|184:221,1,80.0999975555421,2|0,0:0|1:0,0:0:0:0:
73,353,30102,2,0,P|51:282|43:262,1,80.0999975555421,2|8,0:0|0:0,0:0:0:0:
0,163,30422,1,2,0:0:0:0:
178,206,30581,6,0,P|259:219|369:231,1,160.199995111084,2|10,1:0|0:0,0:0:0:0:
417,83,31060,2,0,P|373:94|335:144,1,80.0999975555421,2|0,0:0|1:0,0:0:0:0:
441,268,31379,2,0,P|433:191|430:157,1,80.0999975555421,2|8,0:0|0:0,0:0:0:0:
512,335,31698,1,2,0:0:0:0:
338,246,31858,6,0,P|274:262|232:272,1,80.0999975555421,2|0,1:0|0:0,0:0:0:0:
113,338,32177,1,10,0:0:0:0:
170,208,32337,1,2,0:0:0:0:
221,384,32496,1,0,1:0:0:0:
59,246,32656,1,8,0:0:0:0:
59,246,32735,1,8,0:0:0:0:
59,246,32815,2,0,L|70:189,1,40.049998777771,8|8,0:3|0:3,0:0:0:0:
232,98,32976,2,0,L|221:155,1,40.049998777771,4|4,0:3|0:3,0:0:0:0:
260,265,33134,6,0,P|211:249|162:239,1,80.0999975555421,4|0,1:2|0:0,0:0:0:0:
0,148,33454,2,0,P|44:119|115:137,1,120.149996333313,10|0,0:0|0:0,0:0:0:0:
124,152,33773,1,2,1:0:0:0:
293,71,33932,1,0,1:0:0:0:
178,3,34092,2,0,L|200:95,1,80.0999975555421,8|0,0:0|0:0,0:0:0:0:
232,253,34411,5,2,1:0:0:0:
316,149,34571,1,0,1:0:0:0:
132,232,34730,1,10,0:0:0:0:
326,334,34890,6,0,B|416:310|407:367|493:338,1,160.199995111084,6|0,1:2|0:0,0:0:0:0:
499,322,35209,1,2,1:0:0:0:
414,153,35368,2,0,P|405:198|397:253,1,80.0999975555421,10|0,0:0|1:0,0:0:0:0:
272,64,35688,5,8,0:0:0:0:
306,201,35847,1,0,0:0:0:0:
269,41,36007,5,10,0:0:0:0:
189,238,36166,2,0,L|245:222,1,40.049998777771,0|0,1:0|1:0,0:0:0:0:
377,171,36326,5,10,0:0:0:0:
188,98,36485,1,0,0:0:0:0:
402,161,36645,5,10,0:0:0:0:
171,243,36805,1,0,0:0:0:0:
386,325,36964,5,14,0:0:0:0:
294,119,37124,1,0,1:0:0:0:
216,348,37283,6,0,P|174:338|120:331,1,80.0999975555421,8|0,0:0|1:0,0:0:0:0:
100,327,37523,1,0,1:0:0:0:
100,327,37602,1,10,0:3:0:0:
164,148,37762,1,0,1:0:0:0:
164,148,37842,1,0,1:0:0:0:
164,148,37922,2,0,L|173:201,1,40.049998777771,8|8,0:0|0:0,0:0:0:0:
41,234,38082,2,0,L|32:181,1,40.049998777771,8|8,0:0|0:0,0:0:0:0:
14,48,38241,6,0,P|57:57|102:66,1,80.0999975555421,4|0,1:2|1:0,0:0:0:0:
258,85,38560,1,8,0:0:0:0:
157,200,38720,1,0,1:0:0:0:
181,30,38879,1,8,0:0:0:0:
341,154,39039,1,0,1:0:0:0:
229,124,39198,1,8,0:0:0:0:
406,95,39358,5,8,0:0:0:0:
406,95,39438,1,8,0:0:0:0:
406,95,39517,1,8,0:0:0:0:
340,240,39677,1,0,1:0:0:0:
416,74,39837,1,8,0:3:0:0:
482,294,39996,1,12,0:2:0:0:
482,294,40315,1,2,1:2:0:0:
342,206,40475,1,10,0:0:0:0:
481,90,40634,5,6,0:3:0:0:
481,90,40714,1,4,0:3:0:0:
481,90,40794,2,0,P|475:152|470:195,1,80.0999975555421,6|0,1:2|0:0,0:0:0:0:
268,117,41113,1,10,0:0:0:0:
397,15,41273,1,10,0:0:0:0:
397,15,41352,1,8,0:0:0:0:
397,15,41432,1,8,0:0:0:0:
346,240,41592,2,0,P|287:256|246:184,1,120.149996333313,6|0,1:2|0:2,0:2:0:0:
232,129,41911,6,0,B|170:136|170:136|140:159|140:159|73:166,1,160.199995111084,6|0,1:2|0:0,0:0:0:0:
41,0,42390,2,0,P|79:34|92:77,1,80.0999975555421,10|0,0:0|3:0,0:0:0:0:
85,86,42629,1,0,3:0:0:0:
85,86,42709,1,2,1:0:0:0:
15,249,42868,1,2,1:0:0:0:
15,249,42948,1,0,1:0:0:0:
15,249,43028,2,0,L|67:258,1,40.049998777771,10|8,0:0|0:0,0:0:0:0:
207,337,43188,1,8,0:3:0:0:
207,337,43267,1,4,0:3:0:0:
207,337,43347,6,0,P|164:307|97:383,1,160.199995111084,4|2,1:2|0:0,0:0:0:0:
179,197,43826,1,0,1:0:0:0:
317,286,43985,2,0,B|374:276|414:268,1,80.0999975555421,10|0,0:0|0:0,0:0:0:0:
289,382,44305,1,2,1:0:0:0:
346,190,44464,6,0,P|362:92|371:17,2,160.199995111084,2|0|0,1:0|1:0|1:0,0:0:0:0:
446,113,45262,1,8,0:0:0:0:
264,134,45422,1,0,1:0:0:0:
407,249,45581,1,2,1:0:0:0:
361,162,45741,1,0,1:0:0:0:
285,306,45900,6,0,P|244:347|134:319,1,160.199995111084,2|0,1:0|1:0,0:0:0:0:
30,238,46379,1,0,1:0:0:0:
215,173,46539,2,0,L|203:266,1,80.0999975555421,10|0,0:0|0:0,0:0:0:0:
96,182,46858,1,10,0:3:0:0:
96,182,46938,1,8,0:3:0:0:
96,182,47017,2,0,L|86:134,1,40.049998777771,6|4,0:3|0:3,0:0:0:0:
31,43,47177,6,0,B|107:27|107:27|147:54,1,115.699994703675,14|0,0:0|0:0,0:0:0:0:
193,127,47416,6,0,P|255:148|299:110,1,115.699994703675,8|0,1:3|0:0,0:0:0:0:
353,52,47656,6,0,P|388:53|420:74,1,57.8499973518373,6|0,1:3|0:0,0:0:0:0:
470,166,47815,6,0,L|444:286,1,89,2|2,1:2|1:0,0:0:0:0:
444,281,48055,1,0,1:0:0:0:
444,281,48134,2,0,L|500:289,1,44.5,10|8,0:0|0:0,0:0:0:0:
341,349,48295,2,0,L|296:355,1,44.5,10|8,0:0|0:0,0:0:0:0:
203,277,48454,6,0,B|151:271|151:271|116:284|116:284|69:279,1,133.5,4|0,1:2|0:0,0:0:0:0:
8,316,48773,2,0,P|20:272|30:221,1,89,10|0,0:0|0:0,0:0:0:0:
165,83,49091,2,0,P|152:126|143:178,1,89,2|0,1:0|3:0,0:0:0:0:
149,197,49331,1,0,3:0:0:0:
149,197,49411,1,8,0:0:0:0:
70,30,49571,1,0,0:0:0:0:
250,149,49730,6,0,P|311:154|353:74,1,133.5,0|0,1:0|0:0,0:0:0:0:
336,13,50049,2,0,P|376:23|435:32,1,89,10|0,0:0|0:0,0:0:0:0:
512,211,50368,2,0,P|471:200|413:192,1,89,2|0,1:0|0:0,0:0:0:0:
319,375,50688,2,0,B|349:346|349:346|332:251,1,133.5,10|0,0:0|0:0,0:0:0:0:
316,214,51007,5,6,1:2:0:0:
275,197,51086,1,8,0:0:0:0:
234,211,51166,1,8,0:0:0:0:
210,247,51246,1,8,0:0:0:0:
203,291,51326,2,0,P|179:308|151:314,1,44.5,10|8,0:0|0:0,0:0:0:0:
51,295,51485,5,6,1:2:0:0:
19,264,51564,1,4,0:3:0:0:
9,222,51644,1,4,0:3:0:0:
26,181,51724,1,4,0:3:0:0:
61,153,51805,2,0,L|117:165,1,44.5,4|4,0:3|0:3,0:0:0:0:
219,93,51965,5,4,1:2:0:0:
263,86,52044,1,8,0:0:0:0:
307,80,52124,1,8,0:0:0:0:
351,73,52204,1,8,0:0:0:0:
395,67,52284,1,8,0:0:0:0:
439,69,52363,1,8,0:0:0:0:
472,99,52443,1,8,1:3:0:0:
486,141,52523,1,8,0:3:0:0:
467,183,52602,1,8,0:3:0:0:
427,203,52682,1,4,0:3:0:0:
383,192,52762,1,6,0:3:0:0:
354,157,52842,1,4,0:3:0:0:
316,132,52922,6,0,P|254:120|202:188,1,124.59999619751,14|0,1:2|0:0,0:0:0:0:
243,263,53161,6,0,B|200:254|200:254|162:265|162:265|120:259,1,124.59999619751,10|0,1:2|0:0,0:0:0:0:
32,273,53400,6,0,P|35:233|52:201,1,62.2999980987549,10|0,1:2|0:0,0:0:0:0:
111,73,53560,6,0,L|128:178,1,89,6|0,1:2|0:0,0:0:0:0:
152,361,53879,1,0,1:2:0:0:
227,241,54039,1,0,1:2:0:0:
321,361,54198,1,0,1:2:0:0:
121,259,54358,1,8,1:2:0:0:
310,137,54517,1,8,1:2:0:0:
231,330,54677,1,8,1:2:0:0:
229,59,54837,5,12,0:0:0:0:
321,264,54996,1,0,1:0:0:0:
463,119,55156,2,0,P|425:81|344:107,1,133.5,12|0,0:0|0:0,0:0:0:0:
341,109,55475,2,0,L|327:167,1,44.5,8|8,0:3|0:3,0:0:0:0:
234,209,55634,2,0,L|244:252,1,44.5,4|4,0:3|0:3,0:0:0:0:
318,340,55794,6,0,B|208:374|208:374|146:331,1,173.549992055512,12|0,0:0|0:0,0:0:0:0:
138,157,56113,6,0,B|251:130|220:210|326:180,1,195.800005975342,6|8,1:2|0:0,0:0:0:0:
463,119,56592,1,0,0:0:0:0:
415,344,56751,2,0,P|404:296|395:247,1,97.900002987671,2|2,1:0|0:0,0:0:0:0:
505,275,57071,1,10,0:0:0:0:
305,312,57230,1,2,0:0:0:0:
305,84,57390,6,0,P|313:132|324:180,1,97.900002987671,2|0,1:0|0:0,0:0:0:0:
113,127,57709,2,0,L|218:102,1,97.900002987671,10|0,0:0|0:0,0:0:0:0:
106,335,58028,2,0,L|10:312,1,97.900002987671,2|0,1:0|0:0,0:0:0:0:
180,206,58347,1,10,0:0:0:0:
10,43,58507,1,0,3:0:0:0:
10,43,58587,1,0,3:0:0:0:
10,43,58666,6,0,P|26:111|49:238,1,195.800005975342,6|8,1:2|0:0,0:0:0:0:
252,96,59145,1,0,3:0:0:0:
252,96,59225,1,0,3:0:0:0:
252,96,59305,2,0,L|156:73,1,97.900002987671,0|0,1:0|0:0,0:0:0:0:
276,254,59624,1,8,0:0:0:0:
423,111,59783,6,0,B|434:62|434:62|410:10,1,97.900002987671,2|0,0:0|1:0,0:0:0:0:
218,187,60102,1,2,0:0:0:0:
393,259,60262,1,10,0:0:0:0:
346,76,60422,1,2,0:0:0:0:
276,254,60581,5,2,1:0:0:0:
111,156,60741,1,2,0:0:0:0:
302,172,60900,1,10,0:0:0:0:
199,329,61060,1,2,0:0:0:0:
316,163,61220,6,0,P|392:155|461:203,1,146.850004481506,2|0,1:0|0:0,0:0:0:0:
457,199,61539,2,0,L|466:101,1,97.900002987671,10|0,0:0|0:0,0:0:0:0:
276,254,61858,2,0,L|285:352,1,97.900002987671,2|0,1:0|0:0,0:0:0:0:
215,153,62177,1,8,0:0:0:0:
96,282,62337,1,0,0:0:0:0:
225,54,62496,6,0,P|149:62|80:14,1,146.850004481506,2|0,1:0|0:0,0:0:0:0:
84,18,62815,2,0,L|75:116,1,97.900002987671,10|0,0:0|0:0,0:0:0:0:
323,111,63134,2,0,P|373:100|428:90,1,97.900002987671,2|0,1:0|0:0,0:0:0:0:
191,262,63454,2,0,P|143:272|95:281,1,97.900002987671,8|0,0:0|0:0,0:0:0:0:
294,336,63773,5,0,1:0:0:0:
275,105,63932,2,0,L|326:112,1,48.9500014938355,0|0,3:0|3:0,0:0:0:0:
476,196,64092,2,0,B|416:187|416:187|370:209|370:209|308:199,1,173.549992055512,12|0,0:0|0:0,0:0:0:0:
296,196,64411,5,0,1:0:0:0:
426,276,64571,1,2,0:0:0:0:
346,53,64730,2,0,L|357:127,1,57.8499973518373,10|8,0:0|0:0,0:0:0:0:
199,270,64890,5,6,0:3:0:0:
199,270,64970,1,4,0:3:0:0:
199,270,65049,1,10,0:0:0:0:
366,104,65209,1,0,1:0:0:0:
129,11,65368,2,0,P|71:84|121:162,1,173.549992055512,14|0,0:0|0:0,0:0:0:0:
176,174,65688,5,12,1:2:0:0:
219,179,65767,1,8,0:0:0:0:
262,184,65847,1,8,0:0:0:0:
305,189,65927,1,8,0:0:0:0:
348,194,66007,2,0,L|357:134,1,57.8499973518373,8|8,0:0|0:0,0:0:0:0:
229,6,66166,2,0,L|220:66,1,57.8499973518373,8|8,0:0|0:0,0:0:0:0:
291,289,66326,6,0,B|363:275|363:275|411:299|411:299|479:285,1,195.800005975342,6|8,1:2|0:0,0:0:0:0:
348,194,66805,1,0,0:0:0:0:
476,74,66964,2,0,P|467:124|459:182,1,97.900002987671,2|2,1:0|0:0,0:0:0:0:
263,140,67283,1,10,0:0:0:0:
403,13,67443,1,2,0:0:0:0:
241,143,67602,6,0,P|194:131|146:121,1,97.900002987671,2|0,1:0|0:0,0:0:0:0:
403,13,67922,2,0,P|394:63|386:121,1,97.900002987671,10|0,0:0|0:0,0:0:0:0:
284,329,68241,2,0,P|277:280|268:232,1,97.900002987671,2|0,1:0|0:0,0:0:0:0:
164,305,68560,1,8,0:0:0:0:
382,378,68720,1,0,3:0:0:0:
382,378,68799,1,0,3:0:0:0:
382,378,68879,6,0,P|391:300|411:171,1,195.800005975342,0|8,1:2|0:0,0:0:0:0:
255,24,69358,1,0,3:0:0:0:
255,24,69438,1,0,3:0:0:0:
255,24,69517,1,0,1:0:0:0:
326,178,69677,1,0,0:0:0:0:
472,91,69837,1,8,0:0:0:0:
253,126,69996,6,0,B|173:147|197:91|97:112,1,146.850004481506,6|0,1:2|0:0,0:0:0:0:
101,114,70315,2,0,L|108:63,1,48.9500014938355,2|0,3:0|3:0,0:0:0:0:
0,171,70475,2,0,L|18:287,1,97.900002987671,10|2,0:0|0:0,0:0:0:0:
196,337,70794,1,2,1:0:0:0:
254,210,70954,1,2,0:0:0:0:
79,318,71113,1,10,0:0:0:0:
324,362,71273,1,10,0:0:0:0:
324,362,71352,1,8,0:0:0:0:
324,361,71432,6,0,P|365:302|359:230,1,146.850004481506,6|0,1:2|0:0,0:0:0:0:
350,224,71751,2,0,L|245:208,1,97.900002987671,10|0,0:0|0:0,0:0:0:0:
131,235,72071,1,2,1:0:0:0:
361,130,72230,1,8,0:0:0:0:
249,19,72390,2,0,P|260:75|270:137,1,97.900002987671,10|2,0:0|0:0,0:0:0:0:
24,62,72709,6,0,P|87:28|157:43,1,146.850004481506,2|0,1:0|0:0,0:0:0:0:
164,55,73028,2,0,P|157:109|150:158,1,97.900002987671,10|0,0:0|0:0,0:0:0:0:
249,19,73347,1,2,1:0:0:0:
50,151,73507,1,8,0:0:0:0:
266,235,73666,2,0,P|310:184|266:115,1,146.850004481506,10|0,0:0|0:0,0:0:0:0:
266,115,73985,5,6,1:2:0:0:
266,115,74145,1,0,1:0:0:0:
124,280,74305,2,0,B|184:291|184:291|218:322|218:322|283:336,1,173.549992055512,8|0,0:0|0:0,0:0:0:0:
295,338,74624,1,0,1:0:0:0:
436,208,74783,1,0,1:0:0:0:
266,115,74943,1,8,0:0:0:0:
380,315,75102,1,0,1:0:0:0:
392,335,75181,1,0,1:0:0:0:
405,356,75262,5,12,0:0:0:0:
361,137,75422,1,0,1:0:0:0:
162,296,75581,2,0,B|101:284|101:284|67:253|67:253|2:239,1,173.549992055512,12|0,0:0|0:0,0:0:0:0:
4,117,75900,5,4,0:3:0:0:
27,80,75979,1,4,0:3:0:0:
68,59,76059,1,8,0:3:0:0:
106,52,76139,1,8,0:0:0:0:
147,64,76219,1,8,0:0:0:0:
277,144,76379,5,8,0:0:0:0:
277,144,76459,1,8,0:0:0:0:
277,144,76539,6,0,P|286:225|297:336,1,178,4|2,1:2|0:0,0:0:0:0:
423,216,77496,1,2,0:0:0:0:
198,195,77815,2,0,B|96:191|132:255|32:249,1,178,2|2,0:0|0:0,0:0:0:0:
0,166,78613,2,0,P|9:131|71:108,1,89,2|0,0:0|0:0,0:0:0:0:
196,241,79092,6,0,L|228:367,1,124.59999619751,2|0,0:0|3:0,0:0:0:0:
172,162,79571,1,2,0:0:0:0:
263,182,79730,6,0,L|373:218,1,106.799996740723,2|0,0:0|3:0,0:0:0:0:
159,149,80209,1,2,0:0:0:0:
264,80,80368,6,0,L|352:33,1,89,2|0,3:2|3:0,0:0:0:0:
145,136,80847,1,10,0:0:0:0:
287,190,81007,5,8,0:0:0:0:
121,310,81166,1,8,1:3:0:0:
159,149,81326,5,8,0:3:0:0:
302,295,81485,1,6,0:3:0:0:
294,102,81645,6,0,L|287:200,1,89,4|0,1:2|1:0,0:0:0:0:
397,258,81964,2,0,L|404:160,1,89,2|0,1:0|1:0,0:0:0:0:
477,32,82283,5,0,1:0:0:0:
388,68,82443,1,0,1:0:0:0:
315,5,82602,1,0,1:0:0:0:
226,41,82762,1,0,1:0:0:0:
287,190,82922,5,8,1:2:0:0:
388,68,83081,1,8,1:2:0:0:
206,132,83241,1,8,1:2:0:0:
378,168,83400,1,8,1:2:0:0:
226,41,83560,5,8,1:2:0:0:
191,226,83720,1,8,1:2:0:0:
302,100,83879,5,8,1:2:0:0:
86,53,84039,1,8,1:2:0:0:
146,297,84198,5,12,1:2:0:0:
188,309,84277,1,0,1:2:0:0:
230,298,84357,1,0,1:2:0:0:
261,267,84437,1,0,1:2:0:0:
272,224,84517,2,0,L|261:173,3,44.5,8|0|0|0,1:2|1:2|1:2|1:2,0:2:0:0:
171,155,84837,2,0,L|161:111,3,44.5,8|0|0|0,1:2|1:2|1:2|1:2,0:2:0:0:
225,43,85156,2,0,L|216:0,3,44.5,8|0|0|0,1:2|1:2|1:2|1:2,0:2:0:0:
296,102,85475,5,8,1:2:0:0:
333,124,85554,1,0,1:2:0:0:
377,131,85634,1,0,1:2:0:0:
420,119,85714,1,0,1:2:0:0:
455,92,85794,1,8,1:2:0:0:
476,53,85873,1,8,0:2:0:0:
481,9,85953,5,8,0:2:0:0:
438,20,86033,1,8,0:2:0:0:
403,47,86113,1,8,1:2:0:0:
382,86,86192,1,8,0:2:0:0:
377,130,86273,2,0,L|388:188,1,44.5,8|8,0:2|0:2,0:2:0:0:
308,291,86432,2,0,L|251:279,1,44.5,8|8,1:2|0:2,0:2:0:0:
177,131,86592,2,0,L|234:143,1,44.5,8|8,0:2|0:2,0:2:0:0:
411,289,86751,6,0,B|281:273|335:366|179:342,1,213.6,4|8,1:2|0:0,0:0:0:0:
196,342,87310,1,8,0:0:0:0:
196,342,87390,1,8,0:0:0:0:
110,214,87549,1,8,0:3:0:0:
211,249,87709,1,4,0:3:0:0:
50,340,87868,6,0,P|71:256|88:179,2,142.4,4|8|8,1:2|0:0|1:3,0:0:0:0:
174,89,88825,1,8,0:3:0:0:
19,137,88985,1,4,0:3:0:0:
182,259,89146,5,0,3:0:0:0:
182,259,89226,1,0,3:0:0:0:
182,259,89305,2,0,B|246:319|300:260|300:260|280:207|233:215,1,213.6,4|4,1:2|0:3,0:0:0:0:
192,127,89944,2,0,P|226:120|288:115,1,71.2,8|0,0:3|3:0,0:0:0:0:
420,186,90262,1,8,0:0:0:0:
376,1,90422,6,0,B|341:30|341:30|352:127,1,142.4,4|8,1:2|0:0,0:0:0:0:
381,306,90900,1,8,0:0:0:0:
490,147,91060,1,8,0:3:0:0:
490,147,91140,1,8,0:3:0:0:
490,147,91220,2,0,L|451:135,2,35.6,4|4|0,0:3|0:3|1:3,0:0:0:0:
329,230,91539,6,0,B|270:239|270:239|241:267|241:267|164:282,1,160.199995111084,12|0,0:2|0:0,0:0:0:0:
99,250,91858,6,0,P|100:304|121:351,1,89,4|2,1:2|1:0,0:0:0:0:
176,152,92177,1,10,0:0:0:0:
1,203,92337,1,2,0:0:0:0:
116,70,92496,1,2,1:0:0:0:
90,235,92656,1,0,1:0:0:0:
126,38,92815,1,10,0:0:0:0:
229,244,92975,6,0,B|273:279|273:279|408:234,1,178,10|0,0:0|1:0,0:0:0:0:
493,103,93454,2,0,P|421:92|385:89,1,89,10|0,0:0|0:0,0:0:0:0:
232,143,93773,1,2,1:0:0:0:
400,207,93932,1,0,1:0:0:0:
349,1,94092,2,0,P|319:35|310:82,1,89,10|0,0:0|1:0,0:0:0:0:
316,112,94331,1,0,1:0:0:0:
316,112,94411,5,12,0:0:0:0:
368,290,94571,1,0,1:0:0:0:
235,163,94730,5,10,0:0:0:0:
425,205,94890,1,0,1:0:0:0:
255,303,95049,5,10,0:0:0:0:
439,193,95209,1,0,1:0:0:0:
366,375,95368,5,10,0:0:0:0:
284,201,95528,2,0,P|222:192|182:186,1,89,2|8,1:0|0:0,0:0:0:0:
45,269,95847,5,0,1:0:0:0:
45,269,95927,1,0,3:0:0:0:
45,269,96007,2,0,L|55:318,1,44.5,10|0,3:2|3:0,0:0:0:0:
161,384,96166,2,0,L|169:340,1,44.5,2|0,3:0|3:0,0:0:0:0:
281,283,96326,2,0,L|332:274,1,44.5,10|0,3:3|3:0,0:0:0:0:
446,245,96485,5,8,0:0:0:0:
484,223,96564,1,8,0:0:0:0:
504,184,96644,1,8,1:2:0:0:
500,141,96724,1,8,0:0:0:0:
472,107,96804,1,8,0:0:0:0:
430,93,96883,1,8,0:0:0:0:
391,98,96964,6,0,B|309:103|341:148|251:147,1,142.4,4|0,1:2|1:0,0:0:0:0:
96,93,97443,2,0,P|161:99|187:29,1,142.4,2|2,0:0|0:0,0:0:0:0:
157,194,97922,2,0,P|162:229|171:263,1,71.2,2|2,1:0|0:0,0:0:0:0:
349,256,98241,6,0,P|301:246|254:238,1,71.2,2|0,1:0|0:0,0:0:0:0:
362,377,98560,1,2,1:2:0:0:
446,307,98720,2,0,P|456:259|464:212,1,71.2,2|0,0:0|1:0,0:0:0:0:
359,95,99039,1,2,0:0:0:0:
491,147,99198,2,0,P|443:157|396:165,1,71.2,0|0,1:0|0:0,0:0:0:0:
283,37,99517,6,0,P|315:138|326:185,1,142.4,2|0,1:0|1:0,0:0:0:0:
221,307,99996,2,0,P|249:266|337:301,1,142.4,2|2,0:0|0:0,0:0:0:0:
160,372,100475,2,0,P|107:357|65:346,1,71.2,2|2,1:0|0:0,0:0:0:0:
0,239,100794,6,0,B|75:207|71:272|156:233,1,142.4,2|0,1:0|1:0,0:0:0:0:
261,138,101273,1,2,0:0:0:0:
138,75,101432,2,0,P|117:114|118:156,1,71.2,0|2,1:0|3:0,0:0:0:0:
129,159,101672,1,0,3:0:0:0:
129,159,101751,1,6,1:2:0:0:
365,285,102071,5,6,1:2:0:0:
423,120,102230,2,0,P|465:113|512:106,1,71.2,8|0,0:0|0:0,0:0:0:0:
439,227,102549,5,2,1:0:0:0:
346,39,102709,2,0,P|333:118|320:192,1,142.4,10|8,0:0|0:0,0:0:0:0:
226,298,103188,6,0,P|279:283|311:275,1,71.2,2|0,1:0|0:0,0:0:0:0:
139,214,103507,2,0,P|86:199|54:191,1,71.2,10|0,0:0|1:0,0:0:0:0:
29,27,103826,1,2,0:0:0:0:
175,109,103985,1,10,0:0:0:0:
175,109,104145,1,0,1:0:0:0:
28,180,104305,1,2,3:0:0:0:
298,323,104624,5,6,1:2:0:0:
190,243,104783,1,8,0:0:0:0:
350,196,104943,1,8,0:0:0:0:
298,323,105102,1,0,1:0:0:0:
297,125,105262,5,8,0:0:0:0:
424,277,105422,1,0,1:0:0:0:
398,81,105581,1,8,0:3:0:0:
337,244,105741,1,8,0:0:0:0:
337,244,105821,1,8,0:0:0:0:
337,244,105900,5,12,0:2:0:0:
506,149,106060,1,0,1:0:0:0:
297,104,106220,1,0,1:0:0:0:
511,263,106379,2,0,P|498:322|490:346,1,71.2,10|0,0:0|3:0,0:0:0:0:
301,273,106698,2,0,P|325:231|404:270,1,142.4,10|0,0:0|3:0,0:0:0:0:
324,353,107177,6,0,B|235:373|269:305|155:332,1,160.199995111084,4|10,1:2|0:0,0:0:0:0:
73,363,107656,1,0,0:0:0:0:
63,206,107815,2,0,P|80:248|91:281,1,80.0999975555421,2|0,1:0|0:0,0:0:0:0:
108,118,108134,2,0,P|69:97|20:93,1,80.0999975555421,10|0,0:0|0:0,0:0:0:0:
221,186,108454,6,0,P|229:97|235:53,1,120.149996333313,2|0,1:0|0:0,0:0:0:0:
236,55,108773,1,10,0:0:0:0:
423,78,108932,2,0,P|373:91|348:116,1,80.0999975555421,2|0,0:0|1:0,0:0:0:0:
409,272,109251,1,0,3:0:0:0:
409,272,109331,1,0,3:0:0:0:
409,272,109411,2,0,P|412:227|417:188,1,80.0999975555421,10|2,0:0|0:0,0:0:0:0:
228,308,109730,6,0,P|255:222|333:232,1,160.199995111084,2|10,1:0|0:0,0:0:0:0:
236,55,110209,2,0,L|225:147,1,80.0999975555421,2|0,0:0|1:0,0:0:0:0:
140,87,110528,1,2,0:0:0:0:
327,105,110688,2,0,L|426:113,1,80.0999975555421,8|2,0:0|0:0,0:0:0:0:
215,219,111007,5,2,1:0:0:0:
337,121,111166,1,0,1:0:0:0:
309,325,111326,1,10,0:0:0:0:
201,211,111485,6,0,L|155:202,2,40.049998777771,8|8|0,0:3|0:3|1:0,0:0:0:0:
316,335,111805,2,0,L|355:343,2,40.049998777771,4|4|0,0:3|0:3|1:0,0:0:0:0:
344,133,112124,1,4,0:3:0:0:
211,309,112283,6,0,P|164:321|126:335,1,80.0999975555421,4|0,1:2|1:0,0:0:0:0:
46,156,112602,2,0,P|89:166|126:178,1,80.0999975555421,10|0,0:0|0:0,0:0:0:0:
274,242,112922,1,2,1:0:0:0:
186,89,113081,1,0,1:0:0:0:
343,132,113241,2,0,P|345:88|351:47,1,80.0999975555421,8|0,0:0|0:0,0:0:0:0:
444,209,113560,5,2,1:0:0:0:
259,152,113720,1,0,1:0:0:0:
455,70,113879,1,10,0:0:0:0:
265,238,114039,2,0,P|229:191|113:196,1,160.199995111084,6|2,1:2|3:0,0:0:0:0:
126,190,114438,1,0,3:0:0:0:
121,199,114517,1,10,0:0:0:0:
72,46,114677,6,0,L|83:95,2,40.049998777771,0|0|8,3:0|3:0|0:0,0:0:0:0:
24,188,114996,1,0,1:0:0:0:
188,82,115156,1,8,0:0:0:0:
169,312,115315,6,0,L|159:263,1,40.049998777771,0|0,1:0|1:0,0:0:0:0:
136,170,115475,1,8,0:0:0:0:
301,331,115634,6,0,L|305:291,1,40.049998777771,0|0,1:0|1:0,0:0:0:0:
332,117,115794,1,8,0:0:0:0:
218,209,115954,1,0,1:0:0:0:
351,206,116113,5,8,0:0:0:0:
188,82,116273,1,0,1:0:0:0:
414,16,116432,1,12,0:2:0:0:
270,143,116592,5,8,0:3:0:0:
270,143,116672,1,8,0:3:0:0:
270,143,116751,1,8,1:3:0:0:
318,0,116911,1,4,0:3:0:0:
318,0,116991,1,4,0:3:0:0:
318,0,117071,1,4,1:3:0:0:
188,82,117230,1,4,0:3:0:0:
401,243,117390,5,4,1:2:0:0:
343,86,117549,1,0,0:0:0:0:
268,240,117709,1,8,0:0:0:0:
353,173,117868,1,0,1:0:0:0:
190,113,118028,1,8,0:0:0:0:
270,143,118188,1,0,1:0:0:0:
155,222,118347,1,8,0:0:0:0:
111,84,118507,5,0,1:0:0:0:
111,84,118587,1,0,1:0:0:0:
111,84,118666,1,8,0:0:0:0:
246,234,118826,1,0,1:0:0:0:
226,36,118985,1,0,1:0:0:0:
155,222,119145,2,0,B|68:241|95:185|-12:206,1,160.199995111084,8|10,0:0|0:3,0:0:0:0:
2,213,119544,1,4,0:3:0:0:
5,223,119624,2,0,L|21:312,1,80.0999975555421,10|10,0:0|0:3,0:0:0:0:
36,378,119863,1,4,0:3:0:0:
36,378,119943,5,6,1:2:0:0:
210,289,120102,1,0,1:0:0:0:
83,175,120262,1,10,0:0:0:0:
157,364,120422,5,10,0:0:0:0:
157,364,120501,1,8,0:0:0:0:
157,364,120581,1,8,0:0:0:0:
295,214,120741,1,2,1:0:0:0:
121,272,120900,1,8,0:0:0:0:
315,338,121060,6,0,B|409:321|383:381|481:363,1,160.199995111084,6|0,1:2|1:0,0:0:0:0:
512,172,121539,1,10,0:0:0:0:
451,269,121698,1,0,3:0:0:0:
451,269,121778,1,0,3:0:0:0:
451,269,121858,1,2,1:0:0:0:
314,189,122017,6,0,L|319:149,1,40.049998777771,2|0,3:0|3:0,0:0:0:0:
469,97,122177,2,0,L|463:57,1,40.049998777771,10|8,0:0|0:0,0:0:0:0:
287,7,122337,2,0,P|308:7|330:12,1,40.049998777771,8|8,0:0|0:0,0:0:0:0:
226,111,122496,6,0,B|151:121|176:78|77:97,1,133.500005092621,0|0,1:2|0:0,0:0:0:0:
54,208,123134,2,0,P|104:202|125:170,1,89,0|2,0:0|0:0,0:0:0:0:
124,172,123613,6,0,L|137:315,1,133.5,2|0,0:0|0:0,0:0:0:0:
196,354,124251,1,2,0:0:0:0:
273,352,124411,1,2,0:0:0:0:
330,300,124571,1,2,0:0:0:0:
310,226,124730,2,0,L|265:221,1,44.5,2|0,0:0|0:0,0:0:0:0:
329,106,125049,6,0,P|382:112|421:188,1,133.5,2|0,0:0|0:0,0:0:0:0:
240,140,125688,2,0,P|246:96|253:47,1,89,2|0,0:0|0:0,0:0:0:0:
252,51,126166,1,2,0:0:0:0:
41,52,126326,6,0,P|26:100|73:141,1,115.699994703675,8|0,1:2|0:0,0:0:0:0:
158,106,126565,6,0,B|150:151|150:151|153:180|153:180|145:233,1,115.699994703675,8|0,1:3|0:0,0:0:0:0:
87,291,126805,6,0,L|24:280,1,57.8499973518373,6|0,1:3|0:0,0:0:0:0:
201,346,126964,6,0,L|257:339,3,44.5,10|8|10|8,0:0|0:0|0:0|0:0,0:0:0:0:
324,340,127283,1,10,0:3:0:0:
342,312,127362,1,8,0:3:0:0:
347,279,127442,1,6,0:3:0:0:
339,247,127522,1,4,0:3:0:0:
319,221,127602,6,0,L|327:128,1,89,4|0,1:2|0:0,0:0:0:0:
271,50,127922,1,2,1:0:0:0:
417,132,128081,1,0,0:0:0:0:
230,186,128241,2,0,B|168:201|168:201|135:236|135:236|66:252,1,178,2|8,1:0|0:0,0:0:0:0:
41,78,128720,1,0,3:0:0:0:
41,78,128799,1,0,3:0:0:0:
41,78,128879,6,0,P|62:119|78:164,1,89,0|0,1:0|0:0,0:0:0:0:
198,13,129198,2,0,P|193:61|190:108,1,89,10|0,0:0|3:0,0:0:0:0:
190,101,129438,1,0,3:0:0:0:
190,101,129517,2,0,L|134:93,2,44.5,2|0|0,1:0|3:0|3:0,0:0:0:0:
417,132,129837,2,0,P|426:82|351:37,1,133.5,14|0,0:0|0:0,0:0:0:0:
304,85,130156,5,10,1:2:0:0:
309,129,130235,1,8,0:0:0:0:
313,173,130315,1,8,0:0:0:0:
319,217,130395,1,8,0:0:0:0:
325,261,130475,2,0,L|331:314,1,44.5,10|8,0:0|0:0,0:0:0:0:
454,237,130634,6,0,L|401:231,1,44.5,6|4,1:3|0:3,0:0:0:0:
197,203,130794,1,4,0:3:0:0:
153,199,130873,1,4,0:3:0:0:
116,175,130953,1,4,0:3:0:0:
94,136,131033,1,4,0:3:0:0:
93,92,131113,1,8,1:2:0:0:
112,53,131192,1,8,0:0:0:0:
148,27,131272,1,8,0:0:0:0:
191,21,131352,1,8,0:0:0:0:
233,35,131432,5,8,0:0:0:0:
268,60,131512,1,8,0:0:0:0:
312,67,131592,1,4,1:3:0:0:
353,52,131672,1,4,0:3:0:0:
378,16,131751,2,0,L|423:7,1,44.5,4|4,0:3|0:3,0:0:0:0:
286,147,131911,2,0,L|241:138,1,44.5,4|4,0:3|0:3,0:0:0:0:
439,199,132071,6,0,B|457:276|457:276|432:319,1,124.59999619751,10|0,1:2|0:0,0:0:0:0:
356,252,132310,6,0,B|281:240|308:276|234:266,1,124.59999619751,10|0,1:2|0:0,0:0:0:0:
138,243,132549,6,0,L|151:311,1,62.2999980987549,10|0,1:2|0:0,0:0:0:0:
150,145,132709,5,6,1:2:0:0:
33,261,132868,1,0,1:0:0:0:
50,69,133028,1,8,1:2:0:0:
121,227,133188,1,0,1:0:0:0:
237,73,133347,1,8,1:2:0:0:
64,156,133507,1,8,1:2:0:0:
234,266,133666,1,8,1:2:0:0:
144,10,133826,2,0,L|141:55,1,44.5,8|8,1:2|1:2,0:0:0:0:
242,160,133985,5,12,1:2:0:0:
286,165,134064,1,8,0:0:0:0:
330,170,134144,1,8,0:0:0:0:
374,175,134224,1,8,0:0:0:0:
418,180,134305,2,0,L|413:234,1,44.5,12|8,1:2|0:0,0:0:0:0:
228,353,134464,1,8,0:3:0:0:
228,353,134544,1,8,0:3:0:0:
228,353,134624,2,0,P|199:343|177:328,1,44.5,8|8,0:0|0:0,0:0:0:0:
50,124,134783,6,0,P|69:105|94:89,1,44.5,8|8,0:0|0:0,0:0:0:0:
216,149,134943,2,0,P|222:175|224:205,1,44.5,8|8,0:0|0:0,0:0:0:0:
112,281,135102,2,0,P|86:273|59:259,1,44.5,8|8,0:0|0:0,0:0:0:0:
136,181,135262,6,0,B|211:175|211:175|246:207|246:207|325:199,1,195.800005975342,6|8,1:2|0:0,0:0:0:0:
246,16,135741,1,0,0:0:0:0:
433,113,135900,2,0,P|385:102|336:93,1,97.900002987671,2|2,1:0|0:0,0:0:0:0:
463,231,136220,1,10,0:0:0:0:
508,53,136379,1,2,0:0:0:0:
352,196,136539,6,0,P|360:244|371:292,1,97.900002987671,2|0,1:0|0:0,0:0:0:0:
211,171,136858,2,0,P|203:123|192:75,1,97.900002987671,10|0,0:0|0:0,0:0:0:0:
79,310,137177,2,0,P|130:296|175:287,1,97.900002987671,2|0,1:0|0:0,0:0:0:0:
32,206,137496,1,10,0:0:0:0:
244,371,137656,1,0,3:0:0:0:
244,371,137736,1,0,3:0:0:0:
244,371,137815,6,0,P|340:348|323:254,1,195.800005975342,6|8,1:2|0:0,0:0:0:0:
471,176,138294,1,0,3:0:0:0:
471,176,138374,1,0,3:0:0:0:
471,176,138454,2,0,L|448:272,1,97.900002987671,0|0,1:0|0:0,0:0:0:0:
378,81,138773,1,8,0:0:0:0:
209,154,138932,6,0,P|239:185|318:176,1,97.900002987671,2|0,0:0|1:0,0:0:0:0:
399,38,139251,1,2,0:0:0:0:
228,65,139411,1,10,0:0:0:0:
376,169,139571,1,2,0:0:0:0:
218,266,139730,5,2,1:0:0:0:
308,106,139890,1,2,0:0:0:0:
356,296,140049,1,10,0:0:0:0:
209,154,140209,1,10,0:0:0:0:
209,154,140289,1,8,0:0:0:0:
209,154,140369,6,0,P|133:146|64:194,1,146.850004481506,2|0,1:0|0:0,0:0:0:0:
69,200,140688,2,0,P|76:252|78:298,1,97.900002987671,10|0,0:0|0:0,0:0:0:0:
271,384,141007,2,0,P|263:331|262:286,1,97.900002987671,2|0,1:0|0:0,0:0:0:0:
379,164,141326,1,10,0:0:0:0:
174,246,141486,1,0,0:0:0:0:
352,322,141645,6,0,P|428:314|497:362,1,146.850004481506,2|0,1:0|0:0,0:0:0:0:
500,363,141964,2,0,P|493:311|491:265,1,97.900002987671,10|0,0:0|0:0,0:0:0:0:
342,129,142283,2,0,P|335:180|333:227,1,97.900002987671,2|0,1:0|0:0,0:0:0:0:
439,56,142603,2,0,P|395:20|342:17,1,97.900002987671,10|0,0:0|0:0,0:0:0:0:
150,254,142922,5,6,1:2:0:0:
236,41,143081,2,0,L|243:92,1,48.9500014938355,0|0,3:0|3:0,0:0:0:0:
320,260,143241,2,0,P|325:190|240:226,1,173.549992055512,12|0,0:0|0:0,0:0:0:0:
239,215,143560,5,0,1:0:0:0:
82,23,143720,1,2,0:0:0:0:
122,272,143879,2,0,L|130:214,1,57.8499973518373,10|8,0:0|0:0,0:0:0:0:
158,98,144039,5,6,0:3:0:0:
158,98,144119,1,4,0:3:0:0:
158,98,144198,1,10,0:0:0:0:
31,328,144358,1,0,1:0:0:0:
31,328,144438,1,0,1:0:0:0:
31,328,144517,2,0,B|130:293|114:372|217:337,1,173.549992055512,14|0,0:0|0:0,0:0:0:0:
278,384,144837,5,12,1:2:0:0:
289,344,144916,1,8,0:0:0:0:
290,306,144996,1,8,0:0:0:0:
269,270,145076,1,8,0:0:0:0:
234,248,145156,2,0,L|164:259,1,57.8499973518373,8|8,0:0|0:0,0:0:0:0:
40,160,145315,2,0,L|100:151,1,57.8499973518373,8|8,0:0|0:0,0:0:0:0:
171,0,145475,6,0,B|219:37|219:37|194:174,1,195.800005975342,6|8,1:2|0:0,0:0:0:0:
358,265,145954,1,0,0:0:0:0:
412,103,146113,2,0,P|362:112|304:120,1,97.900002987671,2|2,1:0|0:0,0:0:0:0:
176,253,146432,1,10,0:0:0:0:
228,60,146592,1,2,0:0:0:0:
377,219,146751,6,0,P|389:266|399:314,1,97.900002987671,2|0,1:0|0:0,0:0:0:0:
512,149,147071,2,0,P|500:102|490:54,1,97.900002987671,10|0,0:0|0:0,0:0:0:0:
287,124,147390,2,0,P|335:132|383:139,1,97.900002987671,2|0,1:0|0:0,0:0:0:0:
245,2,147709,1,10,0:0:0:0:
212,223,147869,1,0,3:0:0:0:
212,223,147948,1,0,3:0:0:0:
212,223,148028,6,0,B|140:215|140:215|93:248|93:248|16:238,1,195.800005975342,2|8,1:2|0:0,0:0:0:0:
206,324,148507,1,0,3:0:0:0:
206,324,148587,1,0,3:0:0:0:
206,324,148666,1,0,1:0:0:0:
77,159,148826,1,0,0:0:0:0:
107,373,148986,1,8,0:0:0:0:
175,143,149145,6,0,P|230:86|296:115,1,146.850004481506,6|0,1:2|0:0,0:0:0:0:
301,119,149464,2,0,L|291:166,1,48.9500014938355,2|0,3:0|3:0,0:0:0:0:
391,260,149624,2,0,L|409:144,1,97.900002987671,10|2,0:0|0:0,0:0:0:0:
376,14,149943,1,6,1:2:0:0:
494,231,150103,1,2,0:0:0:0:
494,231,150182,1,8,0:0:0:0:
494,231,150262,1,10,0:0:0:0:
324,362,150422,1,10,0:3:0:0:
324,362,150501,1,8,0:3:0:0:
324,361,150581,6,0,P|244:341|180:330,1,146.850004481506,6|0,1:2|0:0,0:0:0:0:
153,328,150900,2,0,P|138:281|169:223,1,97.900002987671,10|0,0:0|0:0,0:0:0:0:
327,140,151220,1,2,1:0:0:0:
103,90,151379,1,8,0:0:0:0:
254,264,151539,2,0,P|246:216|237:168,1,97.900002987671,10|2,0:0|0:0,0:0:0:0:
447,93,151858,6,0,L|302:67,1,146.850004481506,2|0,1:0|0:0,0:0:0:0:
284,57,152177,2,0,P|237:33|178:62,1,97.900002987671,10|0,0:0|0:0,0:0:0:0:
50,192,152496,1,2,1:0:0:0:
232,143,152656,1,8,0:0:0:0:
91,0,152815,2,0,P|99:54|106:125,1,97.900002987671,10|8,0:0|0:0,0:0:0:0:
108,123,153055,1,8,0:0:0:0:
108,123,153134,5,6,1:2:0:0:
23,348,153294,1,0,1:0:0:0:
191,270,153454,2,0,P|126:215|46:240,1,173.549992055512,8|0,0:0|0:0,0:0:0:0:
41,251,153773,1,0,1:0:0:0:
249,166,153932,1,0,1:0:0:0:
135,354,154092,1,8,0:0:0:0:
20,155,154251,1,0,1:0:0:0:
15,133,154330,1,0,1:0:0:0:
11,110,154411,5,14,0:0:0:0:
191,270,154571,1,0,1:0:0:0:
310,51,154730,2,0,P|412:42|443:111,1,173.549992055512,12|0,0:0|0:0,0:0:0:0:
490,174,155049,5,6,1:3:0:0:
454,193,155129,1,4,1:3:0:0:
412,192,155209,1,8,1:3:0:0:
377,170,155289,1,8,1:3:0:0:
347,142,155368,2,0,L|282:158,1,57.8499973518373,8|8,0:0|0:0,0:0:0:0:
224,282,155528,2,0,L|159:298,1,57.8499973518373,8|8,0:0|0:0,0:0:0:0:
14,194,155688,6,0,P|44:138|131:132,1,140.174995722199,6|0,1:2|0:0,0:0:0:0:
127,130,156007,2,0,P|117:85|107:32,1,93.4499971481324,8|0,0:0|0:0,0:0:0:0:
290,155,156326,1,0,1:0:0:0:
326,10,156485,1,0,0:0:0:0:
205,190,156645,2,0,P|213:235|223:281,1,93.4499971481324,8|0,0:0|0:0,0:0:0:0:
467,139,156964,6,0,L|370:118,1,93.4499971481324,0|0,1:0|0:0,0:0:0:0:
230,63,157283,1,8,0:0:0:0:
413,11,157443,1,0,0:0:0:0:
307,173,157602,2,0,B|297:244|297:244|314:291|314:291|302:363,1,186.899994296265,2|8,1:0|0:0,0:0:0:0:
105,300,158081,1,0,3:0:0:0:
105,300,158161,1,0,3:0:0:0:
105,300,158241,6,0,P|94:247|183:226,1,140.174995722199,2|0,1:0|0:0,0:0:0:0:
177,219,158560,2,0,P|171:169|166:123,1,93.4499971481324,8|0,0:0|0:0,0:0:0:0:
397,148,158879,2,0,P|391:194|386:240,1,93.4499971481324,0|0,1:0|0:0,0:0:0:0:
292,45,159198,1,8,0:0:0:0:
307,173,159358,1,0,0:0:0:0:
166,126,159517,5,0,1:0:0:0:
392,54,159677,1,0,3:0:0:0:
392,54,159757,1,0,3:0:0:0:
392,54,159837,1,8,0:0:0:0:
264,249,159996,1,0,3:0:0:0:
199,26,160156,5,0,1:0:0:0:
395,180,160315,2,0,L|327:170,1,46.7249985740662,0|0,3:0|3:0,0:0:0:0:
157,135,160475,1,8,0:0:0:0:
296,21,160634,1,0,3:0:0:0:
261,261,160794,6,0,L|275:356,1,93.4499971481324,6|2,1:2|0:0,0:0:0:0:
263,128,161113,1,10,0:0:0:0:
150,258,161273,1,2,0:0:0:0:
350,291,161432,2,0,P|399:281|451:272,1,93.4499971481324,0|0,1:0|3:0,0:0:0:0:
441,273,161672,1,0,3:0:0:0:
441,273,161751,1,10,0:0:0:0:
348,173,161911,1,2,0:0:0:0:
493,76,162071,6,0,P|488:128|484:176,1,93.4499971481324,2|0,1:0|0:0,0:0:0:0:
263,128,162390,1,10,0:0:0:0:
397,42,162549,1,2,0:0:0:0:
264,215,162709,2,0,P|216:207|172:202,1,93.4499971481324,0|0,1:0|0:0,0:0:0:0:
18,29,163028,2,0,L|10:75,1,46.7249985740662,10|8,0:0|0:3,0:0:0:0:
173,124,163188,2,0,L|181:78,1,46.7249985740662,4|4,0:3|0:3,0:0:0:0:
93,85,163347,5,6,1:2:0:0:
264,215,163507,1,0,3:0:0:0:
264,215,163587,1,0,3:0:0:0:
264,215,163666,2,0,L|380:200,1,93.4499971481324,10|0,0:0|0:0,0:0:0:0:
151,289,163985,1,2,1:0:0:0:
283,363,164145,2,0,L|291:317,1,46.7249985740662,0|0,1:0|1:0,0:0:0:0:
135,206,164305,2,0,B|85:216|85:216|62:236|62:236|3:250,1,140.174995722199,14|0,0:0|0:0,0:0:0:0:
4,249,164624,5,2,1:0:0:0:
162,303,164783,1,2,1:0:0:0:
2,70,164943,2,0,P|12:113|25:174,1,93.4499971481324,14|0,0:0|0:0,0:0:0:0:
169,37,165262,5,12,0:0:0:0:
235,252,165422,1,8,0:3:0:0:
273,278,165501,1,8,0:3:0:0:
319,285,165581,1,4,0:3:0:0:
363,271,165661,1,4,0:3:0:0:
397,239,165741,2,0,L|382:182,1,46.7249985740662,0|0,1:0|1:0,0:0:0:0:
353,56,165900,1,0,1:0:0:0:
353,56,166220,6,0,B|294:71|294:71|266:102|266:102|186:123,1,173.549992055512,14|0,0:0|0:0,0:0:0:0:
197,120,166539,2,0,P|208:168|217:216,1,93.4499971481324,2|2,1:2|0:0,0:0:0:0:
172,306,166858,1,10,0:0:0:0:
99,144,167017,2,0,L|106:91,1,46.7249985740662,0|0,3:0|3:0,0:0:0:0:
205,22,167177,5,2,1:0:0:0:
205,22,167257,1,2,3:0:0:0:
205,22,167337,1,2,3:0:0:0:
405,171,167496,1,10,0:0:0:0:
197,120,167656,1,2,3:0:0:0:
197,120,167735,1,0,3:0:0:0:
197,120,167815,2,0,P|145:108|93:95,1,93.4499971481324,0|0,1:0|0:0,0:0:0:0:
345,8,168134,2,0,P|329:56|317:100,1,93.4499971481324,8|0,0:0|0:0,0:0:0:0:
465,275,168454,5,2,1:0:0:0:
412,82,168613,1,2,0:0:0:0:
285,238,168773,1,10,0:0:0:0:
493,178,168932,1,2,0:0:0:0:
317,97,169092,1,2,1:0:0:0:
375,317,169251,2,0,L|385:353,2,31.1499990493775,2|2|2,3:0|3:0|3:0,0:0:0:0:
371,306,169411,2,0,L|281:331,1,93.4499971481324,10|0,0:0|0:0,0:0:0:0:
124,201,169730,5,2,1:0:0:0:
285,238,169890,1,2,1:0:0:0:
125,99,170049,2,0,B|33:119,1,93.4499971481324,10|2,0:0|0:0,0:0:0:0:
23,122,170289,1,2,0:0:0:0:
13,125,170368,5,2,1:0:0:0:
146,3,170528,1,2,1:0:0:0:
252,151,170688,1,8,0:0:0:0:
298,152,170767,1,8,0:0:0:0:
340,134,170847,1,8,0:0:0:0:
372,100,170927,1,8,0:0:0:0:
385,55,171007,5,6,1:2:0:0:
282,233,171166,1,2,3:0:0:0:
272,43,171326,1,10,0:0:0:0:
412,175,171485,1,2,3:0:0:0:
472,7,171645,5,0,1:0:0:0:
340,134,171805,1,2,3:0:0:0:
498,230,171964,5,10,0:0:0:0:
385,55,172124,1,2,3:0:0:0:
360,290,172283,5,2,1:0:0:0:
469,109,172443,1,0,1:0:0:0:
282,233,172602,6,0,B|178:220,1,93.4499971481324,14|0,0:0|1:0,0:0:0:0:
135,166,172842,1,0,1:0:0:0:
135,166,172922,6,0,P|81:177|70:231,1,115.699994703675,10|0,0:0|0:0,0:0:0:0:
68,325,173162,6,0,B|115:318|115:318|143:327|143:327|181:322,1,115.699994703675,6|0,1:2|0:0,0:0:0:0:
274,316,173400,6,0,L|268:374,1,57.8499973518373,10|0,0:3|0:0,0:0:0:0:
309,197,173560,6,0,B|415:180|376:256|487:245,1,186.899994296265,6|8,1:2|0:0,0:0:0:0:
410,110,174039,1,4,0:3:0:0:
283,299,174198,2,0,L|186:283,1,93.4499971481324,8|4,1:3|1:3,0:0:0:0:
106,176,174517,1,8,0:0:0:0:
282,54,174677,2,0,L|289:100,1,46.7249985740662,0|0,1:0|1:0,0:0:0:0:
230,205,174837,6,0,P|167:164|92:187,1,140.174995722199,8|0,1:3|0:0,0:0:0:0:
97,188,175156,1,8,0:0:0:0:
284,299,175315,1,8,1:3:0:0:
318,295,175394,1,8,1:3:0:0:
353,292,175474,1,4,1:3:0:0:
388,288,175554,1,4,1:3:0:0:
423,285,175634,1,0,1:0:0:0:
282,116,175794,1,8,0:0:0:0:
185,320,175954,2,0,L|183:376,1,46.7249985740662,0|0,1:0|1:0,0:0:0:0:
87,202,176113,5,12,0:0:0:0:
284,299,176273,1,0,1:0:0:0:
194,81,176432,1,0,1:0:0:0:
178,232,176592,5,12,0:0:0:0:
363,70,176751,1,0,1:0:0:0:
178,232,176911,1,0,1:0:0:0:
388,288,177071,5,12,0:0:0:0:
273,49,177230,1,0,1:0:0:0:
271,212,177390,5,0,1:0:0:0:
460,40,177549,1,12,0:0:0:0:
194,81,177709,2,0,L|101:62,1,93.4499971481324,12|0,0:0|3:0,0:0:0:0:
18,245,178028,5,8,0:0:0:0:
43,207,178107,1,8,0:0:0:0:
84,185,178187,1,8,0:0:0:0:
130,184,178267,1,8,0:0:0:0:
171,205,178347,2,0,L|226:197,1,46.7249985740662,8|8,0:0|0:0,0:0:0:0:
296,290,178507,2,0,L|341:281,1,46.7249985740662,8|8,0:0|0:0,0:0:0:0:
449,192,178666,5,4,1:2:0:0:
475,81,188081,6,0,B|425:69|425:69|388:88|388:88|331:74,1,142.4,8|8,0:0|1:3,0:0:0:0:
236,187,188560,1,4,0:3:0:0:
332,162,188720,1,4,0:3:0:0:
264,0,188879,6,0,P|250:64|244:104,1,89,14|0,0:2|1:0,0:0:0:0:
222,280,189198,1,8,0:0:0:0:
140,121,189358,1,0,0:0:0:0:
287,221,189517,5,8,0:0:0:0:
123,304,189677,1,0,1:0:0:0:
235,365,189837,1,2,1:0:0:0:
119,216,189996,6,0,P|61:227|13:241,1,89,8|2,0:0|1:0,0:0:0:0:
234,137,190315,1,8,0:0:0:0:
151,308,190475,1,10,0:0:0:0:
91,123,190634,1,0,1:0:0:0:
262,269,190794,2,0,P|273:324|278:358,1,89,10|0,0:0|0:0,0:0:0:0:
371,172,191113,2,0,P|360:117|355:83,1,89,10|0,0:0|0:0,0:0:0:0:
370,54,191352,5,0,1:0:0:0:
370,54,191432,1,14,0:0:0:0:
464,226,191592,1,0,1:0:0:0:
288,175,191751,1,0,1:0:0:0:
499,148,191911,5,12,0:0:0:0:
413,333,192071,1,2,1:0:0:0:
371,170,192230,1,0,1:0:0:0:
512,336,192390,1,8,0:0:0:0:
313,259,192549,6,0,B|215:225|226:301|132:265,1,178,6|8,1:2|0:0,0:0:0:0:
0,191,193028,1,8,0:0:0:0:
162,107,193188,1,0,1:0:0:0:
162,107,193267,1,0,1:0:0:0:
162,107,193347,2,0,L|174:164,1,44.5,4|4,0:3|0:3,0:0:0:0:
67,51,193507,1,8,0:3:0:0:
98,19,193586,1,8,0:3:0:0:
139,14,193666,1,8,0:0:0:0:
183,14,193746,1,8,0:0:0:0:
220,33,193826,1,8,0:0:0:0:
260,54,193906,1,8,0:0:0:0:
303,47,193985,6,0,P|364:31|403:25,1,89,4|0,1:2|0:0,0:0:0:0:
493,222,194305,5,8,0:0:0:0:
303,138,194464,1,0,1:0:0:0:
489,123,194624,5,8,0:0:0:0:
321,271,194783,1,0,1:0:0:0:
303,47,194943,5,8,0:0:0:0:
456,202,195102,1,0,1:0:0:0:
206,172,195262,5,8,0:0:0:0:
396,100,195422,1,0,1:0:0:0:
174,70,195581,5,8,0:0:0:0:
350,190,195740,1,0,1:0:0:0:
241,2,195900,5,8,0:0:0:0:
176,208,196060,1,0,1:0:0:0:
342,56,196220,5,8,0:0:0:0:
119,14,196379,1,0,1:0:0:0:
119,14,196459,1,0,1:0:0:0:
119,14,196539,2,0,P|134:79|144:122,1,89,12|0,0:0|0:0,0:0:0:0:
186,286,196858,5,0,1:0:0:0:
98,247,197017,1,0,1:0:0:0:
236,216,197178,1,0,1:0:0:0:
158,361,197337,1,0,1:0:0:0:
171,169,197496,5,8,1:2:0:0:
308,289,197656,1,8,1:2:0:0:
109,249,197815,1,8,1:2:0:0:
350,196,197975,1,8,1:2:0:0:
299,384,198134,5,8,1:2:0:0:
242,139,198294,1,8,1:2:0:0:
150,357,198454,1,8,1:2:0:0:
410,253,198613,1,8,1:2:0:0:
148,152,198773,5,8,1:2:0:0:
434,336,198932,1,12,0:2:0:0:
434,336,201645,6,0,B|516:278|461:167|380:161|327:204|324:261|324:261|268:237|268:237|217:304|150:280,1,498.4,4|0,1:2|0:0,0:0:0:0:
4,215,202922,6,0,B|94:225|65:163|162:177,1,160.199995111084,4|0,1:2|0:0,0:0:0:0:
239,63,203400,2,0,P|177:52|135:48,1,80.0999975555421,8|0,1:3|0:0,0:0:0:0:
305,145,203720,1,8,0:3:0:0:
305,145,203879,2,0,P|338:102|340:62,1,80.0999975555421,4|0,0:3|1:0,0:0:0:0:
232,206,204198,5,0,1:0:0:0:
232,206,204358,1,0,1:0:0:0:
387,296,204517,2,0,P|460:277|492:267,1,80.0999975555421,12|0,0:0|0:0,0:0:0:0:
276,367,204837,5,0,1:0:0:0:
276,367,204996,1,0,1:0:0:0:
406,198,205156,1,12,0:0:0:0:
205,284,205315,1,2,1:0:0:0:
205,284,205395,1,0,1:0:0:0:
205,284,205475,6,0,P|146:270|107:263,1,80.0999975555421,12|2,0:0|1:0,0:0:0:0:
11,141,205794,2,0,P|46:108|122:117,1,120.149996333313,14|0,0:0|0:0,0:0:0:0:
141,141,206113,1,0,1:0:0:0:
172,165,206193,1,0,1:0:0:0:
212,163,206273,1,8,0:0:0:0:
245,141,206352,1,8,0:0:0:0:
268,101,206432,2,0,L|367:84,1,57.8499973518373,8|8,0:0|0:0,0:0:0:0:
445,200,206592,2,0,L|387:209,1,57.8499973518373,8|8,0:0|0:0,0:0:0:0:
205,284,206751,6,0,B|151:271|151:271|116:282|116:282|46:266,1,146.850004481506,6|0,1:2|0:0,0:0:0:0:
55,275,207071,2,0,P|45:215|33:157,1,97.900002987671,10|0,0:0|0:0,0:0:0:0:
304,255,207390,2,0,P|294:303|286:351,1,97.900002987671,2|0,1:0|0:0,0:0:0:0:
212,163,207709,1,10,0:0:0:0:
387,208,207868,1,0,0:0:0:0:
194,66,208028,6,0,P|203:114|211:162,1,97.900002987671,2|0,1:0|0:0,0:0:0:0:
453,275,208347,2,0,P|484:210|457:144,1,146.850004481506,10|0,0:0|0:0,0:0:0:0:
447,135,208666,2,0,L|350:118,1,97.900002987671,2|0,1:0|0:0,0:0:0:0:
115,238,208985,2,0,L|212:255,1,97.900002987671,10|0,0:0|0:0,0:0:0:0:
373,323,209305,5,2,1:0:0:0:
231,176,209464,1,0,0:0:0:0:
349,13,209624,2,0,B|375:65|375:65|351:117,1,115.699994703675,12|0,0:0|3:0,0:0:0:0:
350,117,209863,1,0,3:0:0:0:
350,117,209943,1,0,1:0:0:0:
210,17,210102,1,2,3:0:0:0:
210,17,210182,1,0,3:0:0:0:
210,17,210262,1,14,0:0:0:0:
320,203,210422,1,2,1:0:0:0:
144,156,210581,5,10,0:0:0:0:
370,105,210741,1,0,1:0:0:0:
222,334,210900,5,14,0:0:0:0:
271,96,211060,1,0,1:0:0:0:
426,298,211220,5,8,0:0:0:0:
396,259,211299,1,8,0:0:0:0:
352,238,211379,1,8,0:0:0:0:
304,239,211459,1,8,0:0:0:0:
261,262,211539,2,0,L|191:250,1,48.9500014938355,8|8,0:0|0:3,0:0:0:0:
97,168,211698,2,0,L|145:156,1,48.9500014938355,4|4,0:3|0:3,0:0:0:0:
361,33,211858,6,0,B|247:5|290:83|175:60,1,195.800005975342,6|8,1:2|0:0,0:0:0:0:
83,18,212337,1,0,0:0:0:0:
26,234,212496,2,0,P|17:185|8:137,1,97.900002987671,2|0,1:0|0:0,0:0:0:0:
230,272,212815,1,10,0:0:0:0:
97,168,212975,1,0,0:0:0:0:
322,141,213134,6,0,L|418:159,1,97.900002987671,2|0,1:0|0:0,0:0:0:0:
243,369,213454,2,0,P|237:320|229:271,1,97.900002987671,10|0,0:0|3:0,0:0:0:0:
230,272,213693,1,0,3:0:0:0:
230,272,213773,1,2,1:0:0:0:
397,321,213932,1,0,0:0:0:0:
249,188,214092,2,0,B|198:180|198:180|157:192|157:192|93:181,1,146.850004481506,10|0,0:0|0:0,0:0:0:0:
42,98,214411,6,0,B|73:49|126:54|126:54|164:96|213:82,1,195.800005975342,2|8,1:0|0:0,0:0:0:0:
370,22,214890,1,0,3:0:0:0:
370,22,214970,1,0,3:0:0:0:
370,22,215049,1,0,1:0:0:0:
263,197,215209,1,0,0:0:0:0:
193,7,215368,1,8,0:0:0:0:
363,188,215528,6,0,P|429:184|460:109,1,146.850004481506,2|0,0:0|0:0,0:0:0:0:
458,104,215847,2,0,L|397:89,1,48.9500014938355,2|0,3:0|3:0,0:0:0:0:
263,197,216007,2,0,P|271:253|279:305,1,97.900002987671,10|0,0:0|0:0,0:0:0:0:
295,99,216326,1,2,1:0:0:0:
151,227,216485,1,0,0:0:0:0:
363,188,216645,1,10,0:0:0:0:
188,68,216805,2,0,L|197:119,1,48.9500014938355,10|8,0:0|0:0,0:0:0:0:
151,227,216964,6,0,P|105:149|10:179,1,195.800005975342,6|8,1:2|0:0,0:0:0:0:
125,323,217443,1,0,3:0:0:0:
125,323,217523,1,0,3:0:0:0:
125,323,217602,2,0,P|185:310|237:302,1,97.900002987671,0|2,1:0|0:0,0:0:0:0:
384,318,217922,1,10,0:0:0:0:
252,216,218081,1,2,0:0:0:0:
382,92,218241,6,0,P|370:147|360:200,1,97.900002987671,2|0,1:0|0:0,0:0:0:0:
158,39,218560,2,0,L|254:23,1,97.900002987671,10|0,0:0|3:0,0:0:0:0:
254,23,218799,1,0,3:0:0:0:
254,23,218879,1,2,1:0:0:0:
160,210,219039,1,0,0:0:0:0:
35,23,219198,2,0,P|47:95|60:167,1,146.850004481506,10|0,0:0|0:0,0:0:0:0:
59,253,219517,5,4,1:2:0:0:
255,160,219677,1,0,0:0:0:0:
176,371,219837,6,0,B|142:321|142:321|161:201,1,173.549992055512,8|0,0:0|0:0,0:0:0:0:
255,160,220156,6,0,L|271:274,1,115.699994703675,2|0,1:0|0:0,0:0:0:0:
498,28,220475,6,0,B|412:43|451:112|365:132,1,173.549992055512,14|0,0:0|3:0,0:0:0:0:
300,76,220794,5,12,0:0:0:0:
447,211,220954,1,8,0:0:0:0:
447,211,221033,1,8,0:0:0:0:
447,211,221113,1,8,0:3:0:0:
255,156,221273,5,8,0:3:0:0:
255,156,221352,1,8,0:3:0:0:
255,156,221432,2,0,L|195:168,1,48.9500014938355,4|4,0:3|0:3,0:0:0:0:
450,37,221592,2,0,L|510:25,1,48.9500014938355,0|0,1:0|1:0,0:0:0:0:
346,283,221751,6,0,L|358:154,1,124.59999619751,12|0,0:0|0:0,0:0:0:0:
367,84,221991,1,0,1:0:0:0:
367,84,222071,5,4,1:2:0:0:
187,25,222230,5,8,1:2:0:0:
138,43,222309,1,8,0:2:0:0:
111,89,222389,1,8,0:2:0:0:
120,140,222469,1,8,0:2:0:0:
159,175,222549,2,0,L|219:163,1,53.3999983703614,8|8,0:0|0:0,0:0:0:0:
357,158,222709,5,4,1:3:0:0:
354,189,222788,1,4,0:3:0:0:
351,220,222868,1,4,0:3:0:0:
348,251,222948,1,4,0:3:0:0:
346,283,223028,2,0,L|341:338,1,53.3999983703614,4|4,0:3|0:3,0:0:0:0:
216,217,223188,2,0,L|211:163,1,53.3999983703614,4|4,0:3|0:3,0:0:0:0:
274,49,223347,5,8,1:3:0:0:
186,292,223507,1,4,0:3:0:0:
145,308,223586,1,4,0:3:0:0:
101,305,223666,1,8,0:0:0:0:
62,283,223746,1,8,0:0:0:0:
37,248,223826,1,8,0:0:0:0:
29,204,223905,1,8,0:0:0:0:
41,161,223985,6,0,L|51:105,1,53.3999983703614,8|8,0:0|0:0,0:0:0:0:
154,22,224145,2,0,L|163:74,1,53.3999983703614,8|8,0:0|0:0,0:0:0:0:
289,189,224305,1,8,0:3:0:0:
291,175,224384,1,8,0:3:0:0:
293,162,224464,1,4,0:3:0:0:
296,149,224544,1,4,0:3:0:0:
298,136,224624,5,4,1:2:0:0:
128,223,224783,1,0,1:0:0:0:
274,278,224943,1,0,1:0:0:0:
163,74,225102,1,0,1:0:0:0:
415,220,225262,5,8,1:2:0:0:
181,159,225422,1,8,1:2:0:0:
407,67,225581,1,8,1:2:0:0:
274,278,225741,1,8,1:2:0:0:
266,23,225900,5,12,0:0:0:0:
415,220,226060,1,0,1:0:0:0:
157,154,226220,6,0,B|29:123|29:123|65:163,1,186.899994296265,12|0,0:0|0:0,0:0:0:0:
125,245,226539,5,8,0:0:0:0:
177,245,226618,1,8,0:0:0:0:
222,217,226698,1,8,0:0:0:0:
246,170,226778,1,8,0:0:0:0:
242,118,226858,2,0,L|234:60,1,53.3999983703614,8|8,0:0|0:0,0:0:0:0:
355,275,227017,2,0,L|363:327,1,53.3999983703614,8|8,0:0|0:0,0:0:0:0:
501,155,227177,6,0,B|417:124|425:193|341:167,1,160.199995111084,6|0,1:2|0:0,0:0:0:0:
340,161,227496,2,0,P|359:69|368:36,1,106.799996740723,10|0,0:0|0:0,0:0:0:0:
234,246,227815,1,2,1:0:0:0:
234,246,227895,1,0,1:0:0:0:
234,246,227975,1,0,1:0:0:0:
118,130,228134,2,0,P|182:114|228:104,1,106.799996740723,10|0,0:0|0:0,0:0:0:0:
110,259,228454,6,0,B|194:228|186:297|270:271,1,160.199995111084,6|0,1:2|0:0,0:0:0:0:
277,270,228773,2,0,P|258:362|249:395,1,106.799996740723,10|0,0:0|1:0,0:0:0:0:
378,202,229092,1,8,1:3:0:0:
426,348,229251,1,4,0:3:0:0:
278,167,229411,2,0,P|313:118|433:148,1,160.199995111084,10|0,0:0|0:0,0:0:0:0:
411,130,229730,6,0,P|453:146|527:163,1,106.799996740723,6|0,0:0|0:0,0:0:0:0:
307,0,230049,2,0,B|284:49|284:49|300:104,1,106.799996740723,12|0,0:0|0:0,0:0:0:0:
377,307,230368,1,2,1:0:0:0:
214,183,230528,1,2,0:0:0:0:
434,89,230688,5,14,0:0:0:0:
291,271,230847,1,2,0:0:0:0:
302,20,231007,5,10,1:2:0:0:
417,240,231166,1,4,0:3:0:0:
434,266,231246,1,4,0:3:0:0:
435,298,231326,1,10,1:3:0:0:
419,326,231406,1,8,0:3:0:0:
393,344,231485,2,0,L|323:332,1,53.3999983703614,8|8,0:0|0:0,0:0:0:0:
293,233,231645,5,8,1:2:0:0:
245,207,231725,1,8,0:0:0:0:
191,210,231805,1,8,0:0:0:0:
150,243,231884,1,8,0:0:0:0:
104,271,231964,1,8,1:2:0:0:
50,264,232044,1,8,0:0:0:0:
8,229,232124,1,8,0:0:0:0:
0,175,232204,1,8,0:0:0:0:
28,130,232283,6,0,B|100:112|100:112|156:137|156:137|254:112,1,213.599993481446,6|8,1:2|0:0,0:0:0:0:
423,4,232762,1,0,0:0:0:0:
372,188,232922,2,0,B|342:144|342:144|347:83,1,106.799996740723,2|2,1:0|0:0,0:0:0:0:
506,210,233241,1,10,0:0:0:0:
326,288,233400,1,2,0:0:0:0:
346,90,233560,6,0,P|399:104|466:118,1,106.799996740723,2|0,1:0|0:0,0:0:0:0:
229,190,233879,2,0,P|176:201|125:214,1,106.799996740723,10|0,0:0|0:0,0:0:0:0:
306,372,234198,2,0,P|333:315|315:260,1,106.799996740723,2|0,1:0|0:0,0:0:0:0:
219,96,234517,1,10,0:0:0:0:
83,298,234677,5,0,3:0:0:0:
83,298,234757,1,0,3:0:0:0:
83,298,234837,2,0,L|204:318,1,106.799996740723,2|0,1:0|0:0,0:0:0:0:
340,152,235156,1,8,0:0:0:0:
286,362,235315,1,0,0:0:0:0:
165,173,235475,1,0,1:0:0:0:
367,240,235634,1,0,1:0:0:0:
220,294,235794,1,8,0:0:0:0:
311,32,235954,6,0,B|332:83|332:83|318:136,1,106.799996740723,6|0,0:2|1:0,0:0:0:0:
128,250,236273,1,2,0:0:0:0:
238,82,236432,1,10,0:0:0:0:
317,288,236592,1,10,0:0:0:0:
317,288,236672,1,8,0:0:0:0:
317,288,236751,1,10,0:0:0:0:
144,173,236911,1,10,0:3:0:0:
144,173,236991,1,8,0:3:0:0:
144,173,237071,1,10,0:3:0:0:
351,66,237230,6,0,L|341:129,1,53.3999983703614,6|4,0:3|0:3,0:0:0:0:
428,194,237390,6,0,B|399:155|399:155|276:181,1,160.199995111084,6|0,1:2|0:0,0:0:0:0:
281,182,237709,2,0,P|295:240|311:293,1,106.799996740723,10|0,0:0|0:0,0:0:0:0:
104,206,238029,2,0,P|140:158|213:155,1,106.799996740723,2|0,1:0|0:0,0:0:0:0:
182,308,238347,1,10,0:0:0:0:
17,210,238507,1,2,0:0:0:0:
132,372,238666,6,0,P|211:383|269:314,1,160.199995111084,2|0,1:0|0:0,0:0:0:0:
270,320,238985,2,0,B|246:261|233:208,1,106.799996740723,10|0,0:0|0:0,0:0:0:0:
405,94,239305,2,0,B|411:147|411:147|372:195,1,106.799996740723,2|0,1:0|0:0,0:0:0:0:
321,13,239624,1,10,0:0:0:0:
505,92,239783,1,0,0:0:0:0:
301,122,239943,6,0,B|179:78|209:177|79:123,1,213.599993481446,6|8,1:2|0:0,0:0:0:0:
262,236,240422,1,0,3:0:0:0:
262,236,240501,1,0,3:0:0:0:
262,236,240581,1,2,1:0:0:0:
141,42,240741,1,2,0:0:0:0:
151,263,240900,2,0,P|161:322|171:377,1,106.799996740723,10|0,0:0|0:0,0:0:0:0:
48,213,241220,5,6,1:2:0:0:
250,248,241379,1,0,0:0:0:0:
85,344,241539,1,8,0:0:0:0:
184,162,241698,1,2,1:0:0:0:
184,162,241778,1,0,1:0:0:0:
184,162,241858,5,10,0:0:0:0:
321,262,242017,1,8,1:3:0:0:
188,304,242177,1,8,0:3:0:0:
277,178,242337,1,6,0:3:0:0:
373,340,242496,6,0,B|358:253|430:273|414:168,1,178,6|2,1:2|0:0,0:0:0:0:
368,20,243454,1,2,0:0:0:0:
286,129,243773,2,0,P|243:152|142:80,1,178,2|2,0:0|0:0,0:0:0:0:
66,25,244571,2,0,P|50:73|40:122,1,89,2|0,0:0|0:0,0:0:0:0:
68,249,245049,6,0,P|111:256|183:203,1,124.59999619751,2|0,0:0|3:0,0:0:0:0:
0,195,245528,1,0,0:0:0:0:
211,316,245688,6,0,P|242:292|269:219,1,106.799996740723,2|0,0:0|3:0,0:0:0:0:
129,346,246166,1,2,0:0:0:0:
354,272,246326,6,0,P|357:211|344:173,1,89,2|0,0:0|3:0,0:0:0:0:
310,350,246804,1,8,0:0:0:0:
425,297,246964,5,8,0:0:0:0:
227,242,247124,1,8,1:3:0:0:
416,172,247283,5,8,0:3:0:0:
307,306,247443,1,4,0:3:0:0:
279,163,247603,6,0,P|232:149|162:138,1,89,4|0,1:2|1:0,0:0:0:0:
75,275,247922,2,0,P|118:266|161:253,1,89,0|0,1:2|1:0,0:0:0:0:
117,5,248242,5,0,1:0:0:0:
91,140,248401,1,0,1:0:0:0:
216,30,248561,1,0,1:0:0:0:
192,141,248720,1,0,1:0:0:0:
343,228,248880,5,8,1:2:0:0:
296,71,249039,1,8,1:2:0:0:
238,248,249199,1,8,1:2:0:0:
420,186,249359,1,8,1:2:0:0:
223,146,249518,5,8,1:2:0:0:
435,284,249678,1,8,1:2:0:0:
204,331,249837,5,8,1:2:0:0:
362,127,249997,1,8,1:2:0:0:
136,30,250156,5,12,1:2:0:0:
105,62,250236,1,0,1:2:0:0:
96,105,250316,1,0,1:2:0:0:
107,148,250396,1,0,1:2:0:0:
139,175,250476,2,0,L|190:164,3,44.5,8|0|0|0,1:2|1:2|1:2|1:2,0:2:0:0:
261,234,250795,2,0,L|305:224,3,44.5,8|0|0|0,1:2|1:2|1:2|1:2,0:2:0:0:
367,119,251114,2,0,L|410:110,3,44.5,8|0|0|0,1:2|1:2|1:2|1:2,0:2:0:0:
497,181,251433,5,8,1:2:0:0:
510,223,251513,1,0,1:2:0:0:
497,265,251593,1,0,1:2:0:0:
463,293,251672,1,0,1:2:0:0:
418,297,251752,1,8,1:2:0:0:
380,272,251832,1,8,0:2:0:0:
349,239,251912,5,8,0:2:0:0:
306,253,251992,1,8,0:2:0:0:
264,266,252071,1,8,1:2:0:0:
221,280,252151,1,8,0:2:0:0:
178,293,252231,2,0,L|110:318,1,44.5,8|8,0:2|0:2,0:2:0:0:
15,350,252391,2,0,L|27:293,1,44.5,8|8,1:2|0:2,0:2:0:0:
0,161,252550,2,0,L|50:182,1,44.5,8|8,0:2|0:2,0:2:0:0:
131,221,252709,5,2,3:2:0:0:
131,221,253028,2,0,L|113:79,1,124.59999619751,2|0,0:0|0:0,0:0:0:0:
39,8,253507,2,0,P|28:52|24:88,1,62.2999980987549,2|2,0:0|0:0,0:0:0:0:
212,188,253826,6,0,B|272:145|339:182|339:182|326:159|326:159|392:208|490:177|511:77|482:-9|396:-17|332:5|349:84|390:97,1,560.699982888794,4|2,1:2|0:0,0:0:0:0:
