osu file format v14

[General]
AudioFilename: audio.mp3
AudioLeadIn: 0
PreviewTime: 178666
Countdown: 0
SampleSet: Soft
StackLeniency: 0.7
Mode: 0
LetterboxInBreaks: 0
EpilepsyWarning: 1
WidescreenStoryboard: 1

[Editor]
DistanceSpacing: 1.4
BeatDivisor: 4
GridSize: 4
TimelineZoom: 1.8

[Metadata]
Title:Hikariiro no Uta
TitleUnicode:ヒカリイロの歌
Artist:Suzuki Aina
ArtistUnicode:鈴木愛奈
Creator:Sekai
Version:Ex's Hard
Source:はてな☆イリュージョン
Tags:hatena☆illusion ending anime japanese ring zaq Kazato Asa Shizuku- Kowari -Brethia _kotachi_ -_ex_- ohm002 Sekaii Sekai-nyan iMage-- Meg kuei jpop j-pop
BeatmapID:2710345
BeatmapSetID:1307279

[Difficulty]
HPDrainRate:4
CircleSize:3.4
OverallDifficulty:6.5
ApproachRate:8
SliderMultiplier:1.4
SliderTickRate:1

[Events]
//Background and Video events
0,0,"bg5.jpg",0,0
//Break Periods
2,18015,21852
2,76739,80097
2,97164,101001
2,122696,125576
2,178866,188129
2,199132,200895
2,242696,246055
//Storyboard Layer 0 (Background)
//Storyboard Layer 1 (Fail)
//Storyboard Layer 2 (Pass)
//Storyboard Layer 3 (Foreground)
//Storyboard Layer 4 (Overlay)
//Storyboard Sound Samples

[TimingPoints]
1220,319.148936170213,4,2,2,60,1,0
1220,-200,4,2,2,60,0,0
5688,-142.857142857143,4,2,2,60,0,0
6326,-100,4,2,2,60,0,0
10954,-90.9090909090909,4,2,2,60,0,0
11113,-83.3333333333333,4,2,2,60,0,0
11273,-76.9230769230769,4,2,2,60,0,0
12071,-133.333333333333,4,2,2,60,0,0
12709,-100,4,2,2,60,0,0
17496,-66.6666666666667,4,2,2,60,0,0
17815,-133.333333333333,4,2,2,60,0,0
22602,-133.333333333333,4,2,2,60,0,0
22922,-111.111111111111,4,2,2,60,0,0
25156,-83.3333333333333,4,2,2,60,0,0
25475,-111.111111111111,4,2,2,60,0,0
27549,-100,4,2,2,60,0,0
28028,-111.111111111111,4,2,2,60,0,0
38241,-105.263157894737,4,2,2,60,0,0
43347,-133.333333333333,4,2,2,60,0,0
46698,-133.333333333333,4,2,2,60,0,0
47177,-83.3333333333333,4,2,2,60,0,0
47815,-100,4,2,2,60,0,0
48454,-100,4,2,2,60,0,0
49092,-100,4,2,2,60,0,0
52922,-83.3333333333333,4,2,2,60,0,0
53560,-100,4,2,2,60,0,0
56113,-90.9090909090909,4,2,2,70,0,1
74305,-100,4,2,2,70,0,1
74624,-111.111111111111,4,2,2,70,0,1
74943,-125,4,2,2,70,0,1
75581,-100,4,2,2,70,0,1
76539,-133.333333333333,4,2,2,70,0,0
80847,-133.333333333333,4,2,2,70,0,0
81645,-133.333333333333,4,2,2,40,0,0
82283,-100,4,2,2,50,0,0
82922,-100,4,2,2,60,0,0
83560,-100,4,2,2,70,0,0
84198,-100,4,2,2,80,0,0
86751,-133.333333333333,4,2,2,60,0,0
90422,-100,4,2,2,60,0,0
91858,-100,4,2,2,60,0,0
101751,-133.333333333333,4,2,2,60,0,0
107177,-111.111111111111,4,2,2,60,0,0
117390,-105.263157894737,4,2,2,60,0,0
126326,-83.3333333333333,4,2,2,60,0,0
126964,-100,4,2,2,60,0,0
127602,-100,4,2,2,60,0,0
128241,-100,4,2,2,60,0,0
132071,-83.3333333333333,4,2,2,60,0,0
132709,-100,4,2,2,60,0,0
135262,-90.9090909090909,4,2,2,70,0,1
153454,-100,4,2,2,70,0,1
153773,-111.111111111111,4,2,2,70,0,1
154092,-125,4,2,2,70,0,1
154411,-100,4,2,2,70,0,1
155688,-100,4,2,2,60,0,0
166220,-90.9090909090909,4,2,2,60,0,0
166539,-100,4,2,2,60,0,0
172922,-83.3333333333333,4,2,2,60,0,0
173560,-100,4,2,2,60,0,0
176113,-95.2380952380952,4,2,2,70,0,0
177071,-95.2380952380952,4,2,2,70,0,0
177549,-95.2380952380952,4,2,2,70,0,0
178666,-100,4,2,2,50,0,0
188879,-100,4,2,2,60,0,0
193985,-95.2380952380952,4,2,2,60,0,0
195262,-95.2380952380952,4,2,2,60,0,0
196858,-95.2380952380952,4,2,2,40,0,0
201645,-142.857142857143,4,2,2,70,0,0
202922,-111.111111111111,4,2,2,70,0,0
204517,-100,4,2,2,60,0,0
206751,-90.9090909090909,4,2,2,70,0,1
222071,-86.9565217391304,4,2,2,70,0,0
224943,-86.9565217391304,4,2,2,50,0,0
225900,-86.9565217391304,4,2,2,70,0,0
227177,-86.9565217391304,4,2,2,80,0,1
231326,-86.9565217391304,4,2,2,80,0,1
232283,-86.9565217391304,4,2,2,80,0,1
242496,-133.333333333333,4,2,2,70,0,0
243134,-133.333333333333,4,2,2,70,0,0
246645,-133.333333333333,4,2,2,70,0,0
247602,-111.111111111111,4,2,2,50,0,0
248241,-100,4,2,2,60,0,0
248879,-100,4,2,2,70,0,0
249517,-100,4,2,2,80,0,0
252071,-100,4,2,2,90,0,0
252709,-100,4,2,2,100,0,0
253826,-100,4,2,2,100,0,0
255262,-100,4,2,2,30,0,0

[Colours]
Combo1 : 64,31,248
Combo2 : 244,190,4
Combo3 : 255,118,36
Combo4 : 255,15,15
Combo5 : 255,98,176
Combo6 : 123,163,253
Combo7 : 5,188,138
Combo8 : 137,49,234
SliderBorder : 255,155,205
SliderTrackOverride : 176,176,255

[HitObjects]
41,297,1220,6,0,B|134:301|179:212|179:212|200:286|253:297,1,280,4|4,1:2|1:2,0:0:0:0:
375,355,2975,2,0,L|362:278,1,70,8|0,1:3|0:0,0:0:0:0:
409,226,3454,1,4,1:3:0:0:
317,168,3773,6,0,B|288:124|288:124|312:37,2,140,4|4|4,1:2|1:2|1:2,0:0:0:0:
71,45,5688,6,0,L|59:101,1,48.9999985046387,8|8,0:0|1:3,0:0:0:0:
19,158,6007,2,0,L|31:214,1,48.9999985046387,8|4,0:3|0:3,0:0:0:0:
66,296,6326,6,0,L|134:272,1,70,12|0,0:0|1:0,0:0:0:0:
195,348,6645,1,0,1:0:0:0:
257,272,6805,1,0,1:0:0:0:
318,347,6964,2,0,L|415:347,1,70,0|0,1:0|1:0,0:0:0:0:
478,308,7283,1,8,0:0:0:0:
403,243,7443,6,0,B|379:174|379:174|423:98,1,140,8|0,0:0|1:0,0:0:0:0:
407,17,7922,2,0,L|318:7,1,70,0|0,1:0|1:0,0:0:0:0:
241,30,8241,2,0,P|229:73|235:97,1,70,8|8,1:2|1:2,0:0:0:0:
305,164,8560,1,8,1:2:0:0:
251,246,8720,5,8,1:2:0:0:
251,246,8799,1,0,1:0:0:0:
251,246,8879,2,0,L|202:236,3,35,12|0|0|0,0:2|1:0|1:0|1:0,0:0:0:0:
206,287,9198,2,0,L|157:277,3,35,8|0|0|0,1:2|1:0|1:0|1:0,0:0:0:0:
145,321,9517,2,0,L|96:311,3,35,8|0|0|0,1:2|1:0|1:0|1:0,0:0:0:0:
82,355,9837,5,8,1:2:0:0:
23,276,9996,1,0,1:0:0:0:
88,203,10156,2,0,L|70:109,1,70,8|8,1:2|0:0,0:0:0:0:
129,52,10475,1,8,1:2:0:0:
186,130,10634,2,0,L|343:109,1,140,8|8,0:0|0:0,0:0:0:0:
411,31,11113,5,8,1:2:0:0:
411,31,12071,6,0,L|401:75,3,26.2500010013581,2|0|0|0,3:0|3:0|3:0|3:0,0:0:0:0:
385,87,12390,2,0,L|395:131,3,26.2500010013581,2|0|0|0,3:0|3:0|3:0|3:0,0:0:0:0:
430,142,12709,6,0,P|464:198|428:281,1,140,6|10,1:2|0:0,0:0:0:0:
355,306,13188,2,0,L|278:292,1,70,2|0,0:0|1:0,0:0:0:0:
224,216,13507,2,0,L|247:122,1,70,2|8,0:0|0:0,0:0:0:0:
211,54,13826,6,0,P|150:16|75:34,1,140,2|2,0:0|0:0,0:0:0:0:
15,96,14305,1,10,0:0:0:0:
86,162,14464,1,2,0:0:0:0:
7,220,14624,2,0,L|14:305,1,70,2|2,1:0|0:0,0:0:0:0:
67,371,14943,2,0,P|105:351|150:351,1,70,10|2,0:0|0:0,0:0:0:0:
203,282,15262,6,0,L|287:301,1,70,12|0,0:0|1:0,0:0:0:0:
300,203,15581,2,0,L|216:184,1,70,8|0,0:0|1:0,0:0:0:0:
262,94,15900,2,0,L|346:113,1,70,8|0,0:0|1:0,0:0:0:0:
398,37,16220,1,8,0:0:0:0:
482,86,16379,6,0,L|463:235,1,140,4|8,1:2|0:0,0:0:0:0:
491,266,16778,1,8,0:0:0:0:
491,266,16858,2,0,L|476:342,1,70,8|8,0:0|0:3,0:0:0:0:
383,365,17177,6,0,L|341:344,3,35,4|4|4|4,0:3|0:3|0:3|0:3,0:0:0:0:
321,314,17496,1,12,0:2:0:0:
188,367,17815,1,4,1:2:0:0:
188,367,22602,5,10,0:0:0:0:
23,300,22922,6,0,B|-2:226|-2:226|34:168,1,125.999996154785,6|8,1:2|0:0,0:0:0:0:
87,125,23400,1,2,1:0:0:0:
137,197,23560,2,0,P|178:213|209:211,1,62.9999980773926,10|0,0:3|1:0,0:0:0:0:
235,193,23799,1,0,1:0:0:0:
235,193,23879,1,8,0:0:0:0:
299,131,24039,6,0,L|266:-11,2,125.999996154785,6|2|2,1:2|1:0|1:0,0:0:0:0:
353,200,24837,2,0,L|421:204,1,62.9999980773926,8|4,0:3|0:3,0:0:0:0:
448,173,25076,1,4,0:3:0:0:
448,173,25156,1,14,0:2:0:0:
423,347,25475,6,0,B|354:313|354:313|305:333,1,125.999996154785,6|8,1:2|0:0,0:0:0:0:
229,365,25954,1,0,0:0:0:0:
229,365,26113,1,4,1:2:0:0:
151,321,26273,2,0,L|90:338,1,62.9999980773926,2|10,1:0|0:0,0:0:0:0:
17,287,26592,1,2,0:0:0:0:
78,224,26751,6,0,P|91:182|60:105,1,125.999996154785,2|10,1:0|0:0,0:0:0:0:
13,34,27230,1,2,1:0:0:0:
216,45,27549,1,10,0:0:0:0:
216,45,27629,1,8,0:0:0:0:
216,45,27709,2,0,L|204:108,3,35,8|8|8|8,0:0|0:0|0:0|0:0,0:0:0:0:
175,115,28028,6,0,L|197:264,1,125.999996154785,4|10,1:2|0:0,0:0:0:0:
153,318,28507,1,0,0:0:0:0:
230,358,28666,2,0,L|309:342,1,62.9999980773926,2|0,1:0|0:0,0:0:0:0:
368,301,28985,2,0,L|447:317,1,62.9999980773926,10|0,0:0|0:0,0:0:0:0:
510,349,29305,6,0,P|479:309|487:226,1,125.999996154785,2|10,1:0|0:0,0:0:0:0:
452,153,29783,2,0,P|421:137|378:137,1,62.9999980773926,2|0,0:0|1:0,0:0:0:0:
345,208,30102,2,0,P|314:224|271:224,1,62.9999980773926,2|8,0:0|0:0,0:0:0:0:
212,177,30422,1,2,0:0:0:0:
173,255,30581,6,0,L|39:232,1,125.999996154785,2|10,1:0|0:0,0:0:0:0:
4,157,31060,2,0,P|-2:111|7:89,1,62.9999980773926,2|0,0:0|1:0,0:0:0:0:
47,19,31379,2,0,L|111:39,1,62.9999980773926,2|8,0:0|0:0,0:0:0:0:
172,97,31698,1,2,0:0:0:0:
249,54,31858,6,0,P|300:22|383:40,1,125.999996154785,2|10,1:0|0:0,0:0:0:0:
445,60,32337,2,0,L|435:132,1,62.9999980773926,2|0,0:0|1:0,0:0:0:0:
372,183,32656,2,0,L|332:173,2,31.4999990386963,8|8|8,0:0|0:0|0:3,0:0:0:0:
441,237,32975,6,0,L|481:227,2,31.4999990386963,4|4|4,0:3|0:3|1:2,0:0:0:0:
306,352,33454,2,0,L|230:342,1,62.9999980773926,10|0,0:0|0:0,0:0:0:0:
171,292,33773,2,0,B|203:224|161:229|197:150,1,125.999996154785,2|8,1:0|0:0,0:0:0:0:
256,112,34251,1,0,0:0:0:0:
208,37,34411,6,0,P|153:69|85:62,1,125.999996154785,2|10,1:0|0:0,0:0:0:0:
19,15,34890,2,0,B|53:58|53:58|38:144,1,125.999996154785,6|2,1:2|1:0,0:0:0:0:
5,208,35368,2,0,L|25:284,1,62.9999980773926,10|0,0:0|1:0,0:0:0:0:
55,350,35688,6,0,L|120:338,1,62.9999980773926,8|0,0:0|0:0,0:0:0:0:
152,257,36007,2,0,L|217:269,1,62.9999980773926,10|0,0:0|1:0,0:0:0:0:
271,342,36326,1,10,0:0:0:0:
271,342,36485,1,0,0:0:0:0:
344,292,36645,2,0,L|405:309,1,62.9999980773926,10|0,0:0|0:0,0:0:0:0:
493,308,36964,6,0,P|512:251|488:186,1,125.999996154785,14|8,0:0|0:0,0:0:0:0:
406,167,37443,1,0,1:0:0:0:
470,107,37602,2,0,L|461:59,3,31.4999990386963,10|0|0|0,0:3|0:0|1:0|1:0,0:0:0:0:
426,51,37922,2,0,L|435:3,3,31.4999990386963,8|8|8|8,0:0|0:0|0:0|0:0,0:0:0:0:
386,8,38241,6,0,L|299:26,1,66.4999982242585,4|0,1:2|1:0,0:0:0:0:
287,108,38560,2,0,L|200:90,1,66.4999982242585,8|0,0:0|1:0,0:0:0:0:
155,28,38879,2,0,L|68:46,1,66.4999982242585,8|0,0:0|1:0,0:0:0:0:
16,98,39198,1,8,0:0:0:0:
94,149,39358,1,8,0:0:0:0:
23,209,39517,6,0,L|25:290,1,66.4999982242585,8|0,0:0|1:0,0:0:0:0:
91,341,39837,1,8,0:3:0:0:
156,275,39996,2,0,L|158:194,1,66.4999982242585,12|0,0:2|0:0,0:0:0:0:
130,119,40315,1,2,1:2:0:0:
201,59,40475,2,0,P|244:42|270:44,1,66.4999982242585,10|6,0:0|0:3,0:0:0:0:
352,72,40794,6,0,L|327:208,1,132.999996448517,6|10,1:2|0:0,0:0:0:0:
256,262,41273,2,0,L|268:337,1,66.4999982242585,10|8,0:0|0:0,0:0:0:0:
344,379,41592,1,6,1:2:0:0:
469,241,41911,6,0,P|420:195|346:200,1,132.999996448517,6|0,1:2|0:0,0:0:0:0:
272,234,42390,2,0,L|195:234,1,66.4999982242585,10|0,0:0|3:0,0:0:0:0:
121,193,42709,1,2,1:0:0:0:
63,265,42868,1,2,1:0:0:0:
16,183,43028,2,0,L|25:145,3,33.2499991121292,10|8|8|4,0:0|0:0|0:3|0:3,0:0:0:0:
26,113,43347,6,0,P|57:64|112:48,1,105.000004005432,4|2,1:2|0:0,0:0:0:0:
172,83,43826,1,0,1:0:0:0:
172,83,43985,2,0,L|157:195,1,105.000004005432,10|2,0:0|1:0,0:0:0:0:
147,270,44464,6,0,P|101:288|41:266,2,105.000004005432,2|0|0,1:0|1:0|1:0,0:0:0:0:
231,237,45262,2,0,L|299:251,1,52.5000020027161,8|0,0:0|1:0,0:0:0:0:
356,197,45581,2,0,L|407:186,1,52.5000020027161,2|0,1:0|1:0,0:0:0:0:
429,100,45900,6,0,P|395:66|326:61,1,105.000004005432,2|0,1:0|1:0,0:0:0:0:
265,100,46379,1,0,1:0:0:0:
265,100,46539,2,0,L|175:92,1,78.7500030040742,10|0,0:0|0:0,0:0:0:0:
148,84,46858,1,10,0:3:0:0:
110,174,47017,1,6,0:3:0:0:
207,215,47177,6,0,L|189:348,1,125.999996154785,14|8,0:0|1:3,0:0:0:0:
52,369,47656,1,6,1:3:0:0:
4,283,47815,2,0,L|23:213,1,70,2|2,1:2|1:0,0:0:0:0:
34,170,48055,1,0,1:0:0:0:
34,170,48134,2,0,L|26:125,3,35,10|8|10|8,0:0|0:0|0:0|0:0,0:0:0:0:
43,101,48454,6,0,L|201:141,1,140,4|10,1:2|0:0,0:0:0:0:
234,54,48932,1,0,0:0:0:0:
283,143,49092,2,0,L|273:216,1,70,2|0,1:0|3:0,0:0:0:0:
177,235,49411,2,0,L|187:308,1,70,8|0,0:0|0:0,0:0:0:0:
269,357,49730,6,0,B|357:348|318:310|428:308,1,140,0|10,1:0|0:0,0:0:0:0:
489,273,50209,1,0,0:0:0:0:
422,201,50368,2,0,L|436:119,1,70,2|0,1:0|0:0,0:0:0:0:
496,55,50688,2,0,P|446:36|390:46,1,105,10|0,0:0|0:0,0:0:0:0:
362,78,51007,6,0,L|282:70,1,70,6|8,1:2|0:0,0:0:0:0:
216,8,51326,1,10,0:0:0:0:
166,92,51485,2,0,L|25:69,1,140,6|4,1:2|0:3,0:0:0:0:
7,165,51964,6,0,L|18:213,3,35,4|8|8|8,1:2|0:0|0:0|0:0,0:0:0:0:
48,235,52283,2,0,L|37:283,3,35,8|8|8|8,0:0|0:0|1:3|0:3,0:0:0:0:
11,308,52602,2,0,L|22:356,3,35,8|4|6|4,0:3|0:3|0:3|0:3,0:0:0:0:
68,375,52922,6,0,L|193:353,1,125.999996154785,14|10,1:2|1:2,0:0:0:0:
303,284,53400,1,10,1:2:0:0:
215,238,53560,6,0,P|189:170|222:98,1,140,6|0,1:2|1:2,0:0:0:0:
263,26,54039,1,0,1:2:0:0:
321,104,54198,2,0,P|372:113|399:102,1,70,0|8,1:2|1:2,0:0:0:0:
476,64,54517,2,0,L|468:145,1,70,8|8,1:2|1:2,0:0:0:0:
495,228,54837,5,12,0:0:0:0:
354,364,55156,2,0,L|283:364,1,70,12|0,0:0|0:0,0:0:0:0:
223,286,55475,2,0,L|180:300,3,35,8|8|4|4,0:3|0:3|0:3|0:3,0:0:0:0:
159,335,55794,2,0,L|116:321,3,35,12|0|0|0,0:0|0:0|0:0|0:0,0:0:0:0:
71,329,56113,6,0,B|94:258|94:258|61:176,1,154.000004699707,6|8,1:2|0:0,0:0:0:0:
26,89,56592,1,0,0:0:0:0:
114,28,56751,2,0,L|196:22,1,77.0000023498536,2|2,1:0|0:0,0:0:0:0:
252,112,57071,2,0,L|170:118,1,77.0000023498536,10|2,0:0|0:0,0:0:0:0:
121,211,57390,6,0,P|109:277|152:343,1,115.50000352478,2|0,1:0|0:0,0:0:0:0:
172,349,57709,2,0,L|255:334,1,77.0000023498536,10|0,0:0|0:0,0:0:0:0:
348,377,58029,2,0,L|423:363,1,77.0000023498536,2|0,1:0|0:0,0:0:0:0:
501,288,58347,2,0,P|509:246|493:201,1,77.0000023498536,10|0,0:0|3:0,0:0:0:0:
499,105,58666,6,0,B|333:131,1,154.000004699707,6|8,1:2|0:0,0:0:0:0:
284,42,59145,1,0,3:0:0:0:
188,92,59305,2,0,P|177:131|196:182,1,77.0000023498536,0|0,1:0|0:0,0:0:0:0:
273,226,59624,1,8,0:0:0:0:
214,316,59783,6,0,L|114:314,1,77.0000023498536,2|0,0:0|1:0,0:0:0:0:
39,361,60102,1,2,0:0:0:0:
5,258,60262,2,0,P|-4:206|11:175,1,77.0000023498536,10|2,0:0|0:0,0:0:0:0:
57,90,60581,1,2,1:0:0:0:
57,90,60741,1,2,0:0:0:0:
141,156,60900,2,0,L|226:155,1,77.0000023498536,10|2,0:0|0:0,0:0:0:0:
313,103,61220,6,0,P|331:162|306:225,1,115.50000352478,2|0,1:0|0:0,0:0:0:0:
271,243,61539,2,0,L|279:345,1,77.0000023498536,10|0,0:0|0:0,0:0:0:0:
374,366,61858,2,0,L|366:264,1,77.0000023498536,2|0,1:0|0:0,0:0:0:0:
448,217,62177,1,8,0:0:0:0:
448,217,62337,1,0,0:0:0:0:
378,135,62496,6,0,P|319:117|256:142,1,115.50000352478,2|0,1:0|0:0,0:0:0:0:
238,177,62815,2,0,L|136:169,1,77.0000023498536,10|0,0:0|0:0,0:0:0:0:
156,62,63134,2,0,L|79:55,1,77.0000023498536,2|0,1:0|0:0,0:0:0:0:
15,143,63453,1,8,0:0:0:0:
15,143,63613,1,0,0:0:0:0:
91,219,63773,6,0,B|88:308,1,77.0000023498536,0|0,1:0|3:0,0:0:0:0:
0,355,64092,2,0,P|79:337|130:404,1,154.000004699707,12|0,0:0|1:0,0:0:0:0:
227,346,64571,2,0,L|226:268,1,77.0000023498536,2|10,0:0|0:0,0:0:0:0:
292,183,64890,1,6,0:3:0:0:
192,142,65049,6,0,P|185:104|203:52,1,77.0000023498536,10|0,0:0|1:0,0:0:0:0:
284,7,65368,2,0,B|372:15,1,77.0000023498536,14|0,0:0|0:0,0:0:0:0:
423,103,65688,2,0,L|414:168,3,38.5000011749268,12|8|8|8,1:2|0:0|0:0|0:0,0:0:0:0:
449,184,66007,2,0,L|443:222,3,38.5000011749268,8|8|8|8,0:0|0:0|0:0|0:0,0:0:0:0:
420,270,66326,6,0,P|354:233|272:256,1,154.000004699707,6|8,1:2|0:0,0:0:0:0:
207,328,66805,1,0,0:0:0:0:
111,285,66964,2,0,P|87:254|81:217,1,77.0000023498536,2|2,1:0|0:0,0:0:0:0:
17,129,67283,2,0,P|59:104|100:105,1,77.0000023498536,10|2,0:0|0:0,0:0:0:0:
183,149,67602,6,0,L|318:151,1,115.50000352478,2|0,1:0|0:0,0:0:0:0:
353,149,67922,2,0,P|366:112|352:62,1,77.0000023498536,10|0,0:0|0:0,0:0:0:0:
448,14,68241,2,0,P|473:43|523:56,1,77.0000023498536,2|0,1:0|0:0,0:0:0:0:
508,164,68560,2,0,P|469:171|433:208,1,77.0000023498536,8|0,0:0|3:0,0:0:0:0:
440,303,68879,6,0,B|386:300|386:300|354:273|354:273|279:270,1,154.000004699707,0|8,1:2|0:0,0:0:0:0:
219,345,69358,1,0,3:0:0:0:
123,295,69517,2,0,P|112:256|127:212,1,77.0000023498536,0|0,1:0|0:0,0:0:0:0:
190,138,69837,1,8,0:0:0:0:
114,61,69996,6,0,L|16:45,1,77.0000023498536,6|0,1:2|0:0,0:0:0:0:
1,150,70315,1,2,3:0:0:0:
29,254,70475,2,0,L|112:251,1,77.0000023498536,10|2,0:0|0:0,0:0:0:0:
184,176,70794,1,2,1:0:0:0:
184,176,70954,1,2,0:0:0:0:
266,244,71113,2,0,B|267:332,1,77.0000023498536,10|10,0:0|0:0,0:0:0:0:
238,365,71352,5,8,0:0:0:0:
238,365,71432,2,0,L|364:348,1,115.50000352478,6|0,1:2|0:0,0:0:0:0:
406,343,71751,2,0,P|420:302|411:258,1,77.0000023498536,10|0,0:0|0:0,0:0:0:0:
339,200,72071,1,2,1:0:0:0:
339,200,72230,1,8,0:0:0:0:
398,111,72390,2,0,L|506:113,1,77.0000023498536,10|2,0:0|0:0,0:0:0:0:
330,31,72709,6,0,L|204:48,1,115.50000352478,2|0,1:0|0:0,0:0:0:0:
162,53,73028,2,0,P|148:94|157:138,1,77.0000023498536,10|0,0:0|0:0,0:0:0:0:
235,199,73348,1,2,1:0:0:0:
235,199,73507,1,8,0:0:0:0:
170,285,73667,2,0,L|62:283,1,77.0000023498536,10|0,0:0|0:0,0:0:0:0:
21,203,73985,6,0,P|40:159|81:136,1,77.0000023498536,6|0,1:2|1:0,0:0:0:0:
8,59,74305,2,0,P|52:41|97:54,1,70,8|0,0:0|0:0,0:0:0:0:
170,12,74624,2,0,L|160:90,1,62.9999980773926,0|0,1:0|1:0,0:0:0:0:
193,177,74943,1,8,0:0:0:0:
261,106,75102,5,0,1:0:0:0:
261,106,75182,1,0,1:0:0:0:
261,106,75262,2,0,L|374:106,1,112,12|12,0:0|0:0,0:0:0:0:
451,46,75741,1,0,0:0:0:0:
504,127,75900,2,0,B|523:188|523:188|497:282,1,140,4|8,0:3|0:0,0:0:0:0:
417,310,76379,1,8,0:0:0:0:
345,232,76539,5,4,1:2:0:0:
345,232,80847,5,10,0:0:0:0:
376,158,81007,2,0,L|428:167,1,52.5000020027161,8|8,0:0|1:3,0:0:0:0:
452,90,81326,2,0,L|400:81,1,52.5000020027161,8|6,0:3|0:3,0:0:0:0:
347,29,81645,6,0,L|279:46,1,52.5000020027161,4|0,1:2|1:0,0:0:0:0:
233,97,81964,2,0,L|182:84,1,52.5000020027161,2|0,1:0|1:0,0:0:0:0:
103,71,82283,1,0,1:0:0:0:
103,71,82443,2,0,L|120:142,1,70,0|0,1:0|1:0,0:0:0:0:
153,224,82762,6,0,B|111:302|111:302|148:372,1,140,0|8,1:0|1:2,0:0:0:0:
232,367,83241,2,0,L|298:344,1,70,8|8,1:2|1:2,0:0:0:0:
364,269,83561,2,0,L|433:276,1,70,8|8,1:2|1:2,0:0:0:0:
499,203,83879,1,8,1:2:0:0:
499,203,84039,1,8,1:2:0:0:
419,127,84198,6,0,L|373:141,3,35,12|0|0|0,1:2|1:2|1:2|1:2,0:0:0:0:
350,102,84517,2,0,L|304:116,3,35,8|0|0|0,1:2|1:2|1:2|1:2,0:0:0:0:
281,77,84837,2,0,L|235:91,3,35,8|0|0|0,1:2|1:2|1:2|1:2,0:0:0:0:
212,52,85156,2,0,L|166:66,3,35,8|0|0|0,1:2|1:2|1:2|1:2,0:0:0:0:
126,50,85475,6,0,P|98:110|134:191,1,140,8|8,1:2|1:2,0:0:0:0:
209,193,85954,2,0,P|237:253|201:334,1,140,8|8,0:2|0:2,0:0:0:0:
310,364,86432,6,0,L|355:355,3,35,8|8|8|8,1:2|0:2|0:2|0:2,0:0:0:0:
371,347,86751,2,0,L|351:228,1,105.000004005432,4|0,1:2|0:0,0:0:0:0:
263,221,87230,2,0,L|217:228,2,26.2500010013581,8|8|8,0:0|0:0|0:0,0:0:0:0:
311,138,87549,2,0,L|314:78,1,52.5000020027161,8|4,0:3|0:3,0:0:0:0:
326,4,87868,6,0,P|377:-3|434:30,2,105.000004005432,4|8|8,1:2|0:0|1:3,0:0:0:0:
216,94,88826,1,8,0:3:0:0:
140,74,88985,2,0,L|88:63,1,52.5000020027161,4|0,0:3|3:0,0:0:0:0:
43,61,89225,5,0,3:0:0:0:
43,61,89305,2,0,B|14:195|14:195|73:261,1,210.000008010865,4|8,1:2|0:3,0:0:0:0:
123,336,90102,1,0,3:0:0:0:
223,303,90262,1,8,0:0:0:0:
332,277,90422,6,0,L|470:294,1,140,4|8,1:2|0:0,0:0:0:0:
494,199,90900,2,0,L|478:124,1,70,8|8,0:0|0:3,0:0:0:0:
413,56,91220,2,0,L|366:78,3,35,4|4|0|0,0:3|0:3|1:3|0:0,0:0:0:0:
344,103,91539,2,0,L|261:93,1,70,12|0,0:2|0:0,0:0:0:0:
201,160,91858,6,0,P|190:194|204:237,1,70,4|2,1:2|1:0,0:0:0:0:
267,295,92177,1,10,0:0:0:0:
196,363,92337,1,2,0:0:0:0:
116,306,92496,2,0,L|37:312,1,70,2|0,1:0|1:0,0:0:0:0:
5,221,92815,1,10,0:0:0:0:
89,171,92975,6,0,B|71:85|71:85|105:32,1,140,10|0,0:0|1:0,0:0:0:0:
194,18,93454,1,10,0:0:0:0:
266,83,93613,2,0,L|350:84,1,70,0|2,0:0|1:0,0:0:0:0:
397,7,93932,2,0,L|481:8,1,70,0|10,1:0|0:0,0:0:0:0:
496,101,94251,5,0,1:0:0:0:
496,101,94331,1,0,1:0:0:0:
496,101,94411,2,0,L|476:189,1,70,12|0,0:0|1:0,0:0:0:0:
401,227,94730,2,0,P|362:193|324:188,1,70,10|0,0:0|1:0,0:0:0:0:
362,91,95049,2,0,P|310:94|279:117,1,70,10|0,0:0|1:0,0:0:0:0:
236,180,95368,1,10,0:0:0:0:
181,97,95528,6,0,L|110:94,1,70,2|8,1:0|0:0,0:0:0:0:
26,144,95847,1,0,1:0:0:0:
26,144,95927,1,0,3:0:0:0:
26,144,96007,2,0,L|34:188,3,35,10|0|2|0,3:2|3:0|3:0|3:0,0:0:0:0:
62,217,96326,2,0,L|54:261,3,35,10|0|8|0,3:3|3:0|0:0|0:0,0:0:0:0:
27,291,96645,2,0,L|35:335,3,35,8|8|8|0,1:2|0:0|0:0|0:0,0:0:0:0:
70,358,96964,5,4,1:2:0:0:
70,358,101751,5,6,1:2:0:0:
217,356,102071,2,0,L|283:357,1,52.5000020027161,6|8,1:2|0:0,0:0:0:0:
408,309,102549,1,2,1:0:0:0:
366,247,102709,2,0,L|376:193,1,52.5000020027161,10|0,0:0|0:0,0:0:0:0:
423,139,103028,1,8,0:0:0:0:
347,107,103188,6,0,L|238:108,2,105.000004005432,2|10|2,1:0|0:0|0:0,0:0:0:0:
412,60,103985,2,0,L|466:73,1,52.5000020027161,10|0,0:0|1:0,0:0:0:0:
506,139,104305,2,0,P|516:169|506:202,1,52.5000020027161,2|0,3:0|0:0,0:0:0:0:
454,244,104624,6,0,L|337:226,1,105.000004005432,6|8,1:2|0:0,0:0:0:0:
292,276,105102,1,0,1:0:0:0:
228,233,105262,1,8,0:0:0:0:
228,233,105422,2,0,L|170:243,1,52.5000020027161,0|8,1:0|0:3,0:0:0:0:
105,202,105741,5,8,0:0:0:0:
105,202,105821,1,8,0:0:0:0:
105,202,105900,1,12,0:2:0:0:
14,85,106220,2,0,L|17:22,1,52.5000020027161,0|10,1:0|0:0,0:0:0:0:
161,6,106698,2,0,L|147:125,1,105.000004005432,10|0,0:0|3:0,0:0:0:0:
208,175,107177,6,0,B|283:162|250:135|336:125,1,125.999996154785,4|10,1:2|0:0,0:0:0:0:
399,82,107656,1,0,0:0:0:0:
471,135,107815,2,0,L|458:208,1,62.9999980773926,2|0,1:0|0:0,0:0:0:0:
388,249,108134,2,0,L|401:322,1,62.9999980773926,10|0,0:0|0:0,0:0:0:0:
324,359,108454,6,0,P|270:324|192:334,1,125.999996154785,2|10,1:0|0:0,0:0:0:0:
124,342,108932,2,0,L|47:329,1,62.9999980773926,2|0,0:0|1:0,0:0:0:0:
18,254,109251,2,0,P|10:218|24:180,1,62.9999980773926,0|10,3:0|0:0,0:0:0:0:
49,110,109571,1,2,0:0:0:0:
116,166,109730,6,0,P|166:194|241:179,1,125.999996154785,2|10,1:0|0:0,0:0:0:0:
293,121,110209,2,0,L|284:53,1,62.9999980773926,2|0,0:0|1:0,0:0:0:0:
354,4,110528,2,0,L|414:21,1,62.9999980773926,2|8,0:0|0:0,0:0:0:0:
498,48,110847,1,2,0:0:0:0:
442,116,111007,6,0,B|414:180|414:180|453:249,1,125.999996154785,2|10,1:0|0:0,0:0:0:0:
395,303,111485,2,0,L|325:288,1,62.9999980773926,8|0,0:3|1:0,0:0:0:0:
272,224,111805,2,0,L|285:178,2,31.4999990386963,4|4|0,0:3|0:3|1:0,0:0:0:0:
192,262,112124,6,0,L|183:292,2,31.4999990386963,4|0|4,0:3|0:0|1:2,0:0:0:0:
193,85,112602,2,0,L|130:86,1,62.9999980773926,10|0,0:0|0:0,0:0:0:0:
41,94,112922,2,0,P|15:157|45:231,1,125.999996154785,2|8,1:0|0:0,0:0:0:0:
80,282,113400,1,0,0:0:0:0:
20,345,113560,6,0,P|77:322|138:334,1,125.999996154785,2|10,1:0|0:0,0:0:0:0:
226,343,114039,2,0,P|283:366|344:354,1,125.999996154785,6|2,1:2|3:0,0:0:0:0:
396,282,114517,2,0,L|463:300,1,62.9999980773926,10|0,0:0|3:0,0:0:0:0:
495,275,114757,5,0,3:0:0:0:
495,275,114837,2,0,L|480:202,1,62.9999980773926,8|0,0:0|1:0,0:0:0:0:
403,173,115156,2,0,L|418:100,1,62.9999980773926,8|0,0:0|1:0,0:0:0:0:
369,35,115475,1,8,0:0:0:0:
369,35,115634,1,0,1:0:0:0:
293,81,115794,2,0,P|260:98|219:99,1,62.9999980773926,8|0,0:0|1:0,0:0:0:0:
180,30,116113,6,0,P|121:11|55:34,1,125.999996154785,8|12,0:0|0:2,0:0:0:0:
14,103,116592,1,8,0:3:0:0:
85,153,116751,2,0,L|76:200,3,31.4999990386963,8|0|4|4,1:3|0:0|0:3|0:3,0:0:0:0:
41,208,117071,2,0,L|50:255,3,31.4999990386963,4|0|4|0,1:3|0:0|0:3|0:0,0:0:0:0:
83,264,117390,6,0,L|163:267,1,66.4999982242585,4|0,1:2|0:0,0:0:0:0:
177,177,117709,2,0,L|257:180,1,66.4999982242585,8|0,0:0|1:0,0:0:0:0:
260,87,118028,2,0,L|340:90,1,66.4999982242585,8|0,0:0|1:0,0:0:0:0:
400,146,118347,1,8,0:0:0:0:
447,65,118507,1,0,1:0:0:0:
500,140,118666,6,0,L|489:211,1,66.4999982242585,8|0,0:0|1:0,0:0:0:0:
474,297,118985,1,0,1:0:0:0:
386,329,119145,2,0,L|318:318,1,66.4999982242585,8|0,0:0|0:0,0:0:0:0:
277,235,119464,1,10,0:3:0:0:
216,306,119624,2,0,L|229:377,1,66.4999982242585,10|10,0:0|0:3,0:0:0:0:
126,285,119943,6,0,L|148:130,1,132.999996448517,6|10,1:2|0:0,0:0:0:0:
211,88,120422,2,0,L|255:94,2,33.2499991121292,10|8|8,0:0|0:0|0:0,0:0:0:0:
142,24,120741,1,2,1:0:0:0:
19,163,121060,6,0,B|-4:230|-4:230|29:311,1,132.999996448517,6|0,1:2|1:0,0:0:0:0:
87,351,121539,2,0,P|118:333|170:331,1,66.4999982242585,10|0,0:0|3:0,0:0:0:0:
213,262,121858,1,2,1:0:0:0:
284,324,122017,1,2,3:0:0:0:
347,255,122177,6,0,L|408:267,3,33.2499991121292,10|8|8|8,0:0|0:0|0:0|0:0,0:0:0:0:
424,272,122496,1,0,1:2:0:0:
424,272,126326,6,0,P|441:220|411:146,1,125.999996154785,8|8,1:2|1:3,0:0:0:0:
343,57,126805,1,6,1:3:0:0:
266,117,126964,2,0,L|281:206,1,70,10|10,0:0|0:0,0:0:0:0:
268,234,127204,1,8,0:0:0:0:
268,234,127283,2,0,L|223:226,3,35,10|8|6|4,0:3|0:3|0:3|0:3,0:0:0:0:
206,252,127602,6,0,P|170:296|90:288,1,140,4|2,1:2|1:0,0:0:0:0:
28,215,128081,1,0,0:0:0:0:
89,139,128241,2,0,L|90:69,1,70,2|0,1:0|0:0,0:0:0:0:
172,16,128560,2,0,L|173:86,1,70,8|0,0:0|3:0,0:0:0:0:
253,142,128879,6,0,B|310:128|310:128|328:108|328:108|399:91,1,140,0|10,1:0|0:0,0:0:0:0:
453,28,129358,1,0,3:0:0:0:
511,105,129517,2,0,L|498:191,1,70,2|0,1:0|3:0,0:0:0:0:
404,198,129837,2,0,L|424:331,1,105,14|0,0:0|0:0,0:0:0:0:
390,341,130156,6,0,L|317:342,1,70,10|8,1:2|0:0,0:0:0:0:
221,345,130475,1,10,0:0:0:0:
273,262,130634,2,0,P|291:190|257:125,1,140,6|4,1:3|0:3,0:0:0:0:
216,46,131113,6,0,L|173:54,3,35,8|8|8|8,1:2|0:0|0:0|0:0,0:0:0:0:
154,93,131432,2,0,L|111:85,3,35,8|8|4|4,0:0|0:0|1:3|0:3,0:0:0:0:
91,46,131751,2,0,L|48:54,3,35,4|4|4|4,0:3|0:3|0:3|0:3,0:0:0:0:
6,66,132071,6,0,L|30:202,1,125.999996154785,10|10,1:2|1:2,0:0:0:0:
57,331,132549,1,10,1:2:0:0:
134,271,132709,6,0,P|195:239|278:268,1,140,6|8,1:2|1:2,0:0:0:0:
303,343,133188,1,0,1:0:0:0:
380,284,133347,2,0,L|465:300,1,70,8|8,1:2|1:2,0:0:0:0:
503,215,133666,2,0,L|418:199,1,70,8|8,1:2|1:2,0:0:0:0:
364,133,133985,6,0,L|328:141,3,35,12|8|8|8,1:2|0:0|0:0|0:0,0:0:0:0:
303,182,134305,2,0,L|267:174,3,35,12|8|8|8,1:2|0:0|0:3|0:3,0:0:0:0:
240,134,134624,2,0,L|204:142,3,35,8|8|8|8,0:0|0:0|0:0|0:0,0:0:0:0:
176,180,134943,2,0,L|140:172,3,35,8|8|8|8,0:0|0:0|0:0|0:0,0:0:0:0:
89,184,135262,6,0,P|63:109|103:45,1,154.000004699707,6|8,1:2|0:0,0:0:0:0:
198,8,135741,1,0,0:0:0:0:
285,70,135900,2,0,L|272:152,1,77.0000023498536,2|2,1:0|0:0,0:0:0:0:
377,176,136220,2,0,L|364:258,1,77.0000023498536,10|2,0:0|0:0,0:0:0:0:
412,348,136539,6,0,P|350:357|296:329,1,115.50000352478,2|0,1:0|0:0,0:0:0:0:
276,286,136858,2,0,P|230:280|190:301,1,77.0000023498536,10|0,0:0|0:0,0:0:0:0:
123,365,137177,2,0,P|77:371|37:350,1,77.0000023498536,2|0,1:0|0:0,0:0:0:0:
10,259,137496,2,0,L|28:182,1,77.0000023498536,10|0,0:0|3:0,0:0:0:0:
107,111,137815,6,0,P|150:160|248:165,1,154.000004699707,6|8,1:2|0:0,0:0:0:0:
333,127,138294,1,0,3:0:0:0:
377,225,138454,2,0,L|462:224,1,77.0000023498536,0|0,1:0|0:0,0:0:0:0:
507,130,138773,1,8,0:0:0:0:
434,50,138932,6,0,L|354:50,1,77.0000023498536,2|0,0:0|1:0,0:0:0:0:
260,97,139251,1,2,0:0:0:0:
172,33,139411,2,0,L|86:31,1,77.0000023498536,10|2,0:0|0:0,0:0:0:0:
10,97,139730,1,2,1:0:0:0:
10,97,139890,1,2,0:0:0:0:
11,204,140049,2,0,L|16:286,1,77.0000023498536,10|10,0:0|0:0,0:0:0:0:
44,333,140289,5,8,0:0:0:0:
44,333,140368,2,0,L|165:321,1,115.50000352478,2|0,1:0|0:0,0:0:0:0:
213,329,140688,2,0,P|222:287|206:247,1,77.0000023498536,10|0,0:0|0:0,0:0:0:0:
125,190,141007,2,0,P|116:148|132:108,1,77.0000023498536,2|0,1:0|0:0,0:0:0:0:
179,25,141326,2,0,L|269:40,1,77.0000023498536,10|0,0:0|0:0,0:0:0:0:
328,117,141645,6,0,L|452:96,1,115.50000352478,2|0,1:0|0:0,0:0:0:0:
495,101,141964,2,0,L|485:184,1,77.0000023498536,10|0,0:0|0:0,0:0:0:0:
399,243,142283,2,0,L|409:326,1,77.0000023498536,2|0,1:0|0:0,0:0:0:0:
311,368,142602,2,0,L|232:358,1,77.0000023498536,10|0,0:0|0:0,0:0:0:0:
156,282,142922,6,0,L|235:272,1,77.0000023498536,6|0,1:2|3:0,0:0:0:0:
315,202,143241,2,0,P|337:123|282:57,1,154.000004699707,12|0,0:0|1:0,0:0:0:0:
205,15,143720,2,0,L|120:15,1,77.0000023498536,2|10,0:0|0:0,0:0:0:0:
19,17,144039,1,6,0:3:0:0:
77,107,144198,6,0,L|65:190,1,77.0000023498536,10|0,0:0|1:0,0:0:0:0:
107,219,144438,1,0,1:0:0:0:
107,219,144517,2,0,L|95:302,1,77.0000023498536,14|0,0:0|0:0,0:0:0:0:
176,368,144837,2,0,L|233:349,3,38.5000011749268,12|8|8|8,1:2|0:0|0:0|0:0,0:0:0:0:
266,355,145156,2,0,L|323:374,3,38.5000011749268,8|8|8|8,0:0|0:0|0:0|0:0,0:0:0:0:
356,363,145475,6,0,P|440:365|483:317,1,154.000004699707,6|8,1:2|0:0,0:0:0:0:
484,208,145954,1,0,0:0:0:0:
388,254,146113,2,0,P|346:240|325:212,1,77.0000023498536,2|2,1:0|0:0,0:0:0:0:
236,274,146432,2,0,P|216:234|221:199,1,77.0000023498536,10|2,0:0|0:0,0:0:0:0:
293,124,146751,6,0,L|178:112,1,115.50000352478,2|0,1:0|0:0,0:0:0:0:
171,58,147071,2,0,L|92:70,1,77.0000023498536,10|0,0:0|0:0,0:0:0:0:
0,122,147390,2,0,P|25:161|27:202,1,77.0000023498536,2|0,1:0|0:0,0:0:0:0:
109,262,147709,2,0,P|84:301|82:342,1,77.0000023498536,10|0,0:0|3:0,0:0:0:0:
181,368,148028,6,0,B|250:331|250:331|347:354,1,154.000004699707,2|8,1:2|0:0,0:0:0:0:
428,373,148507,1,0,3:0:0:0:
506,300,148666,2,0,L|494:223,1,77.0000023498536,0|0,1:0|0:0,0:0:0:0:
398,174,148985,1,8,0:0:0:0:
454,81,149145,6,0,L|535:98,1,77.0000023498536,6|0,1:2|0:0,0:0:0:0:
391,11,149464,1,2,3:0:0:0:
310,82,149624,2,0,L|321:166,1,77.0000023498536,10|2,0:0|0:0,0:0:0:0:
373,251,149943,1,6,1:2:0:0:
300,329,150102,1,2,0:0:0:0:
300,329,150182,1,8,0:0:0:0:
300,329,150262,2,0,L|235:322,3,38.5000011749268,10|0|10|8,0:0|0:0|0:3|0:3,0:0:0:0:
210,307,150581,6,0,L|79:329,1,115.50000352478,6|0,1:2|0:0,0:0:0:0:
44,309,150900,2,0,L|57:233,1,77.0000023498536,10|0,0:0|0:0,0:0:0:0:
9,135,151220,2,0,L|22:59,1,77.0000023498536,2|8,1:0|0:0,0:0:0:0:
116,6,151539,2,0,L|201:36,1,77.0000023498536,10|2,0:0|0:0,0:0:0:0:
254,117,151858,6,0,L|379:72,1,115.50000352478,2|0,1:0|0:0,0:0:0:0:
390,31,152177,2,0,L|465:49,1,77.0000023498536,10|0,0:0|0:0,0:0:0:0:
511,146,152496,2,0,L|497:226,1,77.0000023498536,2|8,1:0|0:0,0:0:0:0:
460,323,152815,2,0,P|425:297|389:288,1,77.0000023498536,10|8,0:0|0:0,0:0:0:0:
341,306,153055,5,8,0:0:0:0:
341,306,153134,2,0,P|306:332|270:341,1,77.0000023498536,6|0,1:2|1:0,0:0:0:0:
201,273,153454,2,0,L|215:204,1,70,8|0,0:0|0:0,0:0:0:0:
289,156,153773,2,0,L|275:87,1,62.9999980773926,0|0,1:0|1:0,0:0:0:0:
215,18,154092,1,8,0:0:0:0:
150,88,154251,5,0,1:0:0:0:
150,88,154331,1,0,1:0:0:0:
150,88,154411,2,0,P|84:55|16:76,1,140,14|12,0:0|0:0,0:0:0:0:
0,166,154890,1,0,0:0:0:0:
80,221,155049,2,0,B|45:308|45:308|70:368,1,140,6|8,1:3|0:0,0:0:0:0:
168,360,155528,5,8,0:0:0:0:
168,360,155608,1,8,0:0:0:0:
168,360,155688,2,0,L|313:359,1,140,6|8,1:2|0:0,0:0:0:0:
405,357,156166,1,0,0:0:0:0:
466,280,156326,2,0,L|448:205,1,70,0|0,1:0|0:0,0:0:0:0:
462,114,156645,2,0,P|425:114|389:132,1,70,8|0,0:0|0:0,0:0:0:0:
347,213,156964,6,0,P|291:254|207:246,1,140,0|8,1:0|0:0,0:0:0:0:
139,305,157443,1,0,0:0:0:0:
52,260,157602,2,0,P|40:213|53:171,1,70,2|0,1:0|0:0,0:0:0:0:
133,151,157922,2,0,P|145:104|132:62,1,70,8|0,0:0|3:0,0:0:0:0:
63,24,158241,6,0,L|212:33,1,140,2|8,1:0|0:0,0:0:0:0:
274,99,158720,1,0,0:0:0:0:
226,187,158879,2,0,B|212:224|212:224|229:271,1,70,0|0,1:0|0:0,0:0:0:0:
273,336,159198,2,0,L|352:331,1,70,8|0,0:0|0:0,0:0:0:0:
440,345,159517,6,0,B|414:288|414:288|439:215,1,140,0|8,1:0|0:0,0:0:0:0:
500,137,159996,1,0,3:0:0:0:
422,76,160156,2,0,P|389:95|348:90,1,70,0|0,1:0|3:0,0:0:0:0:
341,190,160475,2,0,P|304:180|278:147,1,70,8|0,0:0|3:0,0:0:0:0:
242,67,160794,6,0,P|189:22|115:28,1,140,6|10,1:2|0:0,0:0:0:0:
33,68,161273,1,2,0:0:0:0:
91,146,161432,2,0,L|80:243,1,70,0|0,1:0|3:0,0:0:0:0:
18,289,161751,1,10,0:0:0:0:
200,360,162071,6,0,L|348:360,1,140,2|10,1:0|0:0,0:0:0:0:
437,364,162549,1,2,0:0:0:0:
480,276,162709,2,0,L|386:255,1,70,0|0,1:0|0:0,0:0:0:0:
370,171,163028,1,10,0:0:0:0:
191,251,163347,6,0,L|87:249,1,105,6|0,1:2|3:0,0:0:0:0:
38,235,163666,2,0,P|25:195|37:159,1,70,10|0,0:0|0:0,0:0:0:0:
77,82,163985,1,2,1:0:0:0:
77,82,164145,1,0,1:0:0:0:
164,126,164305,2,0,L|244:126,1,70,14|0,0:0|0:0,0:0:0:0:
304,57,164624,5,2,1:0:0:0:
304,57,164783,1,2,1:0:0:0:
349,144,164943,2,0,L|335:222,1,70,14|0,0:0|0:0,0:0:0:0:
417,268,165262,2,0,L|403:346,2,70,12|8|4,0:0|0:3|0:3,0:0:0:0:
503,220,165741,1,0,1:0:0:0:
468,128,165900,5,8,1:3:0:0:
281,18,166220,6,0,L|148:39,1,115.50000352478,14|0,0:0|0:0,0:0:0:0:
144,79,166539,2,0,L|76:63,1,70,2|2,1:2|0:0,0:0:0:0:
15,140,166858,2,0,P|6:190|19:221,1,70,10|0,0:0|3:0,0:0:0:0:
95,258,167177,5,2,1:0:0:0:
34,335,167337,2,0,L|-6:324,2,35,2|0|10,3:0|0:0|0:0,0:0:0:0:
126,367,167656,2,0,L|279:349,1,140,2|0,3:0|0:0,0:0:0:0:
354,312,168134,2,0,L|436:329,1,70,8|0,0:0|0:0,0:0:0:0:
507,275,168454,6,0,L|492:197,1,70,2|2,1:0|0:0,0:0:0:0:
479,109,168773,2,0,L|406:134,1,70,10|2,0:0|0:0,0:0:0:0:
387,226,169092,2,0,L|314:201,1,70,2|2,1:0|3:0,0:0:0:0:
300,164,169331,1,0,0:0:0:0:
300,164,169411,2,0,L|227:189,1,70,10|0,0:0|0:0,0:0:0:0:
146,232,169730,6,0,L|160:312,2,70,2|2|10,1:0|1:0|0:0,0:0:0:0:
75,165,170209,2,0,L|34:177,2,35,0|0|2,0:0|0:0|1:0,0:0:0:0:
82,67,170528,2,0,L|165:73,1,70,2|8,1:0|0:0,0:0:0:0:
237,23,170847,5,8,0:0:0:0:
237,23,170927,1,8,0:0:0:0:
237,23,171007,2,0,L|322:20,1,70,6|2,1:2|3:0,0:0:0:0:
398,56,171326,2,0,L|395:125,1,70,10|2,0:0|3:0,0:0:0:0:
314,181,171645,1,0,1:0:0:0:
398,231,171805,1,2,3:0:0:0:
310,273,171964,2,0,L|312:362,1,70,10|2,0:0|3:0,0:0:0:0:
219,376,172283,6,0,L|221:287,1,70,2|0,1:0|1:0,0:0:0:0:
176,218,172602,2,0,P|108:184|71:191,1,105,14|0,0:0|1:0,0:0:0:0:
31,220,172922,2,0,L|52:350,2,125.999996154785,10|6|10,0:0|1:2|0:3,0:0:0:0:
33,121,173560,6,0,L|50:51,1,70,6|0,1:2|0:0,0:0:0:0:
147,52,173879,2,0,L|163:120,1,70,8|4,0:0|0:3,0:0:0:0:
219,200,174198,1,8,1:3:0:0:
155,275,174358,1,4,1:3:0:0:
234,334,174517,2,0,L|317:330,1,70,8|0,0:0|1:0,0:0:0:0:
401,344,174837,6,0,P|423:302|393:207,1,140,8|8,1:3|0:0,0:0:0:0:
323,157,175315,2,0,L|272:167,2,35,8|8|4,1:3|1:3|1:3,0:0:0:0:
408,108,175634,1,0,1:0:0:0:
324,56,175794,2,0,L|254:69,1,70,8|0,0:0|1:0,0:0:0:0:
158,32,176113,6,0,P|113:58|101:150,1,146.999995513916,12|0,0:0|1:0,0:0:0:0:
172,218,176592,2,0,P|217:244|229:336,1,146.999995513916,12|0,0:0|1:0,0:0:0:0:
138,377,177071,2,0,L|47:363,1,73.4999977569581,12|0,0:0|1:0,0:0:0:0:
5,282,177390,5,0,1:0:0:0:
88,222,177549,1,12,0:0:0:0:
6,159,177709,2,0,P|0:107|17:69,1,73.4999977569581,12|0,0:0|3:0,0:0:0:0:
88,25,178028,2,0,L|154:38,3,36.749998878479,8|8|8|8,0:0|0:0|0:0|0:0,0:0:0:0:
168,58,178347,2,0,L|234:45,3,36.749998878479,8|8|8|8,0:0|0:0|0:0|0:0,0:0:0:0:
251,38,178666,5,4,1:2:0:0:
251,38,188879,6,0,L|334:64,1,70,14|0,0:2|1:0,0:0:0:0:
393,121,189198,2,0,L|310:147,1,70,8|0,0:0|0:0,0:0:0:0:
251,205,189517,2,0,L|334:231,1,70,8|0,0:0|1:0,0:0:0:0:
398,282,189837,1,2,1:0:0:0:
325,346,189996,6,0,L|179:325,1,140,8|8,0:0|0:0,0:0:0:0:
103,273,190475,2,0,L|25:297,1,70,10|0,0:0|1:0,0:0:0:0:
10,198,190794,2,0,L|88:174,1,70,10|0,0:0|0:0,0:0:0:0:
115,86,191113,1,10,0:0:0:0:
189,166,191273,5,0,0:0:0:0:
189,166,191352,1,0,1:0:0:0:
189,166,191432,2,0,P|222:204|326:217,1,140,14|0,0:0|1:0,0:0:0:0:
353,309,191911,2,0,P|402:261|470:252,1,140,12|0,0:0|1:0,0:0:0:0:
511,163,192390,1,8,0:0:0:0:
444,91,192549,6,0,B|375:33|375:33|310:44,1,140,6|8,1:2|0:0,0:0:0:0:
259,113,193028,2,0,L|172:102,1,70,8|0,0:0|1:0,0:0:0:0:
111,44,193347,2,0,L|74:56,3,35,4|4|8|8,0:3|0:3|0:3|0:3,0:0:0:0:
28,57,193666,2,0,L|40:94,3,35,8|8|8|8,0:0|0:0|0:0|0:0,0:0:0:0:
74,127,193985,6,0,L|57:225,1,73.4999977569581,4|0,1:2|0:0,0:0:0:0:
4,286,194305,2,0,L|21:384,1,73.4999977569581,8|0,0:0|1:0,0:0:0:0:
118,374,194624,2,0,P|166:356|207:363,1,73.4999977569581,8|0,0:0|1:0,0:0:0:0:
290,357,194943,2,0,P|338:375|379:368,1,73.4999977569581,8|0,0:0|1:0,0:0:0:0:
458,344,195262,6,0,B|499:307|499:307|479:198,1,146.999995513916,8|8,0:0|0:0,0:0:0:0:
506,116,195741,2,0,P|461:167|379:167,1,146.999995513916,0|0,1:0|1:0,0:0:0:0:
286,143,196220,2,0,L|298:60,1,73.4999977569581,8|0,0:0|1:0,0:0:0:0:
308,23,196459,1,0,1:0:0:0:
308,23,196539,1,12,0:0:0:0:
129,124,196858,5,0,1:0:0:0:
58,197,197017,1,0,1:0:0:0:
146,252,197177,2,0,L|229:249,1,73.4999977569581,0|0,1:0|1:0,0:0:0:0:
321,263,197496,1,8,1:2:0:0:
253,340,197656,1,8,1:2:0:0:
353,360,197815,6,0,L|442:359,1,73.4999977569581,8|8,1:2|1:2,0:0:0:0:
492,279,198134,1,8,1:2:0:0:
411,214,198294,1,8,1:2:0:0:
494,153,198454,2,0,P|503:100|481:63,1,73.4999977569581,8|8,1:2|1:2,0:0:0:0:
414,20,198773,1,8,1:2:0:0:
345,96,198932,5,12,0:2:0:0:
345,96,201645,5,4,1:2:0:0:
345,96,202922,6,0,P|400:63|474:80,1,125.999996154785,4|0,1:2|0:0,0:0:0:0:
480,156,203400,2,0,P|425:189|351:172,1,125.999996154785,8|8,1:3|0:3,0:0:0:0:
280,203,203879,2,0,L|299:275,1,62.9999980773926,4|0,0:3|1:0,0:0:0:0:
318,349,204198,5,0,1:0:0:0:
318,349,204358,1,0,1:0:0:0:
221,360,204517,6,0,B|137:360|164:321|79:324,1,140,12|0,0:0|1:0,0:0:0:0:
9,265,204996,1,0,1:0:0:0:
9,265,205156,1,12,0:0:0:0:
51,177,205315,6,0,L|147:193,1,70,2|12,1:0|0:0,0:0:0:0:
197,127,205634,1,2,1:0:0:0:
240,215,205794,2,0,P|287:238|324:236,1,70,14|0,0:0|0:0,0:0:0:0:
397,269,206113,2,0,L|437:258,3,35,0|0|8|8,1:0|1:0|0:0|0:0,0:0:0:0:
477,243,206432,2,0,L|470:196,3,35,8|8|8|8,0:0|0:0|0:0|0:0,0:0:0:0:
493,158,206751,6,0,B|512:90|512:90|481:33,1,115.50000352478,6|0,1:2|0:0,0:0:0:0:
444,21,207071,2,0,P|405:48|370:50,1,77.0000023498536,10|0,0:0|0:0,0:0:0:0:
323,145,207390,2,0,P|284:118|249:116,1,77.0000023498536,2|0,1:0|0:0,0:0:0:0:
202,21,207709,2,0,P|163:48|128:50,1,77.0000023498536,10|0,0:0|0:0,0:0:0:0:
28,28,208028,6,0,P|12:92|35:138,1,115.50000352478,2|0,1:0|0:0,0:0:0:0:
80,159,208347,2,0,L|72:238,1,77.0000023498536,10|0,0:0|0:0,0:0:0:0:
179,250,208666,2,0,L|171:329,1,77.0000023498536,2|0,1:0|0:0,0:0:0:0:
266,377,208985,2,0,L|274:298,1,77.0000023498536,10|0,0:0|0:0,0:0:0:0:
330,207,209305,6,0,L|321:120,1,77.0000023498536,2|0,1:0|0:0,0:0:0:0:
372,34,209624,2,0,P|445:18|500:68,1,154.000004699707,12|0,0:0|1:0,0:0:0:0:
427,147,210102,2,0,L|418:234,1,77.0000023498536,2|14,3:0|0:0,0:0:0:0:
480,313,210422,1,2,1:0:0:0:
373,329,210581,6,0,L|293:344,1,77.0000023498536,10|0,0:0|1:0,0:0:0:0:
194,375,210900,2,0,L|114:360,1,77.0000023498536,14|0,0:0|1:0,0:0:0:0:
20,313,211220,2,0,L|33:259,3,38.5000011749268,8|8|8|8,0:0|0:0|0:0|0:0,0:0:0:0:
64,235,211539,2,0,L|51:181,3,38.5000011749268,8|8|4|4,0:0|0:3|0:3|0:3,0:0:0:0:
100,163,211858,6,0,B|75:69|75:69|112:13,1,154.000004699707,6|8,1:2|0:0,0:0:0:0:
213,12,212337,1,0,0:0:0:0:
288,88,212496,2,0,B|303:128|303:128|289:173,1,77.0000023498536,2|0,1:0|0:0,0:0:0:0:
196,209,212815,2,0,B|181:249|181:249|195:294,1,77.0000023498536,10|0,0:0|0:0,0:0:0:0:
265,359,213134,6,0,L|390:357,1,115.50000352478,2|0,1:0|0:0,0:0:0:0:
434,362,213454,2,0,L|415:282,1,77.0000023498536,10|0,0:0|3:0,0:0:0:0:
499,218,213773,2,0,L|480:138,1,77.0000023498536,2|0,1:0|0:0,0:0:0:0:
466,35,214092,2,0,P|431:63|395:68,1,77.0000023498536,10|0,0:0|0:0,0:0:0:0:
350,164,214411,6,0,P|279:107|206:103,1,154.000004699707,2|8,1:0|0:0,0:0:0:0:
137,29,214890,1,0,3:0:0:0:
52,94,215049,2,0,L|68:175,1,77.0000023498536,0|0,1:0|0:0,0:0:0:0:
11,262,215368,1,8,0:0:0:0:
101,320,215528,6,0,L|183:296,1,77.0000023498536,2|0,0:0|0:0,0:0:0:0:
224,202,215847,1,2,3:0:0:0:
313,262,216007,2,0,L|302:340,1,77.0000023498536,10|0,0:0|0:0,0:0:0:0:
411,365,216326,1,2,1:0:0:0:
411,365,216485,1,0,0:0:0:0:
422,257,216645,2,0,L|434:167,1,77.0000023498536,10|10,0:0|0:0,0:0:0:0:
427,131,216884,5,8,0:0:0:0:
427,131,216964,2,0,L|272:168,1,154.000004699707,6|8,1:2|0:0,0:0:0:0:
189,224,217443,1,0,3:0:0:0:
189,224,217523,1,0,3:0:0:0:
189,224,217602,2,0,L|106:218,1,77.0000023498536,0|2,1:0|0:0,0:0:0:0:
19,162,217922,2,0,P|6:118|24:77,1,77.0000023498536,10|2,0:0|0:0,0:0:0:0:
89,10,218241,6,0,L|177:26,1,77.0000023498536,2|0,1:0|0:0,0:0:0:0:
272,25,218560,2,0,L|360:9,1,77.0000023498536,10|0,0:0|3:0,0:0:0:0:
454,30,218879,2,0,P|466:82|454:115,1,77.0000023498536,2|0,1:0|0:0,0:0:0:0:
364,154,219198,2,0,P|352:206|364:239,1,77.0000023498536,10|0,0:0|0:0,0:0:0:0:
452,279,219517,6,0,L|447:356,1,77.0000023498536,4|0,1:2|0:0,0:0:0:0:
340,378,219837,2,0,L|265:364,1,77.0000023498536,8|0,0:0|0:0,0:0:0:0:
197,278,220156,2,0,P|142:241|70:253,1,115.50000352478,2|0,1:0|0:0,0:0:0:0:
40,237,220475,2,0,P|28:186|43:149,1,77.0000023498536,14|0,0:0|0:0,0:0:0:0:
98,76,220794,6,0,L|146:91,3,38.5000011749268,12|0|8|8,0:0|0:0|0:0|0:0,0:0:0:0:
171,127,221113,2,0,L|219:112,3,38.5000011749268,8|0|8|8,0:3|0:0|0:3|0:3,0:0:0:0:
244,75,221432,2,0,L|292:90,3,38.5000011749268,4|4|0|0,0:3|0:3|1:0|1:0,0:0:0:0:
331,105,221751,1,12,0:0:0:0:
488,280,222071,6,0,B|396:273|424:232|317:235,1,161.000003070831,4|0,1:2|0:0,0:0:0:0:
274,329,222549,1,8,0:0:0:0:
179,267,222709,2,0,L|97:293,1,80.5000015354157,4|4,1:3|0:3,0:0:0:0:
18,215,223028,2,0,L|30:125,1,80.5000015354157,4|4,0:3|0:3,0:0:0:0:
70,30,223347,6,0,P|99:71|190:82,1,120.750002303124,8|4,1:3|0:3,0:0:0:0:
207,51,223666,2,0,L|294:51,1,80.5000015354157,8|8,0:0|0:0,0:0:0:0:
333,154,223985,2,0,L|420:154,1,80.5000015354157,8|8,0:0|0:0,0:0:0:0:
510,94,224305,2,0,L|510:191,1,80.5000015354157,8|4,0:3|0:3,0:0:0:0:
510,287,224624,5,4,1:2:0:0:
291,340,224943,2,0,P|241:311|230:280,1,80.5000015354157,0|0,1:0|1:0,0:0:0:0:
130,340,225262,2,0,P|115:284|129:254,1,80.5000015354157,8|8,1:2|1:2,0:0:0:0:
205,187,225581,1,8,1:2:0:0:
109,126,225741,6,0,L|111:38,1,80.5000015354157,8|12,1:2|0:0,0:0:0:0:
215,2,226060,1,0,1:0:0:0:
293,82,226220,2,0,L|279:172,1,80.5000015354157,12|0,0:0|0:0,0:0:0:0:
373,225,226539,2,0,L|413:210,3,40.2500007677078,8|8|8|8,0:0|0:0|0:0|0:0,0:0:0:0:
467,210,226858,2,0,L|462:254,3,40.2500007677078,8|8|8|8,0:0|0:0|0:0|0:0,0:0:0:0:
462,306,227177,6,0,P|415:337|346:329,1,120.750002303124,6|0,1:2|0:0,0:0:0:0:
296,325,227496,2,0,P|280:262|289:230,1,80.5000015354157,10|0,0:0|0:0,0:0:0:0:
345,153,227815,2,0,P|360:90|351:58,1,80.5000015354157,2|0,1:0|1:0,0:0:0:0:
267,7,228134,1,10,0:0:0:0:
267,7,228294,1,0,0:0:0:0:
189,89,228454,6,0,L|67:86,1,120.750002303124,6|0,1:2|0:0,0:0:0:0:
11,90,228773,2,0,B|-2:137|-2:137|12:177,1,80.5000015354157,10|0,0:0|1:0,0:0:0:0:
118,191,229092,2,0,L|116:283,1,80.5000015354157,8|4,1:3|0:3,0:0:0:0:
31,345,229411,1,10,0:0:0:0:
255,362,229730,6,0,L|263:275,1,80.5000015354157,6|0,1:2|0:0,0:0:0:0:
204,185,230049,2,0,P|192:92|209:62,1,120.750002303124,12|0,0:0|0:0,0:0:0:0:
228,21,230368,2,0,L|325:37,1,80.5000015354157,2|2,1:0|0:0,0:0:0:0:
418,7,230688,1,14,0:0:0:0:
484,97,230847,1,2,0:0:0:0:
381,145,231007,6,0,P|372:185|386:237,1,80.5000015354157,10|4,1:2|0:3,0:0:0:0:
488,253,231326,2,0,L|478:308,3,40.2500007677078,10|8|8|8,1:3|0:3|0:0|0:0,0:0:0:0:
467,347,231645,2,0,L|409:335,3,40.2500007677078,8|8|8|8,1:2|0:0|0:0|0:0,0:0:0:0:
371,329,231964,2,0,L|313:341,3,40.2500007677078,8|8|8|8,1:2|0:0|0:0|0:0,0:0:0:0:
286,370,232283,6,0,B|191:366|226:321|129:322,1,161.000003070831,6|8,1:2|0:0,0:0:0:0:
28,358,232762,1,0,0:0:0:0:
9,246,232922,2,0,P|5:195|25:164,1,80.5000015354157,2|2,1:0|0:0,0:0:0:0:
114,111,233241,2,0,L|192:134,1,80.5000015354157,10|2,0:0|0:0,0:0:0:0:
242,234,233560,6,0,L|361:215,1,120.750002303124,2|0,1:0|0:0,0:0:0:0:
415,230,233879,2,0,L|406:127,1,80.5000015354157,10|0,0:0|0:0,0:0:0:0:
427,38,234198,2,0,L|520:52,1,80.5000015354157,2|0,1:0|0:0,0:0:0:0:
339,95,234517,1,10,0:0:0:0:
122,30,234837,6,0,P|39:47|19:117,1,161.000003070831,2|8,1:0|0:0,0:0:0:0:
112,173,235315,1,0,0:0:0:0:
21,240,235475,2,0,B|7:280|7:280|25:326,1,80.5000015354157,0|0,1:0|1:0,0:0:0:0:
115,376,235794,1,8,0:0:0:0:
199,300,235954,6,0,L|286:313,1,80.5000015354157,6|0,0:2|1:0,0:0:0:0:
372,375,236273,1,2,0:0:0:0:
471,322,236432,2,0,L|466:231,1,80.5000015354157,10|10,0:0|0:0,0:0:0:0:
374,176,236751,2,0,L|323:193,3,40.2500007677078,10|0|10|8,0:0|0:0|0:3|0:3,0:0:0:0:
293,226,237071,2,0,L|214:216,1,80.5000015354157,10|6,0:3|0:3,0:0:0:0:
100,210,237390,6,0,P|61:168|86:84,1,120.750002303124,6|0,1:2|0:0,0:0:0:0:
96,60,237709,2,0,L|182:80,1,80.5000015354157,10|0,0:0|0:0,0:0:0:0:
264,9,238028,2,0,L|350:29,1,80.5000015354157,2|0,1:0|0:0,0:0:0:0:
455,19,238347,1,10,0:0:0:0:
455,19,238507,1,2,0:0:0:0:
483,127,238666,6,0,L|466:257,1,120.750002303124,2|0,1:0|0:0,0:0:0:0:
413,263,238985,2,0,L|428:350,1,80.5000015354157,10|0,0:0|0:0,0:0:0:0:
319,380,239305,2,0,L|229:360,1,80.5000015354157,2|0,1:0|0:0,0:0:0:0:
128,349,239624,1,10,0:0:0:0:
14,165,239943,6,0,P|52:142|97:147,1,80.5000015354157,6|0,1:2|0:0,0:0:0:0:
104,31,240262,2,0,P|147:41|175:76,1,80.5000015354157,8|0,0:0|3:0,0:0:0:0:
262,0,240581,2,0,P|285:37|280:82,1,80.5000015354157,2|2,1:0|0:0,0:0:0:0:
238,176,240900,1,10,0:0:0:0:
238,176,241060,1,0,0:0:0:0:
317,256,241220,6,0,P|358:215|458:213,1,161.000003070831,6|8,1:2|0:0,0:0:0:0:
504,313,241698,1,2,1:0:0:0:
402,363,241858,2,0,L|242:345,1,161.000003070831,10|8,0:0|0:3,0:0:0:0:
164,263,242337,1,6,0:3:0:0:
238,176,242496,5,6,1:2:0:0:
238,176,246805,5,8,0:0:0:0:
193,239,246964,2,0,L|124:222,1,52.5000020027161,8|8,0:0|1:3,0:0:0:0:
62,217,247283,2,0,L|68:276,1,52.5000020027161,8|4,0:3|0:3,0:0:0:0:
117,342,247602,6,0,L|189:329,1,62.9999980773926,4|0,1:2|1:0,0:0:0:0:
261,297,247922,2,0,L|333:310,1,62.9999980773926,0|0,1:2|1:0,0:0:0:0:
404,354,248241,1,0,1:0:0:0:
404,354,248400,2,0,L|407:268,1,70,0|0,1:0|1:0,0:0:0:0:
416,185,248720,6,0,P|346:151|272:171,1,140,0|8,1:0|1:2,0:0:0:0:
216,228,249198,1,8,1:2:0:0:
118,211,249358,2,0,L|45:200,1,70,8|8,1:2|1:2,0:0:0:0:
2,113,249677,1,8,1:2:0:0:
76,51,249837,2,0,L|149:62,1,70,8|8,1:2|1:2,0:0:0:0:
227,115,250156,6,0,L|288:102,3,35,12|0|0|0,1:2|1:2|1:2|1:2,0:0:0:0:
298,75,250475,2,0,L|359:88,3,35,8|0|0|0,1:2|1:2|1:2|1:2,0:0:0:0:
369,115,250794,2,0,L|430:102,3,35,8|0|0|0,1:2|1:2|1:2|1:2,0:0:0:0:
440,75,251113,2,0,L|501:88,3,35,8|0|0|0,1:2|1:2|1:2|1:2,0:0:0:0:
506,119,251432,6,0,P|480:168|508:260,1,140,8|8,1:2|1:2,0:0:0:0:
433,322,251911,2,0,L|286:320,1,140,8|8,0:2|0:2,0:0:0:0:
209,268,252390,6,0,L|155:282,3,35,8|8|8|8,1:2|0:2|0:2|0:2,0:0:0:0:
175,276,253826,1,4,1:2:0:0:
256,192,253906,12,2,255262,0:0:0:0:
