osu file format v14

[General]
AudioFilename: audio.mp3
AudioLeadIn: 0
PreviewTime: 178666
Countdown: 0
SampleSet: Soft
StackLeniency: 0.7
Mode: 0
LetterboxInBreaks: 0
EpilepsyWarning: 1
WidescreenStoryboard: 1

[Editor]
Bookmarks: 41592,52922,59863,60262,86751,107177,107975,193985,198932
DistanceSpacing: 1
BeatDivisor: 4
GridSize: 8
TimelineZoom: 1.8

[Metadata]
Title:Hikariiro no Uta
TitleUnicode:ヒカリイロの歌
Artist:Suzuki Aina
ArtistUnicode:鈴木愛奈
Creator:Sekai
Version:Asa's Insane
Source:はてな☆イリュージョン
Tags:hatena☆illusion ending anime japanese ring zaq Kazato Asa Shizuku- Kowari -Brethia _kotachi_ -_ex_- ohm002 Sekaii Sekai-nyan iMage-- Meg kuei jpop j-pop
BeatmapID:2714748
BeatmapSetID:1307279

[Difficulty]
HPDrainRate:5
CircleSize:4
OverallDifficulty:8
ApproachRate:9
SliderMultiplier:1.6
SliderTickRate:0.5

[Events]
//Background and Video events
0,0,"bg5.jpg",0,0
//Break Periods
2,122696,125726
2,178866,187481
2,199132,201045
//Storyboard Layer 0 (Background)
//Storyboard Layer 1 (Fail)
//Storyboard Layer 2 (Pass)
//Storyboard Layer 3 (Foreground)
//Storyboard Layer 4 (Overlay)
//Storyboard Sound Samples

[TimingPoints]
1220,319.148936170213,4,2,2,60,1,0
1220,-142.857142857143,4,2,2,60,0,0
2496,-125,4,2,2,60,0,0
6326,-90.9090909090909,4,2,2,60,0,0
10954,-90.9090909090909,4,2,2,60,0,0
11113,-90.9090909090909,4,2,2,60,0,0
11273,-90.9090909090909,4,2,2,60,0,0
12071,-90.9090909090909,4,2,2,60,0,0
12709,-90.9090909090909,4,2,2,60,0,0
17496,-66.6666666666667,4,2,2,60,0,0
17815,-111.111111111111,4,2,2,60,0,0
22602,-100,4,2,2,60,0,0
22922,-100,4,2,2,60,0,0
25156,-76.9230769230769,4,2,2,60,0,0
25475,-90.9090909090909,4,2,2,60,0,0
27549,-90.9090909090909,4,2,2,60,0,0
43347,-111.111111111111,4,2,2,60,0,0
46698,-111.111111111111,4,2,2,60,0,0
47177,-83.3333333333333,4,2,2,60,0,0
47815,-100,4,2,2,60,0,0
48454,-100,4,2,2,60,0,0
49092,-100,4,2,2,60,0,0
51007,-90.9090909090909,4,2,2,60,0,0
52922,-90.9090909090909,4,2,2,60,0,0
53560,-90.9090909090909,4,2,2,60,0,0
55156,-66.6666666666667,4,2,2,60,0,0
55475,-90.9090909090909,4,2,2,60,0,0
56113,-86.9565217391304,4,2,2,70,0,1
65368,-66.6666666666667,4,2,2,60,0,1
65688,-86.9565217391304,4,2,2,60,0,1
74305,-86.9565217391304,4,2,2,70,0,1
74624,-86.9565217391304,4,2,2,70,0,1
74943,-86.9565217391304,4,2,2,70,0,1
75581,-86.9565217391304,4,2,2,70,0,1
76539,-125,4,2,2,70,0,0
77177,-125,4,2,2,70,0,0
80847,-125,4,2,2,70,0,0
81645,-86.9565217391304,4,2,2,40,0,0
82283,-86.9565217391304,4,2,2,50,0,0
82922,-86.9565217391304,4,2,2,60,0,0
83560,-86.9565217391304,4,2,2,70,0,0
84198,-86.9565217391304,4,2,2,80,0,0
86751,-111.111111111111,4,2,2,60,0,0
90422,-111.111111111111,4,2,2,60,0,0
91539,-83.3333333333333,4,2,2,60,0,0
91858,-90.9090909090909,4,2,2,60,0,0
96964,-111.111111111111,4,2,2,60,0,0
101751,-111.111111111111,4,2,2,60,0,0
102071,-100,4,2,2,60,0,0
107177,-90.9090909090909,4,2,2,60,0,0
122496,-125,4,2,2,60,0,0
126326,-83.3333333333333,4,2,2,60,0,0
126964,-100,4,2,2,60,0,0
127602,-100,4,2,2,60,0,0
128241,-100,4,2,2,60,0,0
132071,-90.9090909090909,4,2,2,60,0,0
132709,-90.9090909090909,4,2,2,60,0,0
135262,-86.9565217391304,4,2,2,70,0,1
144517,-66.6666666666667,4,2,2,60,0,1
144837,-86.9565217391304,4,2,2,60,0,1
153454,-86.9565217391304,4,2,2,70,0,1
153773,-86.9565217391304,4,2,2,70,0,1
154092,-86.9565217391304,4,2,2,70,0,1
154411,-86.9565217391304,4,2,2,70,0,1
155688,-86.9565217391304,4,2,2,60,0,0
163666,-66.6666666666667,4,2,2,60,0,0
163985,-86.9565217391304,4,2,2,60,0,0
164305,-55.5555555555556,4,2,2,60,0,0
164624,-86.9565217391304,4,2,2,60,0,0
164943,-66.6666666666667,4,2,2,60,0,0
165262,-86.9565217391304,4,2,2,60,0,0
166220,-86.9565217391304,4,2,2,60,0,0
166539,-86.9565217391304,4,2,2,60,0,0
172922,-86.9565217391304,4,2,2,60,0,0
173560,-86.9565217391304,4,2,2,60,0,0
176113,-86.9565217391304,4,2,2,70,0,0
177071,-86.9565217391304,4,2,2,70,0,0
177549,-86.9565217391304,4,2,2,70,0,0
178666,-86.9565217391304,4,2,2,50,0,0
188081,-100,4,2,2,60,0,0
188879,-90.9090909090909,4,2,2,60,0,0
193985,-90.9090909090909,4,2,2,60,0,0
195262,-90.9090909090909,4,2,2,60,0,0
196858,-90.9090909090909,4,2,2,40,0,0
197337,-90.9090909090909,4,2,2,50,0,0
197815,-90.9090909090909,4,2,2,60,0,0
198134,-90.9090909090909,4,2,2,70,0,0
198454,-90.9090909090909,4,2,2,80,0,0
198773,-90.9090909090909,4,2,2,90,0,0
201645,-111.111111111111,4,2,2,70,0,0
204517,-66.6666666666667,4,2,2,60,0,0
204837,-90.9090909090909,4,2,2,60,0,0
206751,-86.9565217391304,4,2,2,70,0,1
221991,-86.9565217391304,4,2,2,60,0,0
222071,-86.9565217391304,4,2,2,70,0,1
224943,-86.9565217391304,4,2,2,50,0,1
225900,-86.9565217391304,4,2,2,70,0,1
227177,-86.9565217391304,4,2,2,80,0,1
231326,-86.9565217391304,4,2,2,80,0,1
232283,-86.9565217391304,4,2,2,80,0,1
242496,-125,4,2,2,70,0,0
243134,-125,4,2,2,70,0,0
246645,-125,4,2,2,70,0,0
247602,-86.9565217391304,4,2,2,50,0,0
248241,-86.9565217391304,4,2,2,60,0,0
248879,-86.9565217391304,4,2,2,70,0,0
249517,-86.9565217391304,4,2,2,80,0,0
252071,-86.9565217391304,4,2,2,90,0,0
252709,-86.9565217391304,4,2,2,100,0,0
253826,-100,4,2,2,100,0,0
255262,-100,4,2,2,30,0,0

[Colours]
Combo1 : 27,126,180
Combo2 : 252,219,103
Combo3 : 255,139,70
Combo4 : 255,60,60
Combo5 : 255,155,205
Combo6 : 176,176,255
Combo7 : 6,230,168
Combo8 : 134,45,232
SliderBorder : 255,155,205
SliderTrackOverride : 176,176,255

[HitObjects]
419,305,1220,6,0,B|439:265|490:255|490:255|354:271|431:365|292:378,1,335.999989746094,4|2,1:2|0:0,0:0:0:0:
292,377,2337,1,0,0:0:0:0:
224,319,2496,6,0,P|255:265|243:203,1,128,4|0,1:2|0:0,0:0:0:0:
326,132,2975,2,0,P|262:124|203:100,1,128,8|0,1:3|0:0,0:0:0:0:
128,32,3454,2,0,L|114:94,1,64,4|0,1:3|0:0,0:0:0:0:
6,163,3773,6,0,P|121:138|165:247,1,256,4|4,1:2|1:2,0:0:0:0:
356,317,4730,2,0,L|418:304,1,64,0|0,0:0|0:0,0:0:0:0:
512,317,5049,6,0,P|477:233|386:219,1,192,4|0,1:2|1:0,0:0:0:0:
389,222,5608,1,0,1:0:0:0:
393,226,5688,2,0,L|405:163,1,64,8|8,0:0|1:3,0:0:0:0:
320,96,6007,2,0,L|308:159,1,64,8|4,0:3|0:3,0:0:0:0:
292,377,6326,6,0,P|252:357|209:351,1,88.000002685547,12|0,0:0|1:0,0:0:0:0:
41,228,6645,2,0,P|84:221|123:202,1,88.000002685547,0|0,1:0|1:0,0:0:0:0:
128,384,6964,1,0,1:0:0:0:
128,384,7124,2,0,L|108:298,1,88.000002685547,0|8,1:0|0:0,0:0:0:0:
62,144,7443,6,0,B|157:129|124:208|224:189,1,176.000005371094,8|0,0:0|1:0,0:0:0:0:
385,109,7922,1,0,1:0:0:0:
385,109,8081,1,0,1:0:0:0:
288,16,8241,6,0,P|274:57|268:101,1,88.000002685547,8|8,1:2|1:2,0:0:0:0:
123,202,8560,2,0,P|109:160|103:116,1,88.000002685547,8|8,1:2|1:2,0:0:0:0:
140,91,8799,1,0,1:0:0:0:
140,91,8879,2,0,L|183:81,3,44.0000013427735,12|0|0|0,0:2|1:0|1:0|1:0,0:0:0:0:
223,189,9198,2,0,L|266:198,3,44.0000013427735,8|0|0|0,1:2|1:0|1:0|1:0,0:0:0:0:
355,120,9517,5,8,1:2:0:0:
385,109,9597,1,0,1:0:0:0:
417,114,9677,1,0,1:0:0:0:
443,133,9757,1,0,1:0:0:0:
458,163,9837,1,8,1:2:0:0:
458,195,9916,1,0,1:0:0:0:
443,225,9996,2,0,L|400:234,1,44.0000013427735,0|0,1:0|1:0,0:0:0:0:
320,336,10156,5,8,1:2:0:0:
320,336,10235,1,8,0:0:0:0:
320,336,10315,2,0,L|331:293,1,44.0000013427735,8|8,0:0|0:0,0:0:0:0:
266,198,10475,5,8,1:2:0:0:
266,198,10555,1,8,0:0:0:0:
266,198,10634,2,0,L|254:240,1,44.0000013427735,8|8,0:0|0:0,0:0:0:0:
195,335,10794,5,8,1:2:0:0:
172,311,10874,1,8,0:0:0:0:
142,298,10954,1,8,0:0:0:0:
109,298,11033,1,8,0:0:0:0:
79,311,11113,2,0,L|68:353,1,44.0000013427735,8|8,1:2|0:0,0:0:0:0:
10,242,11273,2,0,L|0:200,1,44.0000013427735,8|8,0:0|0:0,0:0:0:0:
154,30,12071,6,0,L|143:72,7,44.0000013427735,0|0|0|0|0|0|0|0,3:0|3:0|3:0|3:0|3:0|3:0|3:0|3:0,0:0:0:0:
57,142,12709,6,0,B|92:113|139:113|139:113|166:152|215:143,1,176.000005371094,6|10,1:2|0:0,0:0:0:0:
352,96,13188,2,0,P|339:53|333:10,1,88.000002685547,2|0,0:0|1:0,0:0:0:0:
480,160,13507,2,0,P|467:202|461:245,1,88.000002685547,2|8,0:0|0:0,0:0:0:0:
339,377,13826,6,0,P|277:319|194:334,1,176.000005371094,2|2,0:0|0:0,0:0:0:0:
34,260,14305,1,10,0:0:0:0:
34,260,14464,1,2,0:0:0:0:
96,382,14624,6,0,P|106:340|112:296,1,88.000002685547,2|2,1:0|0:0,0:0:0:0:
192,144,14943,1,10,0:0:0:0:
11,159,15102,5,2,0:0:0:0:
11,159,15182,1,2,0:0:0:0:
11,159,15262,2,0,L|95:184,1,88.000002685547,12|0,0:0|1:0,0:0:0:0:
243,38,15581,2,0,P|200:46|160:64,1,88.000002685547,8|0,0:0|1:0,0:0:0:0:
192,248,15900,6,0,L|209:161,1,88.000002685547,8|0,0:0|1:0,0:0:0:0:
209,161,16140,1,0,1:0:0:0:
209,161,16220,1,8,0:0:0:0:
343,21,16379,6,0,P|426:12|478:79,1,176.000005371094,4|8,1:2|0:0,0:0:0:0:
452,115,16778,1,8,0:0:0:0:
452,115,16858,2,0,P|431:118|410:125,1,44.0000013427735,8|0,0:0|0:0,0:0:0:0:
312,208,17017,2,0,P|333:211|354:218,1,44.0000013427735,8|8,0:3|0:3,0:0:0:0:
432,344,17177,5,4,0:3:0:0:
457,323,17257,1,4,0:3:0:0:
471,294,17337,1,4,0:3:0:0:
469,261,17416,1,4,0:3:0:0:
451,233,17496,2,0,B|392:248|392:248|368:288|368:288|298:307,1,180.000006866455,12|0,0:2|0:0,0:0:0:0:
217,375,17815,6,0,P|249:314|226:248,1,143.999995605469,4|0,1:2|1:0,0:0:0:0:
158,313,18294,2,0,P|123:323|90:337,1,71.9999978027344,0|0,0:0|1:0,0:0:0:0:
30,217,18613,1,2,0:0:0:0:
30,217,18773,2,0,P|64:227|97:241,1,71.9999978027344,2|2,1:0|0:0,0:0:0:0:
148,165,19092,6,0,B|182:129|164:69|164:69|127:88,1,143.999995605469,2|2,1:0|1:0,0:0:0:0:
97,240,19571,2,0,P|162:210|232:194,1,143.999995605469,2|2,0:0|0:0,0:0:0:0:
304,112,20049,2,0,P|338:121|370:137,1,71.9999978027344,0|0,1:0|0:0,0:0:0:0:
402,164,20289,5,0,0:0:0:0:
402,164,20368,2,0,P|470:154|503:93,1,143.999995605469,0|0,1:0|1:0,0:0:0:0:
313,210,20847,2,0,P|329:242|338:276,1,71.9999978027344,0|0,0:0|1:0,0:0:0:0:
448,320,21166,1,2,0:0:0:0:
448,320,21326,2,0,P|453:284|468:252,1,71.9999978027344,2|0,1:0|0:0,0:0:0:0:
351,383,21645,6,0,P|287:351|216:345,1,143.999995605469,2|2,1:0|1:0,0:0:0:0:
123,253,22124,2,0,L|192:232,1,71.9999978027344,2|0,3:0|1:0,0:0:0:0:
64,328,22443,5,2,0:0:0:0:
64,328,22523,1,2,0:0:0:0:
64,328,22602,2,0,P|29:282|32:223,1,120,10|0,0:0|0:0,0:0:0:0:
0,192,22922,6,0,P|78:174|154:150,1,160,6|8,1:2|0:0,0:0:0:0:
288,192,23400,1,2,1:0:0:0:
262,37,23560,2,0,P|245:73|235:112,1,80,10|0,0:3|1:0,0:0:0:0:
235,112,23799,1,0,1:0:0:0:
235,112,23879,1,8,0:0:0:0:
338,276,24039,5,6,1:2:0:0:
499,183,24358,2,0,P|442:131|365:137,1,160,2|2,1:0|1:0,0:0:0:0:
241,270,24837,6,0,L|233:309,3,40,8|4|4|4,0:3|0:3|0:3|0:3,0:0:0:0:
286,372,25156,2,0,B|254:339|203:342|203:342|184:368|151:377,1,155.999992858887,14|0,0:2|0:0,0:0:0:0:
108,363,25475,6,0,P|120:321|126:278,1,88.000002685547,6|0,1:2|1:0,0:0:0:0:
10,156,25794,2,0,P|54:109|118:109,1,132.00000402832,8|0,0:0|0:0,0:0:0:0:
151,137,26113,2,0,P|191:121|234:111,1,88.000002685547,4|2,1:2|1:0,0:0:0:0:
286,16,26432,1,10,0:0:0:0:
345,198,26592,5,2,0:0:0:0:
345,198,26672,1,0,0:0:0:0:
344,198,26751,2,0,P|261:213|205:150,1,176.000005371094,2|10,1:0|0:0,0:0:0:0:
392,24,27230,2,0,P|380:66|374:110,1,88.000002685547,2|0,1:0|0:0,0:0:0:0:
453,296,27549,5,10,0:0:0:0:
467,262,27629,1,8,0:0:0:0:
464,226,27709,1,8,0:0:0:0:
444,196,27789,1,8,0:0:0:0:
412,179,27868,1,8,0:0:0:0:
376,180,27948,1,8,0:0:0:0:
344,198,28028,6,0,B|282:191|282:191|246:217|246:217|177:206,2,176.000005371094,4|10|2,1:2|0:0|1:0,0:0:0:0:
322,360,28826,1,0,0:0:0:0:
322,360,28985,2,0,L|300:274,1,88.000002685547,10|0,0:0|0:0,0:0:0:0:
170,124,29305,6,0,P|101:170|110:254,1,176.000005371094,2|10,1:0|0:0,0:0:0:0:
127,383,29783,2,0,P|87:366|44:361,1,88.000002685547,2|0,0:0|1:0,0:0:0:0:
183,207,30102,1,2,0:0:0:0:
183,207,30262,2,0,L|200:293,1,88.000002685547,8|2,0:0|0:0,0:0:0:0:
316,355,30581,6,0,P|378:301|355:220,1,176.000005371094,2|10,1:0|0:0,0:0:0:0:
483,111,31060,2,0,P|470:153|465:196,1,88.000002685547,2|0,0:0|1:0,0:0:0:0:
339,37,31379,1,2,0:0:0:0:
339,37,31539,2,0,P|351:79|356:122,1,88.000002685547,8|2,0:0|0:0,0:0:0:0:
469,292,31858,6,0,B|372:316|396:248|299:274,1,176.000005371094,2|10,1:0|0:0,0:0:0:0:
152,176,32337,2,0,P|188:152|232:153,1,88.000002685547,2|0,0:0|1:0,0:0:0:0:
96,288,32656,2,0,L|53:277,2,44.0000013427735,8|8|8,0:0|0:0|0:3,0:0:0:0:
216,344,32975,5,4,0:3:0:0:
216,344,33055,1,4,0:3:0:0:
216,344,33134,2,0,B|253:315|304:320|304:320|330:361|369:366,2,176.000005371094,4|10|2,1:2|0:0|1:0,0:0:0:0:
380,277,33932,1,0,1:0:0:0:
264,200,34092,2,0,P|274:242|282:285,1,88.000002685547,8|0,0:0|0:0,0:0:0:0:
469,221,34411,6,0,P|479:178|487:135,1,88.000002685547,2|0,1:0|1:0,0:0:0:0:
378,20,34730,1,10,0:0:0:0:
252,141,34890,6,0,P|335:112|421:93,1,176.000005371094,6|2,1:2|1:0,0:0:0:0:
290,237,35368,1,10,0:0:0:0:
168,88,35528,5,0,1:0:0:0:
168,88,35608,1,0,1:0:0:0:
167,88,35688,2,0,P|153:129|145:173,1,88.000002685547,8|0,0:0|0:0,0:0:0:0:
16,232,36007,2,0,P|32:272|54:310,1,88.000002685547,10|0,0:0|1:0,0:0:0:0:
56,352,36246,5,0,1:0:0:0:
56,351,36326,2,0,P|97:337|140:329,1,88.000002685547,10|0,0:0|0:0,0:0:0:0:
224,224,36645,2,0,P|265:239|303:261,1,88.000002685547,10|0,0:0|0:0,0:0:0:0:
424,375,36964,6,0,P|477:309|459:226,1,176.000005371094,14|8,0:0|0:0,0:0:0:0:
321,175,37443,1,0,1:0:0:0:
321,175,37523,1,0,1:0:0:0:
320,175,37602,2,0,P|310:217|302:261,1,88.000002685547,10|0,0:3|1:0,0:0:0:0:
336,288,37842,1,0,1:0:0:0:
336,288,37922,2,0,L|378:277,1,44.0000013427735,8|8,0:0|0:0,0:0:0:0:
504,156,38081,5,8,0:0:0:0:
504,156,38161,1,8,0:0:0:0:
503,156,38241,2,0,P|460:146|418:132,1,88.000002685547,4|0,1:2|1:0,0:0:0:0:
280,39,38560,1,8,0:0:0:0:
324,200,38720,1,0,1:0:0:0:
172,164,38879,2,0,P|211:145|253:133,2,88.000002685547,8|0|8,0:0|1:0|0:0,0:0:0:0:
96,32,39358,5,8,0:0:0:0:
96,32,39438,1,8,0:0:0:0:
96,32,39517,2,0,L|77:117,1,88.000002685547,8|0,0:0|1:0,0:0:0:0:
172,164,39837,1,8,0:3:0:0:
75,349,39996,6,0,P|6:301|0:216,1,176.000005371094,12|2,0:2|1:2,0:0:0:0:
77,117,40475,1,10,0:0:0:0:
181,272,40634,5,6,0:3:0:0:
181,272,40714,1,4,0:3:0:0:
181,272,40794,2,0,P|139:257|95:252,1,88.000002685547,6|0,1:2|0:0,0:0:0:0:
256,384,41113,2,0,P|299:378|341:364,1,88.000002685547,10|10,0:0|0:0,0:0:0:0:
341,364,41352,1,8,0:0:0:0:
341,364,41432,1,8,0:0:0:0:
304,208,41592,1,6,1:2:0:0:
504,320,41911,6,0,P|436:267|351:278,1,176.000005371094,6|0,1:2|0:0,0:0:0:0:
219,184,42390,2,0,P|259:199|303:207,1,88.000002685547,10|0,0:0|3:0,0:0:0:0:
413,86,42709,2,0,L|328:110,1,88.000002685547,2|2,1:0|1:0,0:0:0:0:
328,110,42948,1,0,1:0:0:0:
328,110,43028,1,10,0:0:0:0:
125,198,43188,5,8,0:3:0:0:
125,198,43267,1,4,0:3:0:0:
125,198,43347,2,0,P|138:127|151:56,2,143.999995605469,4|2|10,1:2|0:0|0:0,0:0:0:0:
88,384,44305,5,2,1:0:0:0:
144,316,44464,2,0,P|74:333|5:353,2,143.999995605469,2|0|0,1:0|1:0|1:0,0:0:0:0:
274,350,45262,2,0,P|280:314|287:279,1,71.9999978027344,8|0,0:0|1:0,0:0:0:0:
215,178,45581,2,0,P|208:213|201:248,1,71.9999978027344,2|0,1:0|1:0,0:0:0:0:
56,128,45900,5,2,1:0:0:0:
56,128,46060,2,0,P|112:86|181:97,1,143.999995605469,0|0,1:0|1:0,0:0:0:0:
314,21,46539,2,0,P|278:14|243:8,1,71.9999978027344,10|0,0:0|0:0,0:0:0:0:
354,166,46858,2,0,P|389:159|424:153,1,71.9999978027344,10|6,0:3|0:3,0:0:0:0:
424,153,47097,1,4,0:3:0:0:
424,153,47177,6,0,B|434:124|450:91|450:91|447:51|414:25,2,143.999995605469,14|8|6,0:0|1:3|1:3,0:0:0:0:
512,256,47815,1,2,1:2:0:0:
380,384,47975,1,2,1:0:0:0:
365,361,48055,1,0,1:0:0:0:
345,344,48134,1,10,0:0:0:0:
320,333,48214,1,8,0:0:0:0:
294,330,48294,1,10,0:0:0:0:
268,334,48374,1,8,0:0:0:0:
244,345,48454,1,4,1:2:0:0:
244,345,48773,6,0,P|204:336|165:327,1,80,10|0,0:0|0:0,0:0:0:0:
68,384,49092,2,0,P|50:305|34:227,1,160,2|8,1:0|0:0,0:0:0:0:
152,176,49571,5,0,0:0:0:0:
152,176,49650,1,0,0:0:0:0:
151,176,49730,2,0,P|137:213|128:252,1,80,0|0,1:0|0:0,0:0:0:0:
8,128,50049,2,0,P|47:121|85:109,1,80,10|0,0:0|0:0,0:0:0:0:
228,20,50368,5,2,1:0:0:0:
228,20,50448,2,0,P|240:57|244:97,1,80,8|0,0:0|0:0,0:0:0:0:
228,124,50688,1,10,0:0:0:0:
344,236,50847,5,0,1:0:0:0:
344,236,50927,1,0,1:0:0:0:
344,236,51007,2,0,L|386:226,1,44.0000013427735,6|8,1:2|0:0,0:0:0:0:
484,338,51166,5,8,0:0:0:0:
463,360,51246,1,8,0:0:0:0:
434,371,51326,1,10,0:0:0:0:
403,372,51406,1,8,0:0:0:0:
377,355,51485,2,0,L|385:311,1,44.0000013427735,6|4,1:2|0:3,0:0:0:0:
466,220,51645,5,4,0:3:0:0:
488,198,51725,1,4,0:3:0:0:
498,168,51805,1,4,0:3:0:0:
498,137,51884,1,4,0:3:0:0:
481,110,51964,2,0,L|438:97,1,44.0000013427735,4|8,1:2|0:0,0:0:0:0:
335,32,52124,5,8,0:0:0:0:
335,32,52204,1,8,0:0:0:0:
335,32,52283,2,0,L|377:20,1,44.0000013427735,8|8,0:0|0:0,0:0:0:0:
272,121,52443,6,0,P|252:115|230:112,3,44.0000013427735,8|8|8|4,1:3|0:3|0:3|0:3,0:0:0:0:
128,160,52762,5,6,0:3:0:0:
128,160,52842,1,4,0:3:0:0:
128,160,52922,2,0,B|114:100|114:100|116:96|116:96|101:30,2,132.00000402832,14|10|10,1:2|1:2|1:2,0:0:0:0:
81,258,53560,6,0,P|143:200|228:209,1,176.000005371094,6|0,1:2|1:2,0:0:0:0:
392,136,54039,1,0,1:2:0:0:
265,38,54198,2,0,P|274:80|283:124,1,88.000002685547,0|8,1:2|1:2,0:0:0:0:
417,230,54517,1,8,1:2:0:0:
288,288,54677,1,8,1:2:0:0:
392,136,54837,6,0,P|434:145|478:154,1,88.000002685547,12|0,0:0|1:0,0:0:0:0:
512,384,55156,6,0,P|441:332|358:356,1,180.000006866455,12|0,0:0|0:0,0:0:0:0:
279,331,55475,2,0,L|287:287,3,44.0000013427735,8|8|4|4,0:3|0:3|0:3|0:3,0:0:0:0:
224,224,55794,2,0,L|215:180,3,44.0000013427735,12|2|2|2,0:0|0:0|0:0|0:0,0:0:0:0:
313,117,56113,6,0,P|400:131|464:69,2,184.000003509522,6|8|2,1:2|0:0|1:0,0:0:0:0:
256,0,56911,1,2,0:0:0:0:
136,104,57071,2,0,P|180:91|225:80,1,92.0000017547608,10|2,0:0|0:0,0:0:0:0:
36,52,57390,6,0,P|21:119|10:187,1,138.000002632141,2|0,1:0|0:0,0:0:0:0:
4,220,57709,2,0,P|48:207|93:198,1,92.0000017547608,10|0,0:0|0:0,0:0:0:0:
224,320,58028,1,2,1:0:0:0:
64,288,58188,1,0,0:0:0:0:
144,136,58347,2,0,P|167:174|168:220,1,92.0000017547608,10|0,0:0|3:0,0:0:0:0:
135,358,58666,6,0,B|197:346|197:346|241:369|241:369|310:355,1,184.000003509522,6|8,1:2|0:0,0:0:0:0:
460,384,59145,1,0,3:0:0:0:
422,225,59305,2,0,P|404:267|400:313,1,92.0000017547608,0|0,1:0|0:0,0:0:0:0:
512,248,59624,1,8,0:0:0:0:
351,168,59783,6,0,L|169:198,1,184.000003509522,2|2,0:0|0:0,0:0:0:0:
86,120,60262,1,10,0:0:0:0:
86,120,60422,1,2,0:0:0:0:
18,251,60581,6,0,P|63:257|106:273,1,92.0000017547608,2|2,1:0|0:0,0:0:0:0:
271,223,60900,1,10,0:0:0:0:
211,363,61060,1,2,0:0:0:0:
169,197,61220,6,0,P|181:129|189:60,1,138.000002632141,2|0,1:0|0:0,0:0:0:0:
174,32,61539,2,0,P|219:24|263:12,1,92.0000017547608,10|0,0:0|0:0,0:0:0:0:
389,148,61858,2,0,P|344:136|299:128,1,92.0000017547608,2|0,1:0|0:0,0:0:0:0:
434,60,62177,1,8,0:0:0:0:
434,60,62337,1,0,0:0:0:0:
512,224,62496,6,0,P|444:220|394:265,1,138.000002632141,2|0,1:0|0:0,0:0:0:0:
377,291,62815,2,0,P|331:281|286:272,1,92.0000017547608,10|0,0:0|0:0,0:0:0:0:
160,352,63134,1,2,1:0:0:0:
160,352,63294,1,0,0:0:0:0:
165,187,63454,2,0,P|193:224|199:269,1,92.0000017547608,8|0,0:0|0:0,0:0:0:0:
26,283,63773,6,0,P|69:269|114:259,1,92.0000017547608,0|0,1:0|3:0,0:0:0:0:
188,60,64092,2,0,P|275:47|339:109,1,184.000003509522,12|0,0:0|1:0,0:0:0:0:
404,264,64571,1,2,0:0:0:0:
450,63,64730,1,10,0:0:0:0:
310,195,64890,1,6,0:3:0:0:
500,244,65049,1,10,0:0:0:0:
500,244,65368,6,0,B|404:232|448:324|346:313,1,180.000006866455,14|0,0:0|0:0,0:0:0:0:
284,368,65688,5,12,1:2:0:0:
268,336,65767,1,8,0:0:0:0:
264,300,65847,1,8,0:0:0:0:
276,264,65927,1,8,0:0:0:0:
304,240,66007,2,0,L|310:194,1,46.0000008773804,8|8,0:0|0:0,0:0:0:0:
408,112,66166,2,0,L|401:157,1,46.0000008773804,8|8,0:0|0:0,0:0:0:0:
245,53,66326,6,0,B|208:16|156:36|156:36|132:80|85:79,1,184.000003509522,6|8,1:2|0:0,0:0:0:0:
0,216,66805,1,0,0:0:0:0:
0,216,66964,2,0,P|44:227|88:242,1,92.0000017547608,2|2,1:0|0:0,0:0:0:0:
176,164,67283,1,10,0:0:0:0:
176,164,67443,1,2,0:0:0:0:
316,328,67602,6,0,P|262:368|197:354,1,138.000002632141,2|0,1:0|0:0,0:0:0:0:
160,348,67922,2,0,P|167:302|179:258,1,92.0000017547608,10|0,0:0|0:0,0:0:0:0:
168,80,68241,5,2,1:0:0:0:
168,80,68400,1,0,0:0:0:0:
88,193,68560,2,0,P|131:176|175:164,1,92.0000017547608,8|0,0:0|3:0,0:0:0:0:
331,20,68879,6,0,P|404:68|399:156,1,184.000003509522,0|8,1:2|0:0,0:0:0:0:
501,224,69358,1,0,3:0:0:0:
390,329,69517,2,0,P|404:288|414:240,1,92.0000017547608,0|0,1:0|0:0,0:0:0:0:
294,354,69837,1,8,0:0:0:0:
476,384,69996,6,0,P|386:363|294:354,1,184.000003509522,6|2,1:2|3:0,0:0:0:0:
136,256,70475,2,0,P|181:251|226:241,1,92.0000017547608,10|2,0:0|0:0,0:0:0:0:
280,104,70794,1,2,1:0:0:0:
320,268,70954,1,2,0:0:0:0:
440,176,71113,1,10,0:0:0:0:
280,104,71273,5,10,0:0:0:0:
272,96,71352,1,8,0:0:0:0:
264,88,71432,2,0,P|196:102|129:118,1,138.000002632141,6|0,1:2|0:0,0:0:0:0:
96,140,71751,2,0,P|103:94|109:48,1,92.0000017547608,10|0,0:0|0:0,0:0:0:0:
8,232,72071,1,2,1:0:0:0:
8,232,72230,2,0,L|17:276,1,46.0000008773804,8|0,0:0|0:0,0:0:0:0:
124,332,72390,2,0,L|104:242,1,92.0000017547608,10|2,0:0|0:0,0:0:0:0:
280,104,72709,6,0,P|347:116|416:126,1,138.000002632141,2|0,1:0|0:0,0:0:0:0:
447,105,73028,2,0,P|433:60|421:16,1,92.0000017547608,10|0,0:0|0:0,0:0:0:0:
373,223,73347,5,2,1:0:0:0:
372,222,73507,2,0,P|379:245|383:267,1,46.0000008773804,8|0,0:0|0:0,0:0:0:0:
463,336,73666,2,0,P|468:290|480:245,1,92.0000017547608,10|0,0:0|0:0,0:0:0:0:
320,384,73985,6,0,P|277:366|232:357,1,92.0000017547608,6|0,1:2|1:0,0:0:0:0:
104,242,74305,2,0,P|149:232|191:215,1,92.0000017547608,8|0,0:0|0:0,0:0:0:0:
382,266,74624,5,0,1:0:0:0:
320,91,74783,1,0,1:0:0:0:
272,295,74943,1,8,0:0:0:0:
463,191,75102,5,0,1:0:0:0:
463,191,75182,1,0,1:0:0:0:
463,191,75262,2,0,P|420:176|374:173,1,92.0000017547608,12|0,0:0|1:0,0:0:0:0:
170,10,75581,6,0,P|222:54|227:121,1,138.000002632141,12|0,0:0|0:0,0:0:0:0:
160,180,75900,1,4,0:3:0:0:
160,180,75980,1,4,0:3:0:0:
160,180,76060,2,0,P|137:175|115:168,1,46.0000008773804,8|8,0:3|0:0,0:0:0:0:
32,256,76220,2,0,P|45:299|55:344,1,92.0000017547608,8|8,0:0|0:0,0:0:0:0:
55,344,76459,1,8,0:0:0:0:
55,344,76539,6,0,B|111:306|172:343|152:364|219:398|268:357|268:357|212:325|212:237|292:189|378:251|349:319,1,512,4|2,1:2|0:0,0:0:0:0:
349,320,78454,5,2,0:0:0:0:
349,320,78613,2,0,P|332:260|356:202,1,128,2|0,0:0|0:0,0:0:0:0:
434,88,79092,6,0,B|425:138|454:167|454:167|455:111|396:69|330:87|330:87|304:156|208:164|160:104|196:44|232:40|260:60,1,512,2|2,0:0|3:2,0:0:0:0:
260,60,80847,5,10,0:0:0:0:
192,128,81007,2,0,P|160:121|129:113,2,64,8|8|8,0:0|1:3|0:3,0:0:0:0:
260,60,81485,1,6,0:3:0:0:
40,176,81645,6,0,P|30:130|18:86,1,92.0000017547608,4|0,1:2|1:0,0:0:0:0:
171,217,81964,2,0,P|180:171|192:127,1,92.0000017547608,2|0,1:0|1:0,0:0:0:0:
24,292,82283,5,0,1:0:0:0:
29,289,82443,2,0,L|118:308,1,92.0000017547608,0|0,1:0|1:0,0:0:0:0:
254,356,82762,6,0,B|250:315|270:282|270:282|261:250|261:250|282:219|280:180,1,184.000003509522,0|8,1:0|1:2,0:0:0:0:
216,11,83241,1,8,1:2:0:0:
216,11,83400,1,8,1:2:0:0:
102,153,83560,6,0,P|145:138|190:127,1,92.0000017547608,8|8,1:2|1:2,0:0:0:0:
322,19,83879,1,8,1:2:0:0:
449,139,84039,5,8,1:2:0:0:
449,139,84118,1,0,1:0:0:0:
449,139,84198,2,0,L|439:183,3,46.0000008773804,12|0|0|0,1:2|1:2|1:2|1:2,0:0:0:0:
489,256,84517,5,8,1:2:0:0:
470,280,84597,1,0,1:2:0:0:
443,296,84677,1,0,1:2:0:0:
412,299,84757,1,0,1:2:0:0:
384,288,84837,2,0,L|339:297,3,46.0000008773804,8|0|0|0,1:2|1:2|1:2|1:2,0:0:0:0:
263,357,85156,2,0,L|218:348,3,46.0000008773804,8|0|0|0,1:2|1:2|1:2|1:2,0:0:0:0:
96,288,85475,5,8,1:2:0:0:
96,288,85555,1,0,1:2:0:0:
96,288,85634,2,0,L|106:332,1,46.0000008773804,0|0,1:2|1:2,0:0:0:0:
224,224,85794,5,8,1:2:0:0:
224,224,85874,1,8,0:2:0:0:
224,224,85954,2,0,L|234:179,1,46.0000008773804,8|8,0:2|0:2,0:0:0:0:
160,52,86113,5,8,1:2:0:0:
133,25,86193,1,8,0:2:0:0:
97,16,86273,1,8,0:2:0:0:
60,25,86352,1,8,0:2:0:0:
35,52,86432,1,8,1:2:0:0:
24,87,86512,1,8,0:2:0:0:
35,123,86592,1,8,0:2:0:0:
60,149,86672,1,8,0:2:0:0:
97,158,86751,6,0,B|178:133|178:133|213:195|291:178,1,215.999993408203,4|8,1:2|0:0,0:0:0:0:
323,145,87310,1,8,0:0:0:0:
323,145,87390,2,0,L|310:73,2,71.9999978027344,8|8|4,0:0|0:3|0:3,0:0:0:0:
288,288,87868,6,0,P|355:264|426:252,2,143.999995605469,4|8|8,1:2|0:0|1:3,0:0:0:0:
76,362,88826,1,8,0:3:0:0:
19,299,88985,2,0,L|33:228,1,71.9999978027344,4|0,0:3|3:0,0:0:0:0:
21,198,89225,1,0,3:0:0:0:
21,198,89305,6,0,B|97:243|151:184|149:174|147:165|213:112|282:148,1,287.999991210938,4|8,1:2|0:3,0:0:0:0:
282,148,90102,1,0,3:0:0:0:
416,0,90262,1,8,0:0:0:0:
512,192,90422,1,4,1:2:0:0:
512,192,90741,5,8,0:0:0:0:
313,77,90900,1,8,0:0:0:0:
512,32,91060,5,8,0:3:0:0:
512,32,91140,1,8,0:3:0:0:
512,32,91220,2,0,L|500:65,3,35.9999989013672,4|4|0|0,0:3|0:3|1:3|0:0,0:0:0:0:
424,124,91539,2,0,P|376:114|330:104,1,95.9999970703126,12|0,0:2|0:0,0:0:0:0:
224,272,91858,6,0,P|265:258|309:251,1,88.000002685547,4|2,1:2|1:0,0:0:0:0:
246,70,92177,2,0,L|228:156,1,88.000002685547,10|2,0:0|0:0,0:0:0:0:
228,156,92416,1,0,0:0:0:0:
228,156,92496,1,2,1:0:0:0:
379,303,92656,2,0,P|393:262|386:219,1,88.000002685547,0|10,1:0|0:0,0:0:0:0:
236,368,92975,6,0,P|150:348|64:329,1,176.000005371094,10|0,0:0|1:0,0:0:0:0:
165,215,93454,1,10,0:0:0:0:
51,150,93613,2,0,P|64:191|74:234,1,88.000002685547,0|2,0:0|1:0,0:0:0:0:
240,128,93932,1,0,1:0:0:0:
152,16,94092,2,0,P|139:57|129:100,1,88.000002685547,10|0,0:0|1:0,0:0:0:0:
128,100,94331,1,0,1:0:0:0:
128,100,94411,1,12,0:0:0:0:
264,221,94571,6,0,L|350:202,1,88.000002685547,0|10,1:0|0:0,0:0:0:0:
491,113,94890,1,0,1:0:0:0:
354,34,95049,2,0,P|370:74|380:117,1,88.000002685547,10|0,0:0|1:0,0:0:0:0:
461,18,95368,1,10,0:0:0:0:
444,183,95528,6,0,P|358:169|272:150,1,176.000005371094,2|0,1:0|1:0,0:0:0:0:
96,192,96007,1,10,3:2:0:0:
204,75,96166,1,2,3:0:0:0:
40,44,96326,6,0,L|31:87,3,44.0000013427735,10|0|8|0,3:3|3:0|0:0|0:0,0:0:0:0:
87,148,96645,2,0,L|95:191,3,44.0000013427735,8|8|8|8,1:2|0:0|0:0|0:0,0:0:0:0:
14,246,96964,6,0,P|83:235|139:277,1,143.999995605469,4|0,1:2|1:0,0:0:0:0:
188,365,97443,2,0,P|152:369|117:377,1,71.9999978027344,2|0,0:0|1:0,0:0:0:0:
230,255,97762,1,2,0:0:0:0:
230,255,97922,2,0,P|265:262|300:267,1,71.9999978027344,2|2,1:0|0:0,0:0:0:0:
139,277,98241,6,0,L|112:135,1,143.999995605469,2|2,1:0|1:2,0:0:0:0:
203,84,98720,2,0,P|132:89|78:45,1,143.999995605469,2|2,0:0|0:0,0:0:0:0:
26,208,99198,2,0,P|59:197|95:190,1,71.9999978027344,0|0,1:0|0:0,0:0:0:0:
270,27,99517,6,0,P|253:96|241:167,1,143.999995605469,2|0,1:0|1:0,0:0:0:0:
139,277,99996,2,0,P|130:241|118:208,1,71.9999978027344,2|0,0:0|1:0,0:0:0:0:
253,310,100315,1,2,0:0:0:0:
253,310,100475,2,0,P|240:343|232:378,1,71.9999978027344,2|2,1:0|0:0,0:0:0:0:
345,277,100794,6,0,L|485:246,1,143.999995605469,2|0,1:0|1:0,0:0:0:0:
511,143,101273,2,0,P|458:98|388:101,1,143.999995605469,2|2,0:0|3:0,0:0:0:0:
356,121,101672,1,0,3:0:0:0:
356,121,101751,2,0,L|368:50,1,71.9999978027344,6|0,1:2|0:0,0:0:0:0:
251,211,102071,5,6,1:2:0:0:
89,147,102230,2,0,P|149:97|226:107,1,160,8|2,0:0|1:0,0:0:0:0:
155,224,102709,2,0,P|78:199|0:194,1,160,10|8,0:0|0:0,0:0:0:0:
24,280,103188,1,2,1:0:0:0:
176,136,103507,6,0,P|236:183|232:260,1,160,10|2,0:0|0:0,0:0:0:0:
263,371,103985,2,0,P|224:360|185:352,1,80,10|0,0:0|1:0,0:0:0:0:
309,242,104305,2,0,P|270:252|231:260,1,80,2|0,3:0|0:0,0:0:0:0:
460,291,104624,5,6,1:2:0:0:
420,372,104783,2,0,L|394:213,1,160,8|0,0:0|1:0,0:0:0:0:
512,128,105262,2,0,P|501:166|496:206,1,80,8|0,0:0|1:0,0:0:0:0:
378,93,105581,2,0,L|338:101,1,40,8|0,0:3|3:0,0:0:0:0:
280,160,105741,2,0,L|240:151,1,40,8|8,0:0|0:0,0:0:0:0:
150,130,105900,2,0,P|154:91|162:52,1,80,12|0,0:2|1:0,0:0:0:0:
40,0,106220,5,0,1:0:0:0:
103,203,106379,1,10,0:0:0:0:
103,203,106698,6,0,P|162:152|240:150,1,160,10|0,0:0|3:0,0:0:0:0:
320,224,107177,1,4,1:2:0:0:
320,224,107496,6,0,P|362:212|405:205,1,88.000002685547,10|0,0:0|0:0,0:0:0:0:
509,250,107815,1,2,1:0:0:0:
509,250,107975,1,0,0:0:0:0:
426,124,108134,2,0,P|403:161|405:204,1,88.000002685547,10|0,0:0|0:0,0:0:0:0:
472,328,108454,6,0,B|380:316|411:389|310:375,1,176.000005371094,2|10,1:0|0:0,0:0:0:0:
113,310,108932,2,0,P|156:303|199:292,1,88.000002685547,2|0,0:0|1:0,0:0:0:0:
56,165,109251,1,0,3:0:0:0:
56,165,109411,2,0,L|39:251,1,88.000002685547,10|2,0:0|0:0,0:0:0:0:
220,378,109730,6,0,B|259:338|236:273|236:273|252:211,1,176.000005371094,2|10,1:0|0:0,0:0:0:0:
198,59,110209,2,0,P|185:101|180:144,1,88.000002685547,2|0,0:0|1:0,0:0:0:0:
0,93,110528,1,2,0:0:0:0:
0,93,110688,2,0,P|42:81|85:76,1,88.000002685547,8|2,0:0|0:0,0:0:0:0:
270,161,111007,6,0,P|218:227|134:219,1,176.000005371094,2|10,1:0|0:0,0:0:0:0:
216,41,111485,2,0,P|258:52|301:63,1,88.000002685547,8|0,0:3|1:0,0:0:0:0:
431,89,111805,2,0,L|474:78,2,44.0000013427735,4|4|0,0:3|0:3|1:0,0:0:0:0:
384,185,112124,5,4,0:3:0:0:
384,185,112204,1,4,0:3:0:0:
384,185,112283,2,0,B|371:120|371:120|391:80|391:80|379:16,2,176.000005371094,4|10|2,1:2|0:0|1:0,0:0:0:0:
499,255,113081,1,0,1:0:0:0:
391,345,113241,2,0,P|349:335|306:327,1,88.000002685547,8|0,0:0|0:0,0:0:0:0:
134,219,113560,6,0,P|186:153|270:161,1,176.000005371094,2|10,1:0|0:0,0:0:0:0:
224,304,114039,2,0,B|129:288|161:360|58:339,1,176.000005371094,6|2,1:2|3:0,0:0:0:0:
0,240,114517,1,10,0:0:0:0:
112,134,114677,5,0,3:0:0:0:
112,134,114757,1,0,3:0:0:0:
112,134,114837,2,0,P|126:174|134:219,1,88.000002685547,8|0,0:0|1:0,0:0:0:0:
272,280,115156,2,0,P|263:322|248:364,1,88.000002685547,8|0,0:0|1:0,0:0:0:0:
216,382,115395,5,0,1:0:0:0:
216,381,115475,2,0,P|175:367|132:359,1,88.000002685547,8|0,0:0|1:0,0:0:0:0:
89,372,115714,1,0,1:0:0:0:
89,372,115794,2,0,L|73:285,1,88.000002685547,8|0,0:0|1:0,0:0:0:0:
177,82,116113,6,0,P|248:127|251:211,1,176.000005371094,8|12,0:0|0:2,0:0:0:0:
80,188,116592,1,8,0:3:0:0:
80,188,116672,1,8,0:3:0:0:
80,188,116751,2,0,P|123:181|166:170,1,88.000002685547,8|4,1:3|0:3,0:0:0:0:
166,169,116991,1,4,0:3:0:0:
166,169,117071,1,4,1:3:0:0:
248,56,117230,1,4,0:3:0:0:
248,56,117310,1,0,1:0:0:0:
248,56,117390,1,4,1:2:0:0:
248,56,117709,6,0,P|258:98|266:142,1,88.000002685547,8|0,0:0|1:0,0:0:0:0:
440,188,118028,2,0,P|448:144|458:101,1,88.000002685547,8|0,0:0|1:0,0:0:0:0:
348,228,118347,1,8,0:0:0:0:
500,280,118507,5,0,1:0:0:0:
500,280,118587,1,0,1:0:0:0:
499,280,118666,2,0,P|457:289|415:302,1,88.000002685547,8|0,0:0|1:0,0:0:0:0:
348,228,118985,1,0,1:0:0:0:
284,356,119145,6,0,B|192:336|192:336|168:372|122:371,1,176.000005371094,12|10,0:0|0:3,0:0:0:0:
36,276,119624,1,10,0:0:0:0:
144,200,119783,5,10,0:3:0:0:
144,200,119863,1,4,0:3:0:0:
143,200,119943,2,0,P|132:242|125:286,1,88.000002685547,6|0,1:2|1:0,0:0:0:0:
236,200,120262,1,10,0:0:0:0:
72,136,120422,2,0,L|29:146,2,44.0000013427735,10|8|8,0:0|0:0|0:0,0:0:0:0:
248,80,120741,1,2,1:0:0:0:
104,16,120900,1,8,0:0:0:0:
168,168,121060,6,0,P|148:253|140:341,1,176.000005371094,6|0,1:2|1:0,0:0:0:0:
8,264,121539,2,0,P|50:252|93:245,1,88.000002685547,10|0,0:0|3:0,0:0:0:0:
93,244,121778,1,0,3:0:0:0:
93,244,121858,1,2,1:0:0:0:
264,224,122017,1,2,3:0:0:0:
264,224,122097,1,0,3:0:0:0:
264,224,122177,2,0,L|272:180,1,44.0000013427735,10|8,0:0|0:0,0:0:0:0:
156,112,122337,2,0,L|164:156,1,44.0000013427735,8|8,0:0|0:0,0:0:0:0:
184,296,122496,5,0,1:2:0:0:
408,120,126326,6,0,B|392:61|440:36|440:36|487:46,2,143.999995605469,8|8|6,1:2|1:3|1:3,0:0:0:0:
496,204,126964,1,10,0:0:0:0:
412,320,127124,1,10,0:0:0:0:
388,323,127204,1,8,0:0:0:0:
364,326,127283,1,10,0:3:0:0:
340,329,127363,1,8,0:3:0:0:
316,332,127443,1,6,0:3:0:0:
293,335,127523,1,4,0:3:0:0:
269,338,127602,1,4,1:2:0:0:
269,338,127922,6,0,P|276:297|284:258,1,80,2|0,1:0|0:0,0:0:0:0:
184,204,128241,2,0,P|107:215|47:166,1,160,2|8,1:0|0:0,0:0:0:0:
144,56,128720,1,0,3:0:0:0:
144,56,128799,1,0,3:0:0:0:
143,56,128879,2,0,P|133:94|128:134,1,80,0|0,1:0|0:0,0:0:0:0:
280,232,129198,2,0,P|274:192|265:153,1,80,10|0,0:0|3:0,0:0:0:0:
320,40,129517,5,2,1:0:0:0:
320,40,129597,2,0,P|357:54|396:62,1,80,8|0,0:0|0:0,0:0:0:0:
424,48,129837,1,14,0:0:0:0:
484,180,129996,5,0,1:0:0:0:
484,180,130076,1,0,1:0:0:0:
484,180,130156,2,0,L|476:219,1,40,10|8,1:2|0:0,0:0:0:0:
496,312,130315,5,8,0:0:0:0:
468,316,130395,1,8,0:0:0:0:
440,320,130475,1,10,0:0:0:0:
412,324,130555,1,8,0:0:0:0:
383,327,130634,2,0,P|366:319|346:316,1,40,6|4,1:3|0:3,0:0:0:0:
240,368,130794,5,4,0:3:0:0:
220,348,130874,1,4,0:3:0:0:
212,320,130954,1,4,0:3:0:0:
216,288,131033,1,4,0:3:0:0:
236,268,131113,2,0,L|276:260,1,40,8|8,1:2|0:0,0:0:0:0:
348,188,131273,5,8,0:0:0:0:
348,188,131352,1,8,0:0:0:0:
348,188,131432,2,0,L|354:148,1,40,8|8,0:0|0:0,0:0:0:0:
260,64,131592,2,0,L|266:103,3,40,4|4|4|4,1:3|0:3|0:3|0:3,0:0:0:0:
192,176,131911,5,4,0:3:0:0:
192,176,131991,1,4,0:3:0:0:
192,176,132071,2,0,B|131:169|131:169|127:173|127:173|62:166,2,132.00000402832,10|10|10,1:2|1:2|1:2,0:0:0:0:
344,19,132709,6,0,P|429:18|486:82,1,176.000005371094,6|8,1:2|1:2,0:0:0:0:
344,152,133188,1,0,1:0:0:0:
440,272,133347,6,0,P|450:229|456:185,1,88.000002685547,8|8,1:2|1:2,0:0:0:0:
320,328,133666,1,8,1:2:0:0:
268,184,133826,1,8,1:2:0:0:
416,376,133985,6,0,P|458:363|501:353,1,88.000002685547,12|8,1:2|0:0,0:0:0:0:
501,353,134225,1,8,0:0:0:0:
501,353,134305,1,12,1:2:0:0:
359,236,134464,2,0,P|338:239|317:247,1,44.0000013427735,8|8,0:3|0:3,0:0:0:0:
220,348,134624,5,8,0:0:0:0:
180,358,134704,1,8,0:0:0:0:
140,355,134783,1,8,0:0:0:0:
108,333,134863,1,8,0:0:0:0:
90,297,134943,1,8,0:0:0:0:
83,258,135023,1,8,0:0:0:0:
94,222,135102,1,8,0:0:0:0:
122,193,135182,1,8,0:0:0:0:
158,173,135262,6,0,P|166:83|128:0,2,184.000003509522,6|8|2,1:2|0:0|1:0,0:0:0:0:
180,308,136060,1,2,0:0:0:0:
36,271,136220,2,0,P|74:247|119:245,1,92.0000017547608,10|2,0:0|0:0,0:0:0:0:
280,384,136539,6,0,P|292:316|304:248,1,138.000002632141,2|0,1:0|0:0,0:0:0:0:
312,211,136858,2,0,P|267:225|222:231,1,92.0000017547608,10|0,0:0|0:0,0:0:0:0:
16,160,137177,5,2,1:0:0:0:
50,301,137337,1,0,0:0:0:0:
16,160,137496,2,0,P|29:115|35:70,1,92.0000017547608,10|0,0:0|3:0,0:0:0:0:
160,254,137815,6,0,P|224:194|312:211,1,184.000003509522,6|8,1:2|0:0,0:0:0:0:
480,259,138294,1,0,3:0:0:0:
432,107,138454,2,0,P|415:150|405:194,1,92.0000017547608,0|0,1:0|0:0,0:0:0:0:
497,348,138773,5,8,0:0:0:0:
312,211,138932,2,0,B|213:200|248:273|144:263,1,184.000003509522,2|2,0:0|0:0,0:0:0:0:
6,195,139411,1,10,0:0:0:0:
6,195,139571,1,2,0:0:0:0:
88,90,139730,6,0,L|105:180,1,92.0000017547608,2|2,1:0|0:0,0:0:0:0:
32,288,140049,1,10,0:0:0:0:
180,353,140209,5,10,0:0:0:0:
180,353,140289,1,8,0:0:0:0:
179,353,140368,2,0,P|234:314|301:323,1,138.000002632141,2|0,1:0|0:0,0:0:0:0:
337,353,140688,2,0,P|382:348|425:333,1,92.0000017547608,10|0,0:0|0:0,0:0:0:0:
382,173,141007,2,0,P|366:216|362:261,1,92.0000017547608,2|0,1:0|0:0,0:0:0:0:
512,192,141326,1,10,0:0:0:0:
512,192,141485,1,0,0:0:0:0:
336,80,141645,6,0,P|269:99|202:113,1,138.000002632141,2|0,1:0|0:0,0:0:0:0:
170,120,141964,2,0,P|183:76|188:31,1,92.0000017547608,10|0,0:0|0:0,0:0:0:0:
38,171,142283,1,2,1:0:0:0:
0,39,142443,1,0,0:0:0:0:
44,182,142602,2,0,B|72:230|72:230|88:273|61:308,1,138.000002632141,10|0,0:0|0:0,0:0:0:0:
0,384,142922,6,0,B|32:338|88:335|88:335|114:362|162:354,1,184.000003509522,6|12,1:2|0:0,0:0:0:0:
259,277,143400,2,0,L|308:291,2,46.0000008773804,0|0|0,3:0|3:0|1:0,0:0:0:0:
78,207,143720,1,2,0:0:0:0:
245,178,143879,1,10,0:0:0:0:
125,22,144039,1,6,0:3:0:0:
244,178,144198,6,0,P|287:161|332:150,1,92.0000017547608,10|0,0:0|1:0,0:0:0:0:
385,78,144438,1,0,1:0:0:0:
385,78,144517,2,0,P|448:136|430:220,1,180.000006866455,14|0,0:0|0:0,0:0:0:0:
471,304,144837,5,12,1:2:0:0:
448,277,144916,1,8,0:0:0:0:
418,262,144996,1,8,0:0:0:0:
383,262,145076,1,8,0:0:0:0:
352,274,145156,2,0,P|329:270|306:268,1,46.0000008773804,8|8,0:0|0:0,0:0:0:0:
232,320,145315,2,0,P|209:324|186:326,1,46.0000008773804,8|8,0:0|0:0,0:0:0:0:
95,383,145475,6,0,P|37:316|57:230,1,184.000003509522,6|8,1:2|0:0,0:0:0:0:
91,106,145954,1,0,0:0:0:0:
91,106,146113,2,0,L|1:126,1,92.0000017547608,2|2,1:0|0:0,0:0:0:0:
168,184,146432,1,10,0:0:0:0:
208,24,146592,1,2,0:0:0:0:
164,202,146751,6,0,P|178:269|188:337,1,138.000002632141,2|0,1:0|0:0,0:0:0:0:
184,367,147071,2,0,P|227:352|272:347,1,92.0000017547608,10|0,0:0|0:0,0:0:0:0:
408,237,147390,1,2,1:0:0:0:
408,237,147549,1,0,0:0:0:0:
460,355,147709,2,0,L|370:335,1,92.0000017547608,10|0,0:0|3:0,0:0:0:0:
332,148,148028,6,0,P|393:84|480:100,1,184.000003509522,2|8,1:2|0:0,0:0:0:0:
360,256,148507,1,0,3:0:0:0:
360,256,148666,2,0,P|316:241|270:233,1,92.0000017547608,0|0,1:0|0:0,0:0:0:0:
144,212,148985,1,8,0:0:0:0:
216,336,149145,6,0,B|184:240|260:268|219:158,1,184.000003509522,6|2,1:2|3:0,0:0:0:0:
96,68,149624,2,0,P|52:82|7:91,1,92.0000017547608,10|2,0:0|0:0,0:0:0:0:
144,212,149943,1,6,1:2:0:0:
200,64,150102,2,0,P|196:41|192:18,2,46.0000008773804,2|8|10,0:0|0:0|0:0,0:0:0:0:
96,140,150422,1,10,0:3:0:0:
271,233,150581,6,0,P|338:217|406:205,1,138.000002632141,6|0,1:2|0:0,0:0:0:0:
448,232,150900,2,0,P|455:186|464:141,1,92.0000017547608,10|0,0:0|0:0,0:0:0:0:
336,12,151220,1,2,1:0:0:0:
336,12,151379,2,0,L|345:56,1,46.0000008773804,8|0,0:0|0:0,0:0:0:0:
280,132,151539,2,0,B|242:108|242:108|196:119,1,92.0000017547608,10|2,0:0|0:0,0:0:0:0:
27,235,151858,6,0,P|-9:180|0:113,1,138.000002632141,2|0,1:0|0:0,0:0:0:0:
24,92,152177,2,0,P|69:89|112:73,1,92.0000017547608,10|0,0:0|0:0,0:0:0:0:
280,132,152496,5,2,1:0:0:0:
280,132,152656,2,0,P|285:155|290:177,1,46.0000008773804,8|0,0:0|0:0,0:0:0:0:
205,214,152815,2,0,P|209:236|214:258,1,46.0000008773804,10|0,0:0|0:0,0:0:0:0:
172,340,152975,5,8,0:0:0:0:
172,340,153055,1,8,0:0:0:0:
172,340,153134,2,0,P|216:350|260:364,1,92.0000017547608,6|0,1:2|1:0,0:0:0:0:
392,192,153454,2,0,P|347:202|303:216,1,92.0000017547608,8|0,0:0|0:0,0:0:0:0:
48,192,153773,5,8,0:0:0:0:
200,80,153932,1,0,1:0:0:0:
16,24,154092,1,8,0:0:0:0:
144,156,154251,5,0,1:0:0:0:
144,156,154331,1,0,1:0:0:0:
143,156,154411,2,0,P|132:200|128:246,1,92.0000017547608,14|0,0:0|1:0,0:0:0:0:
144,280,154650,1,0,1:0:0:0:
144,280,154730,2,0,L|99:289,1,46.0000008773804,12|0,0:0|0:0,0:0:0:0:
240,208,154890,2,0,L|284:217,1,46.0000008773804,0|0,1:0|0:0,0:0:0:0:
400,268,155049,5,6,1:3:0:0:
436,256,155129,1,4,1:3:0:0:
464,232,155209,1,8,1:3:0:0:
476,196,155289,1,8,1:3:0:0:
468,160,155368,1,8,0:0:0:0:
440,132,155448,1,8,0:0:0:0:
424,100,155528,1,8,0:0:0:0:
428,64,155608,1,8,0:0:0:0:
456,40,155688,6,0,P|391:101|304:85,2,184.000003509522,6|8|0,1:2|0:0|1:0,0:0:0:0:
404,152,156485,1,0,0:0:0:0:
284,72,156645,2,0,L|265:162,1,92.0000017547608,8|0,0:0|0:0,0:0:0:0:
336,312,156964,6,0,B|272:304|272:304|232:328|232:328|160:316,1,184.000003509522,0|8,1:0|0:0,0:0:0:0:
6,232,157443,1,2,0:0:0:0:
6,232,157523,1,2,0:0:0:0:
6,231,157602,2,0,P|51:222|95:210,1,92.0000017547608,2|0,1:0|0:0,0:0:0:0:
158,50,157922,2,0,P|113:37|68:29,1,92.0000017547608,8|0,0:0|3:0,0:0:0:0:
37,44,158161,5,0,3:0:0:0:
37,44,158241,2,0,L|53:134,1,92.0000017547608,2|0,1:0|0:0,0:0:0:0:
82,300,158560,2,0,P|148:240|236:256,1,184.000003509522,8|0,0:0|1:0,0:0:0:0:
416,320,159039,1,0,0:0:0:0:
256,368,159198,1,8,0:0:0:0:
352,240,159358,1,0,0:0:0:0:
213,167,159517,6,0,P|227:210|235:255,1,92.0000017547608,0|0,1:0|3:0,0:0:0:0:
448,96,159837,2,0,P|394:54|327:61,1,138.000002632141,8|0,0:0|0:0,0:0:0:0:
296,81,160156,2,0,P|250:73|207:59,1,92.0000017547608,0|0,1:0|3:0,0:0:0:0:
96,171,160475,1,8,0:0:0:0:
54,18,160634,1,0,3:0:0:0:
184,208,160794,6,0,B|85:192|113:267|11:247,2,184.000003509522,6|10|0,1:2|0:0|1:0,0:0:0:0:
330,259,161592,1,0,3:0:0:0:
291,109,161751,2,0,P|277:152|271:198,1,92.0000017547608,10|2,0:0|0:0,0:0:0:0:
163,326,162071,6,0,B|203:290|254:309|254:309|280:352|324:351,1,184.000003509522,2|10,1:0|0:0,0:0:0:0:
384,192,162549,1,2,0:0:0:0:
496,296,162709,2,0,P|450:303|406:316,1,92.0000017547608,0|0,1:0|0:0,0:0:0:0:
407,316,162948,1,0,0:0:0:0:
407,316,163028,6,0,L|413:270,1,46.0000008773804,10|8,0:0|0:3,0:0:0:0:
488,200,163188,2,0,L|481:154,1,46.0000008773804,4|4,0:3|0:3,0:0:0:0:
408,88,163347,2,0,P|363:99|318:109,1,92.0000017547608,6|0,1:2|3:0,0:0:0:0:
119,25,163666,6,0,B|90:9|90:9|37:13|6:60|23:115,1,180.000006866455,10|0,0:0|0:0,0:0:0:0:
1,144,163985,2,0,P|45:154|90:164,1,92.0000017547608,2|0,1:0|1:0,0:0:0:0:
256,288,164305,6,0,B|207:281|178:314|178:314|145:304|145:304|110:339|58:331,1,215.999993408203,14|0,0:0|0:0,0:0:0:0:
23,345,164624,2,0,P|16:299|5:254,1,92.0000017547608,2|2,1:0|1:0,0:0:0:0:
133,92,164943,6,0,B|160:107|174:137|174:137|236:156|279:103,1,180.000006866455,14|0,0:0|0:0,0:0:0:0:
301,73,165262,2,0,P|343:89|389:97,1,92.0000017547608,12|8,0:0|0:3,0:0:0:0:
512,189,165581,1,4,0:3:0:0:
325,240,165741,1,0,1:0:0:0:
426,358,165900,2,0,P|435:312|445:268,1,92.0000017547608,8|0,1:3|3:0,0:0:0:0:
287,383,166220,6,0,P|222:323|134:333,1,184.000003509522,14|2,0:0|1:2,0:0:0:0:
132,333,166698,1,2,0:0:0:0:
4,212,166858,2,0,P|48:221|93:234,1,92.0000017547608,10|0,0:0|3:0,0:0:0:0:
243,117,167177,5,2,1:0:0:0:
118,57,167337,1,2,3:0:0:0:
177,211,167496,1,10,0:0:0:0:
283,42,167656,6,0,B|317:60|345:82|345:82|329:122|317:188,1,184.000003509522,2|0,3:0|0:0,0:0:0:0:
408,336,168134,1,8,0:0:0:0:
512,240,168294,5,0,0:0:0:0:
512,240,168374,1,0,0:0:0:0:
512,240,168454,2,0,P|467:228|421:224,1,92.0000017547608,2|2,1:0|0:0,0:0:0:0:
317,351,168773,2,0,P|361:339|407:335,1,92.0000017547608,10|2,0:0|0:0,0:0:0:0:
328,156,169092,2,0,L|307:245,1,92.0000017547608,2|2,1:0|3:0,0:0:0:0:
307,245,169331,1,2,0:0:0:0:
307,245,169411,2,0,P|261:252|217:264,1,92.0000017547608,10|2,0:0|0:0,0:0:0:0:
144,380,169730,5,2,1:0:0:0:
144,380,169890,1,2,1:0:0:0:
48,300,170049,2,0,P|25:294|3:290,2,46.0000008773804,10|2|2,0:0|0:0|0:0,0:0:0:0:
217,264,170368,5,2,1:0:0:0:
52,384,170528,1,2,1:0:0:0:
24,188,170688,1,8,0:0:0:0:
224,272,170847,5,8,0:0:0:0:
224,272,170927,1,8,0:0:0:0:
224,272,171007,2,0,P|268:260|313:252,1,92.0000017547608,6|2,1:2|3:0,0:0:0:0:
440,84,171326,2,0,P|394:75|350:63,1,92.0000017547608,10|2,0:0|3:0,0:0:0:0:
280,144,171645,5,0,1:0:0:0:
280,144,171805,1,2,3:0:0:0:
392,284,171964,2,0,P|405:240|410:194,1,92.0000017547608,10|2,0:0|3:0,0:0:0:0:
220,360,172283,5,2,1:0:0:0:
168,168,172443,1,0,1:0:0:0:
32,316,172602,2,0,P|77:308|120:292,1,92.0000017547608,14|0,0:0|1:0,0:0:0:0:
120,292,172842,1,0,1:0:0:0:
120,292,172922,1,10,0:0:0:0:
313,251,173161,5,6,1:2:0:0:
84,132,173400,5,8,3:2:0:0:
271,56,173560,6,0,P|250:145|232:235,1,184.000003509522,6|8,1:2|0:0,0:0:0:0:
180,384,174039,2,0,P|249:328|337:345,1,184.000003509522,4|4,0:3|1:3,0:0:0:0:
423,193,174517,1,8,0:0:0:0:
501,304,174677,5,0,1:0:0:0:
501,304,174757,1,0,1:0:0:0:
501,304,174837,2,0,P|455:296|412:281,1,92.0000017547608,8|0,1:3|0:0,0:0:0:0:
336,132,175156,2,0,B|275:134|223:178|223:178|196:164|166:160,1,184.000003509522,8|0,0:0|0:0,0:0:0:0:
18,224,175634,1,0,1:0:0:0:
51,77,175794,1,8,0:0:0:0:
128,256,175954,5,0,1:0:0:0:
128,256,176033,1,0,1:0:0:0:
128,255,176113,2,0,P|117:299|109:345,1,92.0000017547608,12|0,0:0|1:0,0:0:0:0:
18,224,176432,1,0,1:0:0:0:
200,328,176592,6,0,B|264:320|312:352|312:352|341:340|363:311,1,184.000003509522,12|0,0:0|1:0,0:0:0:0:
489,185,177071,1,12,0:0:0:0:
301,254,177230,1,0,1:0:0:0:
398,130,177390,5,0,1:0:0:0:
454,317,177549,1,12,0:0:0:0:
392,115,177709,2,0,P|347:101|302:96,1,92.0000017547608,12|0,0:0|3:0,0:0:0:0:
176,8,178028,5,8,0:0:0:0:
140,16,178108,1,8,0:0:0:0:
116,44,178188,1,8,0:0:0:0:
104,80,178267,1,8,0:0:0:0:
120,112,178347,1,8,0:0:0:0:
120,148,178427,1,8,0:0:0:0:
100,180,178507,1,8,0:0:0:0:
68,196,178587,1,8,0:0:0:0:
32,192,178666,1,4,1:2:0:0:
164,352,188081,5,8,0:0:0:0:
256,332,188400,1,8,1:3:0:0:
256,332,188560,2,0,P|295:335|334:346,1,80,4|4,0:3|0:3,0:0:0:0:
508,252,188879,6,0,P|465:264|422:271,1,88.000002685547,14|0,0:2|1:0,0:0:0:0:
296,160,189198,2,0,P|339:166|381:179,1,88.000002685547,8|0,0:0|0:0,0:0:0:0:
334,346,189517,5,8,0:0:0:0:
334,346,189677,2,0,L|316:259,1,88.000002685547,0|2,1:0|1:0,0:0:0:0:
448,99,189996,6,0,B|399:85|363:109|363:109|346:149|295:159,1,176.000005371094,8|8,0:0|0:0,0:0:0:0:
128,96,190475,1,10,0:0:0:0:
272,8,190634,1,0,1:0:0:0:
200,174,190794,6,0,P|210:216|217:260,1,88.000002685547,10|0,0:0|0:0,0:0:0:0:
52,340,191113,2,0,P|44:296|34:253,1,88.000002685547,10|0,0:0|0:0,0:0:0:0:
40,240,191352,1,0,1:0:0:0:
45,228,191432,6,0,P|130:248|217:261,1,176.000005371094,14|0,0:0|1:0,0:0:0:0:
368,180,191911,1,12,0:0:0:0:
256,88,192071,2,0,P|267:130|271:174,1,88.000002685547,2|0,1:0|1:0,0:0:0:0:
376,348,192390,5,8,0:0:0:0:
467,294,192549,2,0,P|396:244|312:262,1,176.000005371094,6|8,1:2|0:0,0:0:0:0:
132,221,193028,1,8,0:0:0:0:
208,360,193188,1,0,1:0:0:0:
271,174,193347,6,0,L|261:132,3,44.0000013427735,4|4|8|8,0:3|0:3|0:3|0:3,0:0:0:0:
294,56,193666,1,8,0:0:0:0:
273,30,193745,1,8,0:0:0:0:
243,16,193825,1,8,0:0:0:0:
210,14,193905,1,8,0:0:0:0:
179,26,193985,6,0,P|167:68|161:111,1,88.000002685547,4|0,1:2|0:0,0:0:0:0:
96,192,194305,2,0,P|106:234|122:275,1,88.000002685547,8|0,0:0|1:0,0:0:0:0:
240,368,194624,5,8,0:0:0:0:
200,216,194783,1,0,1:0:0:0:
128,376,194943,1,8,0:0:0:0:
272,280,195102,1,0,1:0:0:0:
96,192,195262,6,0,P|53:202|10:214,1,88.000002685547,8|0,0:0|1:0,0:0:0:0:
216,56,195581,2,0,P|173:45|130:33,1,88.000002685547,8|0,0:0|1:0,0:0:0:0:
200,239,195900,6,0,P|189:197|181:153,1,88.000002685547,8|0,0:0|1:0,0:0:0:0:
304,48,196220,1,8,0:0:0:0:
368,200,196379,5,0,1:0:0:0:
368,200,196459,1,0,1:0:0:0:
368,200,196539,2,0,B|424:192|487:174|487:174|475:203|470:225,1,176.000005371094,12|0,0:0|1:0,0:0:0:0:
352,352,197017,1,0,1:0:0:0:
272,192,197177,1,0,1:0:0:0:
408,284,197337,1,0,1:0:0:0:
272,352,197496,2,0,P|229:341|186:331,1,88.000002685547,8|8,1:2|1:2,0:0:0:0:
0,217,197815,6,0,P|42:205|84:191,1,88.000002685547,8|8,1:2|1:2,0:0:0:0:
200,216,198134,1,8,1:2:0:0:
152,96,198294,2,0,L|119:268,1,176.000005371094,8|8,1:2|1:2,0:0:0:0:
16,128,198773,5,8,1:2:0:0:
96,360,198932,1,12,0:2:0:0:
443,361,201645,6,0,B|478:306|447:214|351:220|316:269|316:269|257:223|266:136|339:104|339:104|320:128|320:158,1,503.999984619141,4|0,1:2|0:0,0:0:0:0:
377,315,202922,6,0,P|306:319|235:332,1,143.999995605469,4|0,1:2|0:0,0:0:0:0:
159,383,203400,2,0,P|120:326|135:258,1,143.999995605469,8|8,1:3|0:3,0:0:0:0:
69,196,203879,2,0,P|34:202|0:211,1,71.9999978027344,4|0,0:3|1:0,0:0:0:0:
156,110,204198,1,0,1:0:0:0:
156,110,204358,1,0,1:0:0:0:
137,257,204517,6,0,B|186:235|229:255|229:255|249:302|289:309,1,180.000006866455,12|0,0:0|0:0,0:0:0:0:
323,299,204837,2,0,P|330:255|342:213,1,88.000002685547,0|0,1:0|1:0,0:0:0:0:
304,40,205156,1,12,0:0:0:0:
426,141,205315,5,2,1:0:0:0:
426,141,205395,1,0,1:0:0:0:
426,141,205475,2,0,P|383:128|340:122,1,88.000002685547,12|2,0:0|1:0,0:0:0:0:
222,238,205794,2,0,P|180:248|136:256,1,88.000002685547,14|0,0:0|0:0,0:0:0:0:
8,128,206113,5,0,1:0:0:0:
3,92,206193,1,0,1:0:0:0:
21,61,206273,1,8,0:0:0:0:
51,44,206352,1,8,0:0:0:0:
86,40,206432,1,8,0:0:0:0:
119,50,206512,1,8,0:0:0:0:
145,73,206592,1,8,0:0:0:0:
177,87,206672,1,8,0:0:0:0:
213,82,206751,6,0,P|257:72|303:65,1,92.0000017547608,6|0,1:2|0:0,0:0:0:0:
512,224,207071,2,0,B|450:237|443:186|379:199,1,138.000002632141,10|0,0:0|0:0,0:0:0:0:
348,219,207390,2,0,P|358:263|365:309,1,92.0000017547608,2|0,1:0|0:0,0:0:0:0:
230,206,207709,1,10,0:0:0:0:
160,320,207868,5,0,0:0:0:0:
160,320,207948,1,0,0:0:0:0:
159,320,208028,2,0,P|203:309|249:301,1,92.0000017547608,2|0,1:0|0:0,0:0:0:0:
419,155,208347,2,0,P|366:114|299:118,1,138.000002632141,10|0,0:0|0:0,0:0:0:0:
267,140,208666,2,0,P|222:136|177:124,1,92.0000017547608,2|0,1:0|0:0,0:0:0:0:
60,28,208985,1,10,0:0:0:0:
4,196,209145,5,0,0:0:0:0:
4,196,209225,1,0,0:0:0:0:
4,196,209305,2,0,P|16:240|23:285,1,92.0000017547608,2|0,1:0|0:0,0:0:0:0:
180,384,209624,6,0,B|216:340|188:288|188:288|180:248|202:210,1,184.000003509522,12|0,0:0|1:0,0:0:0:0:
304,80,210102,1,2,3:0:0:0:
140,40,210262,1,14,0:0:0:0:
284,176,210422,5,2,1:0:0:0:
284,176,210501,1,0,0:0:0:0:
284,176,210581,2,0,P|329:168|373:156,1,92.0000017547608,10|0,0:0|1:0,0:0:0:0:
503,364,210900,2,0,P|436:365|387:319,1,138.000002632141,14|0,0:0|0:0,0:0:0:0:
312,280,211220,5,8,0:0:0:0:
280,268,211299,1,8,0:0:0:0:
244,268,211379,1,8,0:0:0:0:
212,284,211459,1,8,0:0:0:0:
188,312,211539,2,0,P|165:318|143:324,1,46.0000008773804,8|8,0:0|0:3,0:0:0:0:
80,380,211698,2,0,P|57:373|35:367,1,46.0000008773804,4|4,0:3|0:3,0:0:0:0:
0,268,211858,6,0,B|-38:208|8:128|8:128|27:158,1,184.000003509522,6|8,1:2|0:0,0:0:0:0:
148,228,212337,1,0,0:0:0:0:
148,228,212496,2,0,P|192:214|236:203,1,92.0000017547608,2|0,1:0|0:0,0:0:0:0:
388,124,212815,1,10,0:0:0:0:
240,48,212975,1,0,0:0:0:0:
339,208,213134,6,0,P|324:275|316:343,1,138.000002632141,2|0,1:0|0:0,0:0:0:0:
336,376,213454,2,0,P|380:364|426:360,1,92.0000017547608,10|0,0:0|3:0,0:0:0:0:
236,202,213773,5,2,1:0:0:0:
236,202,213932,1,0,0:0:0:0:
140,296,214092,2,0,P|184:307|230:311,1,92.0000017547608,10|0,0:0|0:0,0:0:0:0:
103,383,214411,6,0,P|52:311|80:227,1,184.000003509522,2|8,1:0|0:0,0:0:0:0:
224,168,214890,1,0,3:0:0:0:
112,104,215049,2,0,P|71:90|23:80,1,92.0000017547608,0|0,1:0|0:0,0:0:0:0:
164,232,215369,1,8,0:0:0:0:
181,37,215528,6,0,B|209:48|248:57|248:57|228:113|223:168,1,184.000003509522,2|2,0:0|3:0,0:0:0:0:
79,295,216007,2,0,P|71:249|60:205,1,92.0000017547608,10|0,0:0|0:0,0:0:0:0:
208,360,216326,1,2,1:0:0:0:
248,200,216485,1,0,0:0:0:0:
203,377,216645,1,10,0:0:0:0:
345,252,216805,5,10,0:0:0:0:
345,252,216884,1,8,0:0:0:0:
345,252,216964,2,0,B|250:235|269:309|170:284,2,184.000003509522,6|8|0,1:2|0:0|1:0,0:0:0:0:
512,192,217762,1,2,0:0:0:0:
440,296,217922,2,0,L|422:205,1,92.0000017547608,10|2,0:0|0:0,0:0:0:0:
484,63,218241,6,0,P|430:22|363:31,1,138.000002632141,2|0,1:0|0:0,0:0:0:0:
334,54,218560,2,0,P|288:47|244:34,1,92.0000017547608,10|0,0:0|3:0,0:0:0:0:
176,184,218879,2,0,P|220:171|265:164,1,92.0000017547608,2|0,1:0|0:0,0:0:0:0:
83,36,219198,2,0,L|66:126,1,92.0000017547608,10|0,0:0|0:0,0:0:0:0:
3,301,219517,6,0,P|54:257|121:260,1,138.000002632141,4|0,1:2|0:0,0:0:0:0:
156,273,219837,2,0,P|162:227|175:183,1,92.0000017547608,8|0,0:0|0:0,0:0:0:0:
320,96,220156,1,2,1:0:0:0:
320,96,220315,1,0,0:0:0:0:
168,40,220475,2,0,P|123:52|78:62,1,92.0000017547608,14|0,0:0|0:0,0:0:0:0:
192,207,220794,6,0,P|203:162|216:118,1,92.0000017547608,12|8,0:0|0:0,0:0:0:0:
216,119,221033,1,8,0:0:0:0:
216,119,221113,1,8,0:3:0:0:
392,40,221273,2,0,L|402:84,1,46.0000008773804,8|8,0:3|0:3,0:0:0:0:
480,168,221432,1,4,0:3:0:0:
500,200,221512,1,4,0:3:0:0:
504,236,221592,1,0,1:0:0:0:
488,268,221672,1,0,1:0:0:0:
456,284,221751,1,12,0:0:0:0:
420,288,221831,1,0,1:0:0:0:
388,272,221911,1,0,1:0:0:0:
348,268,221991,1,0,1:0:0:0:
320,288,222071,6,0,P|311:333|305:378,1,92.0000017547608,4|8,1:2|1:2,0:0:0:0:
304,378,222310,1,8,0:2:0:0:
304,378,222390,2,0,L|259:368,1,46.0000008773804,8|8,0:2|0:2,0:0:0:0:
180,312,222549,6,0,P|134:318|91:333,1,92.0000017547608,8|4,0:0|1:3,0:0:0:0:
91,333,222789,1,4,0:3:0:0:
91,333,222868,1,4,0:3:0:0:
24,216,223028,2,0,P|46:219|68:227,2,46.0000008773804,4|4|4,0:3|0:3|0:3,0:0:0:0:
208,160,223347,5,8,1:3:0:0:
92,40,223507,2,0,P|80:84|73:129,1,92.0000017547608,4|8,0:3|0:0,0:0:0:0:
73,129,223746,1,8,0:0:0:0:
73,129,223826,2,0,P|95:124|118:121,1,46.0000008773804,8|8,0:0|0:0,0:0:0:0:
204,40,223985,5,8,0:0:0:0:
240,28,224065,1,8,0:0:0:0:
276,32,224145,1,8,0:0:0:0:
308,52,224225,1,8,0:0:0:0:
324,84,224304,1,8,0:3:0:0:
340,116,224384,1,8,0:3:0:0:
372,136,224464,1,4,0:3:0:0:
408,140,224544,1,4,0:3:0:0:
443,127,224624,6,0,P|355:119|295:185,1,184.000003509522,4|0,1:2|1:0,0:0:0:0:
416,288,225102,1,0,1:0:0:0:
256,352,225262,2,0,P|210:343|165:334,1,92.0000017547608,8|8,1:2|1:2,0:0:0:0:
12,220,225581,1,8,1:2:0:0:
73,370,225741,5,8,1:2:0:0:
73,370,225821,1,0,3:0:0:0:
73,370,225900,2,0,P|83:325|94:280,1,92.0000017547608,12|0,0:0|1:0,0:0:0:0:
208,112,226220,2,0,P|218:156|229:201,1,92.0000017547608,12|0,0:0|0:0,0:0:0:0:
372,332,226539,5,8,0:0:0:0:
408,316,226618,1,8,0:0:0:0:
440,288,226698,1,8,0:0:0:0:
448,248,226778,1,8,0:0:0:0:
432,208,226858,1,8,0:0:0:0:
400,180,226938,1,8,0:0:0:0:
384,140,227017,1,8,0:0:0:0:
388,100,227097,1,8,0:0:0:0:
416,72,227177,6,0,P|348:84|280:97,1,138.000002632141,6|0,1:2|0:0,0:0:0:0:
252,72,227496,2,0,P|206:64|161:57,1,92.0000017547608,10|0,0:0|0:0,0:0:0:0:
8,228,227815,2,0,P|94:242|151:175,1,184.000003509522,2|10,1:0|0:0,0:0:0:0:
151,175,228294,1,0,0:0:0:0:
268,40,228454,6,0,P|279:84|287:129,1,92.0000017547608,6|0,1:2|0:0,0:0:0:0:
448,216,228773,2,0,P|487:162|469:98,1,138.000002632141,10|0,0:0|0:0,0:0:0:0:
480,72,229092,2,0,P|436:86|391:96,1,92.0000017547608,8|4,1:3|0:3,0:0:0:0:
244,204,229411,2,0,P|288:214|332:228,1,92.0000017547608,10|0,0:0|0:0,0:0:0:0:
484,328,229730,6,0,P|416:344|352:369,1,138.000002632141,6|0,0:0|0:0,0:0:0:0:
316,380,230049,2,0,L|225:364,1,92.0000017547608,12|0,0:0|0:0,0:0:0:0:
32,288,230368,1,2,1:0:0:0:
32,288,230528,1,2,0:0:0:0:
190,242,230688,1,14,0:0:0:0:
98,366,230847,1,2,0:0:0:0:
94,197,231007,6,0,L|85:152,3,46.0000008773804,10|0|4|4,1:2|3:0|0:3|0:3,0:0:0:0:
186,115,231326,2,0,L|195:69,3,46.0000008773804,10|8|8|8,1:3|0:3|0:0|0:0,0:0:0:0:
320,192,231645,5,8,1:2:0:0:
349,201,231724,1,8,0:0:0:0:
379,198,231804,1,8,0:0:0:0:
406,182,231884,1,8,0:0:0:0:
425,158,231964,2,0,L|433:112,1,46.0000008773804,8|8,1:2|0:0,0:0:0:0:
503,224,232124,2,0,L|511:269,1,46.0000008773804,8|8,0:0|0:0,0:0:0:0:
447,383,232283,6,0,P|378:328|291:346,1,184.000003509522,6|8,1:2|0:0,0:0:0:0:
164,224,232762,1,0,0:0:0:0:
164,224,232922,2,0,P|209:232|253:243,1,92.0000017547608,2|2,1:0|0:0,0:0:0:0:
272,152,233241,1,10,0:0:0:0:
324,312,233400,1,2,0:0:0:0:
97,279,233560,6,0,P|110:212|125:145,1,138.000002632141,2|0,1:0|0:0,0:0:0:0:
97,120,233879,2,0,P|53:131|8:140,1,92.0000017547608,10|0,0:0|0:0,0:0:0:0:
179,10,234199,1,2,1:0:0:0:
179,10,234358,1,0,0:0:0:0:
208,160,234517,2,0,P|261:118|329:121,1,138.000002632141,10|0,0:0|3:0,0:0:0:0:
368,32,234837,6,0,P|386:122|404:212,1,184.000003509522,2|8,1:0|0:0,0:0:0:0:
384,384,235315,1,0,0:0:0:0:
481,284,235475,2,0,P|436:295|391:303,1,92.0000017547608,0|0,1:0|1:0,0:0:0:0:
315,228,235794,1,8,0:0:0:0:
217,342,235954,6,0,P|146:289|155:202,1,184.000003509522,6|2,0:2|0:0,0:0:0:0:
315,228,236432,2,0,P|270:241|227:255,1,92.0000017547608,10|10,0:0|0:0,0:0:0:0:
48,312,236751,2,0,P|25:272|29:227,1,92.0000017547608,10|10,0:0|0:3,0:0:0:0:
29,227,236991,1,8,0:3:0:0:
29,227,237071,1,10,0:3:0:0:
138,77,237230,5,6,0:3:0:0:
138,77,237310,1,4,0:3:0:0:
138,77,237390,2,0,P|204:96|270:115,1,138.000002632141,6|0,1:2|0:0,0:0:0:0:
305,128,237709,2,0,P|294:83|287:37,1,92.0000017547608,10|0,0:0|0:0,0:0:0:0:
477,4,238029,1,2,1:0:0:0:
477,4,238188,2,0,L|468:48,1,46.0000008773804,8|0,0:0|0:0,0:0:0:0:
424,175,238347,2,0,P|464:155|509:159,1,92.0000017547608,10|2,0:0|0:0,0:0:0:0:
409,351,238666,6,0,P|341:335|273:323,1,138.000002632141,2|0,1:0|0:0,0:0:0:0:
243,345,238985,2,0,L|226:254,1,92.0000017547608,10|0,0:0|0:0,0:0:0:0:
373,223,239305,5,2,1:0:0:0:
373,223,239465,2,0,P|380:246|384:268,1,46.0000008773804,8|0,0:0|0:0,0:0:0:0:
463,336,239624,2,0,P|468:290|480:245,1,92.0000017547608,10|0,0:0|0:0,0:0:0:0:
437,97,239943,6,0,P|369:102|312:64,1,138.000002632141,6|0,1:2|0:0,0:0:0:0:
289,35,240262,2,0,P|244:43|200:54,1,92.0000017547608,8|0,0:0|3:0,0:0:0:0:
106,180,240581,1,2,1:0:0:0:
48,48,240741,1,2,0:0:0:0:
196,145,240900,1,10,0:0:0:0:
20,228,241060,1,0,0:0:0:0:
20,228,241140,1,0,0:0:0:0:
20,228,241220,2,0,P|31:272|40:317,1,92.0000017547608,6|0,1:2|0:0,0:0:0:0:
192,372,241539,6,0,P|203:303|218:236,1,138.000002632141,8|0,0:0|1:0,0:0:0:0:
150,168,241858,1,10,0:0:0:0:
150,168,241938,1,0,1:0:0:0:
150,168,242018,2,0,P|127:173|105:180,2,46.0000008773804,8|0|8,1:3|1:0|0:3,0:0:0:0:
228,28,242337,5,6,0:3:0:0:
228,28,242416,1,0,1:0:0:0:
228,28,242496,2,0,B|282:59|329:28|329:28|381:-6|433:28|433:28|365:59|365:144|424:214|483:187|508:147|501:114|467:97,1,512,6|2,1:2|0:0,0:0:0:0:
468,97,244411,5,2,0:0:0:0:
400,160,244571,2,0,P|337:159|288:119,1,128,0|0,0:0|0:0,0:0:0:0:
216,64,245049,6,0,B|208:33|208:33|201:-1|156:-19|123:15|130:50|130:50|150:145|150:145|169:240|169:240|177:275|221:292|255:257|248:224|248:224|242:192,1,512,2|2,0:0|0:0,0:0:0:0:
241,191,246805,5,8,0:0:0:0:
150,145,246964,2,0,P|118:150|87:157,2,64,8|8|8,0:0|1:3|0:3,0:0:0:0:
241,191,247443,1,4,0:3:0:0:
264,40,247602,6,0,P|309:48|353:58,1,92.0000017547608,4|0,1:2|1:0,0:0:0:0:
504,160,247922,2,0,P|458:168|414:178,1,92.0000017547608,0|0,1:2|1:0,0:0:0:0:
288,240,248241,5,0,1:0:0:0:
288,240,248400,2,0,L|305:149,1,92.0000017547608,0|0,1:0|1:0,0:0:0:0:
399,383,248720,6,0,P|327:331|240:351,1,184.000003509522,0|8,1:0|1:2,0:0:0:0:
192,208,249199,1,8,1:2:0:0:
192,208,249358,1,8,1:2:0:0:
76,295,249517,6,0,B|116:316|116:316|161:306,1,92.0000017547608,8|8,1:2|1:2,0:0:0:0:
305,149,249837,1,8,1:2:0:0:
92,116,249997,5,8,1:2:0:0:
92,116,250076,1,0,1:0:0:0:
92,116,250156,2,0,L|102:160,3,46.0000008773804,12|0|0|0,1:2|1:2|1:2|1:2,0:0:0:0:
220,246,250475,5,8,1:2:0:0:
256,251,250555,1,0,1:2:0:0:
290,240,250634,1,0,1:0:0:0:
311,209,250714,1,0,1:0:0:0:
317,172,250795,2,0,L|308:127,3,46.0000008773804,8|0|0|0,1:2|1:2|1:2|1:2,0:0:0:0:
244,70,251114,2,0,L|199:61,3,46.0000008773804,8|0|0|0,1:2|1:2|1:2|1:2,0:0:0:0:
368,8,251433,5,8,1:2:0:0:
368,8,251513,1,0,1:2:0:0:
368,8,251592,2,0,L|378:52,1,46.0000008773804,0|0,1:2|1:2,0:0:0:0:
480,160,251752,5,8,1:2:0:0:
480,160,251832,1,8,0:2:0:0:
480,160,251912,2,0,L|470:205,1,46.0000008773804,8|8,0:2|0:2,0:0:0:0:
480,316,252071,5,8,1:2:0:0:
444,332,252150,1,8,0:2:0:0:
404,332,252230,1,8,0:2:0:0:
368,312,252310,1,8,0:2:0:0:
348,276,252390,1,8,1:2:0:0:
316,248,252470,1,8,0:2:0:0:
276,240,252549,1,8,0:2:0:0:
236,256,252629,1,8,0:2:0:0:
32,256,253826,6,0,B|52:300|116:320|108:280|176:300|184:356|184:356|148:292|150:223|212:156|311:149|311:149|277:179|261:231|308:325|399:252|365:206,1,720,4|2,1:2|0:0,0:0:0:0:
