osu file format v14

[General]
AudioFilename: audio.mp3
AudioLeadIn: 0
PreviewTime: 422
Countdown: 0
SampleSet: Soft
StackLeniency: 0.4
Mode: 0
LetterboxInBreaks: 0
WidescreenStoryboard: 0

[Editor]
Bookmarks: 198932,200368,201007,201645,253826,255262,256539
DistanceSpacing: 0.95
BeatDivisor: 4
GridSize: 4
TimelineZoom: 1.9

[Metadata]
Title:Hikariiro no Uta
TitleUnicode:ヒカリイロの歌
Artist:Suzuki Aina
ArtistUnicode:鈴木愛奈
Creator:[Karcher]
Version:Color of Love
Source:はてな☆イリュージョン
Tags:hatena☆illusion ending ed full ver version anime japanese jpop j-pop pop abelia moly
BeatmapID:2811014
BeatmapSetID:1358382

[Difficulty]
HPDrainRate:6
CircleSize:4.2
OverallDifficulty:9.5
ApproachRate:9.6
SliderMultiplier:1.9
SliderTickRate:1

[Events]
//Background and Video events
0,0,"bg.jpg",0,0
//Break Periods
//Storyboard Layer 0 (Background)
//Storyboard Layer 1 (Fail)
//Storyboard Layer 2 (Pass)
//Storyboard Layer 3 (Foreground)
//Storyboard Layer 4 (Overlay)
//Storyboard Sound Samples

[TimingPoints]
1220,319.148936170213,4,2,1,60,1,0
1220,-142.857142857143,4,2,1,60,0,0
3773,-111.111111111111,4,2,1,60,0,0
8879,-100,4,2,1,70,0,0
10794,-66.6666666666667,4,2,1,70,0,0
12071,-100,4,2,1,60,0,0
17496,-83.3333333333333,4,2,1,60,0,0
17735,-83.3333333333333,4,2,1,5,0,0
17815,-142.857142857143,4,2,1,45,0,0
22602,-200,4,2,1,45,0,0
22842,-200,4,2,1,5,0,0
22922,-100,4,2,1,60,0,0
24039,-83.3333333333333,4,2,1,60,0,0
25395,-83.3333333333333,4,2,1,5,0,0
25475,-100,4,2,1,60,0,0
26751,-90.9090909090909,4,2,1,60,0,0
27470,-100,4,2,1,5,0,0
27549,-100,4,2,1,60,0,0
28028,-100,4,2,1,50,0,0
38241,-90.9090909090909,4,2,1,50,0,0
38480,-90.9090909090909,4,2,1,5,0,0
38560,-90.9090909090909,4,2,1,50,0,0
41592,-333.333333333333,4,2,1,50,0,0
41831,-333.333333333333,4,2,1,5,0,0
41911,-83.3333333333333,4,2,1,60,0,0
43347,-125,4,2,1,45,0,0
47177,-83.3333333333333,4,2,1,60,0,0
47337,-83.3333333333333,4,2,1,5,0,0
47416,-83.3333333333333,4,2,1,60,0,0
47576,-83.3333333333333,4,2,1,5,0,0
47656,-83.3333333333333,4,2,1,60,0,0
48773,-111.111111111111,4,2,1,50,0,0
51007,-83.3333333333333,4,2,1,60,0,0
51485,-83.3333333333333,4,2,1,70,0,0
51964,-83.3333333333333,4,2,1,80,0,0
52443,-83.3333333333333,4,2,1,90,0,0
52922,-66.6666666666667,4,2,1,90,0,0
53081,-66.6666666666667,4,2,1,5,0,0
53161,-66.6666666666667,4,2,1,90,0,0
53321,-66.6666666666667,4,2,1,5,0,0
53400,-66.6666666666667,4,2,1,90,0,0
53560,-90.9090909090909,4,2,1,75,0,0
53799,-90.9090909090909,4,2,1,5,0,0
53879,-90.9090909090909,4,2,1,75,0,0
55156,-66.6666666666667,4,2,1,75,0,0
55395,-66.6666666666667,4,2,1,5,0,0
55475,-90.9090909090909,4,2,1,75,0,0
56113,-83.3333333333333,4,2,1,70,0,1
60023,-83.3333333333333,4,2,1,5,0,1
60102,-83.3333333333333,4,2,1,70,0,1
61220,-250,4,2,1,70,0,1
61459,-250,4,2,1,5,0,1
61539,-62.5,4,2,1,70,0,1
61778,-62.5,4,2,1,5,0,1
61858,-83.3333333333333,4,2,1,70,0,1
62496,-250,4,2,1,70,0,1
62735,-250,4,2,1,5,0,1
62815,-62.5,4,2,1,70,0,1
63055,-62.5,4,2,1,5,0,1
63134,-83.3333333333333,4,2,1,70,0,1
64092,-62.5,4,2,1,70,0,1
64331,-62.5,4,2,1,5,0,1
64411,-83.3333333333333,4,2,1,70,0,1
65608,-83.3333333333333,4,2,1,5,0,1
65688,-83.3333333333333,4,2,1,70,0,1
70235,-83.3333333333333,4,2,1,5,0,1
70315,-83.3333333333333,4,2,1,70,0,1
71432,-250,4,2,1,70,0,1
71672,-250,4,2,1,5,0,1
71751,-62.5,4,2,1,70,0,1
71991,-62.5,4,2,1,5,0,1
72071,-83.3333333333333,4,2,1,70,0,1
72150,-83.3333333333333,4,2,1,5,0,1
72230,-83.3333333333333,4,2,1,70,0,1
72709,-250,4,2,1,70,0,1
72948,-250,4,2,1,5,0,1
73028,-62.5,4,2,1,70,0,1
73267,-62.5,4,2,1,5,0,1
73347,-83.3333333333333,4,2,1,70,0,1
73427,-83.3333333333333,4,2,1,5,0,1
73507,-83.3333333333333,4,2,1,70,0,1
75821,-83.3333333333333,4,2,1,5,0,1
75900,-83.3333333333333,4,2,1,70,0,1
76539,-166.666666666667,4,2,1,70,0,0
76858,-166.666666666667,4,2,1,30,0,0
80847,-166.666666666667,4,2,1,50,0,0
81645,-90.9090909090909,4,2,1,60,0,0
84198,-66.6666666666667,4,2,1,70,0,0
86751,-90.9090909090909,4,2,1,60,0,0
87230,-125,4,2,1,50,0,0
90422,-100,4,2,1,50,0,0
91220,-100,4,2,1,60,0,0
91858,-100,4,2,1,60,0,0
93214,-100,4,2,1,5,0,0
93294,-100,4,2,1,60,0,0
96964,-111.111111111111,4,2,1,45,0,0
101751,-166.666666666667,4,2,1,45,0,0
101991,-166.666666666667,4,2,1,5,0,0
102071,-83.3333333333333,4,2,1,60,0,0
104624,-100,4,2,1,60,0,0
107177,-111.111111111111,4,2,1,50,0,0
112283,-111.111111111111,4,2,1,60,0,0
117709,-90.9090909090909,4,2,1,50,0,0
122815,-200,4,2,1,30,0,0
126326,-100,4,2,1,50,0,0
126485,-100,4,2,1,5,0,0
126565,-100,4,2,1,50,0,0
126725,-100,4,2,1,5,0,0
126805,-100,4,2,1,50,0,0
127602,-100,4,2,1,60,0,0
130156,-83.3333333333333,4,2,1,60,0,0
130634,-83.3333333333333,4,2,1,70,0,0
131113,-83.3333333333333,4,2,1,80,0,0
131592,-83.3333333333333,4,2,1,90,0,0
132071,-66.6666666666667,4,2,1,90,0,0
132230,-66.6666666666667,4,2,1,5,0,0
132310,-66.6666666666667,4,2,1,90,0,0
132470,-66.6666666666667,4,2,1,5,0,0
132549,-66.6666666666667,4,2,1,90,0,0
132709,-90.9090909090909,4,2,1,75,0,0
132948,-90.9090909090909,4,2,1,5,0,0
133028,-90.9090909090909,4,2,1,75,0,0
135262,-83.3333333333333,4,2,1,70,0,1
139172,-83.3333333333333,4,2,1,5,0,1
139251,-83.3333333333333,4,2,1,70,0,1
140368,-250,4,2,1,70,0,1
140608,-250,4,2,1,5,0,1
140688,-62.5,4,2,1,70,0,1
140927,-62.5,4,2,1,5,0,1
141007,-83.3333333333333,4,2,1,70,0,1
141645,-250,4,2,1,70,0,1
141884,-250,4,2,1,5,0,1
141964,-62.5,4,2,1,70,0,1
142204,-62.5,4,2,1,5,0,1
142283,-83.3333333333333,4,2,1,70,0,1
143241,-62.5,4,2,1,70,0,1
143480,-62.5,4,2,1,5,0,1
143560,-83.3333333333333,4,2,1,70,0,1
144757,-83.3333333333333,4,2,1,5,0,1
144837,-83.3333333333333,4,2,1,70,0,1
149384,-83.3333333333333,4,2,1,5,0,1
149464,-83.3333333333333,4,2,1,70,0,1
150581,-250,4,2,1,70,0,1
150821,-250,4,2,1,5,0,1
150900,-62.5,4,2,1,70,0,1
151140,-62.5,4,2,1,5,0,1
151220,-83.3333333333333,4,2,1,70,0,1
151299,-83.3333333333333,4,2,1,5,0,1
151379,-83.3333333333333,4,2,1,70,0,1
151858,-250,4,2,1,70,0,1
152097,-250,4,2,1,5,0,1
152177,-62.5,4,2,1,70,0,1
152416,-62.5,4,2,1,5,0,1
152496,-83.3333333333333,4,2,1,70,0,1
152576,-83.3333333333333,4,2,1,5,0,1
152656,-83.3333333333333,4,2,1,70,0,1
155688,-83.3333333333333,4,2,1,75,0,0
163666,-62.5,4,2,1,80,0,0
163906,-62.5,4,2,1,5,0,0
163985,-83.3333333333333,4,2,1,75,0,0
164305,-55.5555555555556,4,2,1,85,0,0
164544,-55.5555555555556,4,2,1,5,0,0
164624,-55.5555555555556,4,2,1,75,0,0
165262,-55.5555555555556,4,2,1,90,0,0
165900,-83.3333333333333,4,2,1,70,0,0
165980,-83.3333333333333,4,2,1,5,0,0
166060,-83.3333333333333,4,2,1,70,0,0
166140,-83.3333333333333,4,2,1,5,0,0
166220,-76.9230769230769,4,2,1,80,0,0
166459,-76.9230769230769,4,2,1,5,0,0
166539,-76.9230769230769,4,2,1,80,0,0
166778,-76.9230769230769,4,2,1,5,0,0
166858,-76.9230769230769,4,2,1,80,0,0
173081,-76.9230769230769,4,2,1,5,0,0
173161,-76.9230769230769,4,2,1,80,0,0
173321,-76.9230769230769,4,2,1,5,0,0
173400,-76.9230769230769,4,2,1,80,0,0
173560,-71.4285714285714,4,2,1,80,0,0
174837,-66.6666666666667,4,2,1,80,0,0
175076,-66.6666666666667,4,2,1,5,0,0
175156,-66.6666666666667,4,2,1,80,0,0
176113,-66.6666666666667,4,2,1,90,0,0
177310,-66.6666666666667,4,2,1,5,0,0
177390,-66.6666666666667,4,2,1,90,0,0
179305,-166.666666666667,4,2,1,40,0,0
181858,-250,4,2,1,50,0,0
182496,-250,4,2,1,50,0,0
183773,-250,4,2,1,50,0,0
184411,-166.666666666667,4,2,1,40,0,0
186964,-250,4,2,1,50,0,0
188081,-100,4,2,1,60,0,0
188321,-100,4,2,1,5,0,0
188400,-100,4,2,1,60,0,0
188879,-83.3333333333333,4,2,1,60,0,0
191432,-83.3333333333333,4,2,1,70,0,0
192789,-83.3333333333333,4,2,1,5,0,0
192868,-83.3333333333333,4,2,1,70,0,0
193985,-76.9230769230769,4,2,1,80,0,1
194225,-76.9230769230769,4,2,1,5,0,1
194305,-76.9230769230769,4,2,1,80,0,1
198932,-76.9230769230769,4,2,1,70,0,0
199092,-76.9230769230769,4,2,1,60,0,0
199172,-76.9230769230769,4,2,1,50,0,0
199251,-76.9230769230769,4,2,1,40,0,0
199331,-76.9230769230769,4,2,1,30,0,0
199411,-76.9230769230769,4,2,1,20,0,0
199491,-76.9230769230769,4,2,1,10,0,0
200368,-76.9230769230769,4,2,1,15,0,0
201645,-142.857142857143,4,2,1,65,0,0
204198,-100,4,2,1,75,0,0
206751,-250,4,2,1,70,0,1
206991,-250,4,2,1,5,0,1
207071,-62.5,4,2,1,70,0,1
207310,-62.5,4,2,1,5,0,1
207390,-83.3333333333333,4,2,1,70,0,1
208028,-250,4,2,1,70,0,1
208267,-250,4,2,1,5,0,1
208347,-62.5,4,2,1,70,0,1
208587,-62.5,4,2,1,5,0,1
208666,-83.3333333333333,4,2,1,70,0,1
209624,-62.5,4,2,1,70,0,1
209863,-62.5,4,2,1,5,0,1
209943,-83.3333333333333,4,2,1,70,0,1
211140,-83.3333333333333,4,2,1,5,0,1
211220,-83.3333333333333,4,2,1,70,0,1
221751,-83.3333333333333,4,2,1,70,0,0
222071,-76.9230769230769,4,2,1,80,0,1
223347,-58.8235294117647,4,2,1,80,0,1
224624,-76.9230769230769,4,2,1,80,0,1
227177,-250,4,2,1,80,0,1
227416,-250,4,2,1,5,0,1
227496,-62.5,4,2,1,80,0,1
227735,-62.5,4,2,1,5,0,1
227815,-76.9230769230769,4,2,1,80,0,1
228454,-250,4,2,1,80,0,1
228693,-250,4,2,1,5,0,1
228773,-62.5,4,2,1,80,0,1
229012,-62.5,4,2,1,5,0,1
229092,-76.9230769230769,4,2,1,80,0,1
230049,-62.5,4,2,1,80,0,1
230289,-62.5,4,2,1,5,0,1
230368,-76.9230769230769,4,2,1,80,0,1
237390,-250,4,2,1,80,0,1
237629,-250,4,2,1,5,0,1
237709,-62.5,4,2,1,80,0,1
237948,-62.5,4,2,1,5,0,1
238028,-76.9230769230769,4,2,1,80,0,1
238666,-250,4,2,1,80,0,1
238906,-250,4,2,1,5,0,1
238985,-62.5,4,2,1,80,0,1
239225,-62.5,4,2,1,5,0,1
239305,-76.9230769230769,4,2,1,80,0,1
242496,-200,4,2,1,80,0,0
243134,-200,4,2,1,40,0,0
245049,-166.666666666667,4,2,1,50,0,0
246645,-133.333333333333,4,2,1,50,0,0
246805,-133.333333333333,4,2,1,70,0,0
247602,-76.9230769230769,4,2,1,70,0,0
250315,-76.9230769230769,4,2,1,75,0,0
252071,-58.8235294117647,4,2,1,80,0,0
253826,-125,4,2,1,80,0,1
255262,-125,4,2,1,80,0,0
255422,-125,4,2,1,10,0,0
256539,-125,4,2,1,5,0,0

[Colours]
Combo1 : 164,205,255
Combo2 : 255,181,255

[HitObjects]
61,194,1220,6,0,B|118:202|158:176|158:176|156:205|156:205|203:179|256:165|309:185|326:229|315:274|275:286|246:290|214:256,1,398.999987823487,6|2,1:2|0:0,0:0:0:0:
133,104,2496,2,0,P|50:101|77:200,1,199.499993911743,6|8,1:2|0:3,0:0:0:0:
35,357,3294,1,4,0:3:0:0:
5,276,3454,2,0,L|73:282,1,66.4999979705811,6|0,0:3|0:0,0:0:0:0:
157,318,3773,6,0,B|215:299|241:256|242:200|219:167|178:160|149:175|138:205|149:238,1,256.499992172241,14|0,0:0|0:0,0:0:0:0:
157,318,4411,2,0,B|321:271|235:359|405:310,1,256.499992172241,12|2,0:0|0:0,0:0:0:0:
490,322,5049,2,0,P|429:288|490:137,1,256.499992172241,14|8,0:0|0:3,0:0:0:0:
483,145,5608,1,8,0:3:0:0:
484,153,5688,6,0,L|389:167,1,85.4999973907472,10|8,0:3|0:3,0:0:0:0:
221,190,6007,2,0,L|316:204,1,85.4999973907472,6|4,0:3|0:3,0:0:0:0:
440,236,6326,5,6,1:2:0:0:
332,121,6485,1,2,1:2:0:0:
338,280,6645,1,2,1:2:0:0:
422,144,6805,1,2,1:2:0:0:
251,118,6964,1,2,1:2:0:0:
338,280,7124,2,0,L|333:180,1,85.4999973907472,10|0,0:0|1:2,0:0:0:0:
224,64,7443,6,0,L|212:148,1,85.4999973907472,10|0,0:0|1:2,0:0:0:0:
144,330,7762,1,10,0:0:0:0:
102,128,7922,1,10,0:0:0:0:
289,212,8081,1,2,1:2:0:0:
69,256,8241,1,10,0:0:0:0:
224,64,8400,1,8,0:0:0:0:
261,312,8560,1,10,0:0:0:0:
401,108,8720,1,10,0:0:0:0:
401,108,8799,1,8,0:0:0:0:
401,108,8879,5,14,1:2:0:0:
364,139,8959,1,0,1:2:0:0:
319,155,9039,1,0,1:2:0:0:
272,157,9118,1,0,1:2:0:0:
228,138,9198,1,8,1:2:0:0:
180,143,9278,1,0,1:2:0:0:
141,171,9358,1,0,1:2:0:0:
121,215,9438,1,0,1:2:0:0:
126,262,9517,5,8,1:2:0:0:
154,301,9597,1,0,1:2:0:0:
198,321,9677,1,0,1:2:0:0:
246,316,9757,1,0,1:2:0:0:
284,288,9836,1,8,1:2:0:0:
303,244,9916,1,0,1:2:0:0:
299,196,9996,2,0,L|291:137,1,47.5,2|0,1:2|1:2,0:0:0:0:
288,4,10156,5,10,1:2:0:0:
231,6,10235,1,0,1:2:0:0:
173,9,10315,1,8,0:0:0:0:
116,13,10395,1,8,0:0:0:0:
58,16,10475,1,10,0:0:0:0:
13,51,10555,1,8,0:0:0:0:
0,106,10634,1,10,0:0:0:0:
21,158,10714,1,8,0:0:0:0:
68,187,10794,6,0,B|104:191|104:191|138:183,1,71.2500027179719,8|8,0:0|0:0,0:0:0:0:
287,85,10954,2,0,B|323:81|323:81|357:88,1,71.2500027179719,10|8,0:0|0:0,0:0:0:0:
512,174,11113,5,10,0:0:0:0:
502,244,11192,1,8,0:0:0:0:
495,314,11272,1,8,0:0:0:0:
490,384,11352,1,8,0:0:0:0:
20,51,12071,5,2,0:0:0:0:
20,72,12150,1,2,0:0:0:0:
20,93,12230,1,2,0:0:0:0:
20,114,12310,1,2,0:0:0:0:
20,135,12390,1,2,0:0:0:0:
21,156,12470,1,2,0:0:0:0:
22,177,12549,1,2,0:0:0:0:
23,198,12629,1,2,0:0:0:0:
24,219,12709,6,0,P|111:200|176:275,1,190,6|10,1:2|0:0,0:0:0:0:
76,380,13188,2,0,L|85:283,1,95,2|0,0:0|1:2,0:0:0:0:
256,167,13507,2,0,L|264:261,1,95,2|8,0:0|0:0,0:0:0:0:
83,145,13826,6,0,P|78:79|181:89,1,190,2|2,0:0|0:0,0:0:0:0:
74,237,14305,1,10,0:0:0:0:
0,59,14464,1,2,0:0:0:0:
182,172,14624,2,0,L|174:266,1,95,2|2,1:2|0:0,0:0:0:0:
55,379,14943,1,10,0:0:0:0:
74,237,15102,1,2,0:0:0:0:
189,350,15262,5,14,0:0:0:0:
121,110,15422,1,2,1:2:0:0:
0,314,15581,5,10,0:0:0:0:
265,176,15741,1,0,1:2:0:0:
0,73,15900,5,8,0:0:0:0:
122,328,16060,1,2,1:2:0:0:
204,53,16220,1,10,0:0:0:0:
343,349,16379,6,0,P|276:328|269:217,1,190,14|0,0:0|1:2,0:0:0:0:
295,206,16778,1,8,0:0:0:0:
328,205,16858,1,8,0:0:0:0:
477,322,17017,1,4,0:3:0:0:
475,312,17097,1,4,0:3:0:0:
473,302,17177,2,0,L|465:253,1,47.5,6|4,0:3|0:3,0:0:0:0:
405,170,17337,2,0,L|413:121,1,47.5,4|4,0:3|0:3,0:0:0:0:
480,11,17496,6,0,P|446:70|352:66,1,170.999994781494,12|0,0:0|0:0,0:0:0:0:
263,30,17815,6,0,L|124:44,2,132.999995941162,6|0|0,1:2|1:2|1:2,0:0:0:0:
352,66,18613,1,2,0:0:0:0:
273,119,18773,1,2,1:2:0:0:
178,113,18932,1,2,0:0:0:0:
352,66,19092,6,0,P|373:119|332:192,1,132.999995941162,2|2,1:2|1:2,0:0:0:0:
273,265,19571,2,0,L|285:336,1,66.4999979705811,2|0,0:0|1:2,0:0:0:0:
168,296,19890,1,2,0:0:0:0:
168,296,20049,2,0,L|181:223,1,66.4999979705811,2|0,1:2|0:0,0:0:0:0:
111,160,20368,6,0,B|73:150|73:150|96:250,2,132.999995941162,2|0|0,1:2|1:2|1:2,0:0:0:0:
179,230,21166,1,2,0:0:0:0:
151,313,21326,1,2,1:2:0:0:
64,326,21485,1,2,0:0:0:0:
179,230,21645,6,0,P|217:255|225:351,1,132.999995941162,2|2,1:2|1:2,0:0:0:0:
360,351,22124,2,0,L|351:275,1,66.4999979705811,2|0,0:0|1:2,0:0:0:0:
355,144,22443,1,2,0:0:0:0:
355,144,22602,6,0,P|385:174|380:210,1,71.25,10|0,0:0|0:0,0:0:0:0:
303,212,22922,6,0,B|183:179|237:251|109:204,1,190,6|8,1:2|0:0,0:0:0:0:
2,59,23400,1,2,0:0:0:0:
176,138,23560,1,10,0:3:0:0:
7,225,23720,1,0,1:2:0:0:
7,225,23799,1,0,1:2:0:0:
7,225,23879,1,8,0:0:0:0:
141,46,24039,6,0,B|213:2|293:29|293:29|271:55|226:57,2,227.999993041992,2|2|2,1:2|1:2|1:2,0:0:0:0:
84,186,24837,1,10,0:3:0:0:
166,319,24996,1,4,0:3:0:0:
166,319,25076,1,4,0:3:0:0:
166,319,25156,2,0,B|186:196|186:196|145:235,1,170.999994781494,14|0,0:0|0:0,0:0:0:0:
89,282,25475,5,6,1:2:0:0:
167,110,25634,1,0,1:2:0:0:
270,269,25794,2,0,L|371:278,1,95,8|0,0:0|0:0,0:0:0:0:
508,172,26113,5,0,1:2:0:0:
353,361,26273,1,2,1:2:0:0:
380,132,26432,1,10,0:0:0:0:
510,323,26592,1,2,0:0:0:0:
275,197,26751,5,2,1:2:0:0:
512,93,26911,1,8,0:0:0:0:
512,93,26991,1,8,0:0:0:0:
512,93,27071,1,10,0:0:0:0:
255,25,27230,2,0,P|220:80|253:166,1,156.750004783631,2|0,1:2|0:0,0:0:0:0:
275,197,27549,5,10,0:0:0:0:
279,244,27629,1,8,0:0:0:0:
262,288,27709,1,8,0:0:0:0:
228,321,27789,1,8,0:0:0:0:
183,336,27869,1,8,0:0:0:0:
135,331,27948,1,8,0:0:0:0:
95,306,28028,5,4,1:2:0:0:
159,127,28188,1,0,0:0:0:0:
262,288,28347,2,0,P|316:300|361:280,1,95,10|0,0:0|0:0,0:0:0:0:
349,135,28666,2,0,P|311:175|306:224,1,95,2|0,1:2|0:0,0:0:0:0:
439,287,28985,2,0,P|422:234|382:205,1,95,10|0,0:0|0:0,0:0:0:0:
219,193,29305,6,0,B|178:243|178:243|54:200,1,190,2|10,1:2|0:0,0:0:0:0:
210,98,29783,2,0,L|219:194,1,95,2|0,0:0|1:2,0:0:0:0:
142,356,30102,2,0,L|150:261,1,95,2|8,0:0|0:0,0:0:0:0:
294,131,30422,1,2,0:0:0:0:
335,346,30581,6,0,P|408:365|455:273,1,190,2|10,1:2|0:0,0:0:0:0:
294,131,31060,2,0,L|304:232,1,95,2|0,0:0|1:2,0:0:0:0:
362,68,31379,2,0,P|321:39|274:39,1,95,2|8,0:0|0:0,0:0:0:0:
210,98,31698,1,2,0:0:0:0:
435,19,31858,6,0,P|449:64|438:111,1,95,2|0,1:2|0:0,0:0:0:0:
279,256,32177,1,10,0:0:0:0:
362,68,32337,1,2,0:0:0:0:
433,251,32496,1,0,1:2:0:0:
339,187,32656,1,8,0:0:0:0:
339,187,32735,1,8,0:0:0:0:
339,187,32815,2,0,L|393:183,1,47.5,8|0,0:0|0:0,0:0:0:0:
465,177,32975,1,8,0:0:0:0:
465,177,33055,1,8,0:0:0:0:
465,177,33134,6,0,L|470:75,1,95,4|0,1:2|1:2,0:0:0:0:
433,251,33454,2,0,L|437:345,1,95,10|0,0:0|0:0,0:0:0:0:
324,99,33773,1,2,1:2:0:0:
324,99,33932,1,0,1:2:0:0:
282,286,34092,2,0,P|314:245|317:199,1,95,8|0,0:0|0:0,0:0:0:0:
219,45,34411,5,2,1:2:0:0:
412,139,34571,1,0,1:2:0:0:
226,214,34730,1,10,0:0:0:0:
382,48,34890,2,0,P|448:54|502:160,1,190,6|2,1:2|1:2,0:0:0:0:
307,270,35368,1,10,0:0:0:0:
309,103,35528,1,0,1:2:0:0:
419,222,35688,5,12,0:0:0:0:
175,171,35847,1,0,1:2:0:0:
412,139,36007,5,10,0:0:0:0:
256,344,36166,1,0,1:2:0:0:
256,344,36246,1,0,1:2:0:0:
256,344,36326,5,10,0:0:0:0:
194,91,36485,1,0,1:2:0:0:
75,316,36645,5,10,0:0:0:0:
301,149,36805,1,0,1:2:0:0:
41,52,36964,5,14,0:0:0:0:
206,270,37124,1,0,1:2:0:0:
279,0,37283,5,8,0:0:0:0:
40,146,37443,1,2,1:2:0:0:
40,146,37523,1,0,1:2:0:0:
40,146,37602,5,0,1:2:0:0:
302,279,37762,1,8,0:0:0:0:
294,232,37842,1,8,0:0:0:0:
265,195,37922,1,8,0:0:0:0:
223,175,38001,1,8,0:0:0:0:
176,178,38081,1,8,0:0:0:0:
135,202,38161,1,8,0:0:0:0:
111,242,38241,6,0,P|100:308|17:346,1,156.750004783631,4|0,1:2|0:0,0:0:0:0:
24,346,38560,1,10,0:0:0:0:
87,151,38720,1,2,1:2:0:0:
192,327,38879,1,10,0:0:0:0:
178,120,39039,1,2,1:2:0:0:
28,259,39198,1,2,1:2:0:0:
94,69,39358,1,10,0:0:0:0:
94,69,39438,1,8,0:0:0:0:
94,69,39517,5,10,0:0:0:0:
114,300,39677,1,2,1:2:0:0:
347,279,39837,1,2,1:2:0:0:
325,47,39996,2,0,P|261:46|238:183,1,209.000006378174,14|2,0:0|1:2,0:0:0:0:
374,193,40475,1,10,0:0:0:0:
372,172,40555,1,0,1:2:0:0:
371,151,40634,2,0,L|305:159,1,52.2500015945435,2|0,1:2|1:2,0:0:0:0:
177,241,40794,6,0,P|234:253|279:236,1,104.500003189087,6|0,1:2|1:2,0:0:0:0:
453,106,41113,1,10,0:0:0:0:
377,291,41273,1,10,0:0:0:0:
377,291,41352,1,8,0:0:0:0:
377,291,41432,1,8,0:0:0:0:
280,146,41592,2,0,L|232:143,1,42.7499986953736,2|0,1:2|0:0,0:0:0:0:
289,125,41911,6,0,L|166:117,1,113.999996520996,6|0,1:2|0:0,0:0:0:0:
21,203,42230,1,0,1:2:0:0:
106,22,42390,2,0,B|187:29|187:29|173:126,1,170.999994781494,8|0,0:0|1:2,0:0:0:0:
157,191,42709,1,2,1:2:0:0:
18,103,42868,5,10,0:0:0:0:
51,107,42948,1,8,0:0:0:0:
81,122,43028,1,10,0:0:0:0:
193,260,43188,1,8,0:0:0:0:
223,275,43268,1,8,0:0:0:0:
256,279,43347,6,0,P|323:257|380:321,1,152,12|2,0:0|0:0,0:0:0:0:
464,224,43826,1,2,1:2:0:0:
464,224,43985,2,0,P|411:176|438:95,1,152,10|2,0:0|0:0,0:0:0:0:
479,38,44464,1,2,1:2:0:0:
311,147,44624,5,0,0:0:0:0:
249,83,44783,2,0,B|210:122|210:122|244:216,1,152,0|0,1:2|1:2,0:0:0:0:
405,46,45262,2,0,L|322:59,1,76,8|0,0:0|0:0,0:0:0:0:
249,83,45581,2,0,L|173:71,1,76,2|0,1:2|0:0,0:0:0:0:
47,75,45900,6,0,B|83:47|83:47|71:159,1,152,2|0,1:2|0:0,0:0:0:0:
143,301,46379,1,0,1:2:0:0:
0,253,46539,1,10,0:0:0:0:
150,151,46698,5,8,0:3:0:0:
187,149,46777,1,8,0:3:0:0:
223,157,46857,1,6,0:3:0:0:
257,176,46937,1,4,0:3:0:0:
290,194,47017,1,6,0:3:0:0:
326,202,47097,1,4,0:3:0:0:
364,201,47177,6,0,P|423:180|446:133,1,113.999996520996,10|0,0:0|0:0,0:0:0:0:
442,57,47416,2,0,P|383:78|360:125,1,113.999996520996,2|2,1:2|0:0,0:0:0:0:
364,201,47656,1,0,1:2:0:0:
189,176,47815,1,2,1:2:0:0:
297,36,47975,5,2,1:2:0:0:
294,83,48054,1,8,0:0:0:0:
291,130,48134,1,10,0:0:0:0:
288,178,48214,1,8,0:0:0:0:
285,225,48294,1,10,0:0:0:0:
282,273,48373,1,8,0:0:0:0:
279,320,48453,1,12,0:0:0:0:
139,109,48773,6,0,L|226:101,1,85.4999973907472,2|0,1:2|0:0,0:0:0:0:
339,79,49092,2,0,P|301:41|224:105,1,170.999994781494,2|8,1:2|0:0,0:0:0:0:
338,174,49571,1,0,0:0:0:0:
338,174,49730,2,0,L|351:262,1,85.4999973907472,0|0,1:2|0:0,0:0:0:0:
507,118,50049,6,0,L|410:128,1,85.4999973907472,10|0,0:0|0:0,0:0:0:0:
258,262,50368,1,2,1:2:0:0:
258,262,50448,2,0,L|252:216,1,42.7499986953736,8|0,0:0|1:2,0:0:0:0:
329,88,50688,2,0,L|339:185,1,85.4999973907472,10|0,0:0|0:0,0:0:0:0:
175,334,51007,6,0,B|169:266,1,56.9999982604981,14|0,1:2|1:2,0:0:0:0:
260,226,51166,1,8,0:0:0:0:
260,226,51246,1,8,0:0:0:0:
260,226,51326,2,0,B|266:291,1,56.9999982604981,10|8,0:0|0:0,0:0:0:0:
59,275,51485,5,6,1:2:0:0:
37,239,51565,1,2,1:2:0:0:
37,198,51645,1,2,1:2:0:0:
56,163,51725,1,10,0:0:0:0:
91,142,51805,1,10,0:0:0:0:
131,140,51884,1,10,0:0:0:0:
167,159,51964,5,14,0:0:0:0:
201,204,52044,1,10,0:0:0:0:
253,220,52124,1,10,0:0:0:0:
306,203,52204,1,10,0:0:0:0:
339,160,52284,1,10,0:0:0:0:
341,104,52363,1,10,0:0:0:0:
312,58,52443,5,6,1:2:0:0:
272,115,52523,1,2,1:2:0:0:
270,186,52602,1,10,0:0:0:0:
307,245,52682,1,10,0:3:0:0:
370,275,52762,1,10,0:3:0:0:
440,265,52842,1,10,0:3:0:0:
493,219,52922,6,0,P|435:187|360:202,1,142.500005435944,10|0,0:0|0:0,0:0:0:0:
250,287,53161,2,0,P|181:300|119:268,1,142.500005435944,10|0,0:0|0:0,0:0:0:0:
46,146,53400,1,10,0:0:0:0:
262,51,53560,6,0,L|254:207,1,156.750004783631,14|0,0:0|0:0,0:0:0:0:
250,287,53879,1,0,1:2:0:0:
138,155,54039,1,0,1:2:0:0:
124,340,54198,1,0,1:2:0:0:
255,127,54358,5,8,0:0:0:0:
124,340,54517,1,8,0:0:0:0:
61,90,54677,1,8,0:0:0:0:
24,275,54837,6,0,L|75:268,1,52.2500015945435,8|0,0:0|1:2,0:0:0:0:
151,255,54996,1,0,1:2:0:0:
318,71,55156,2,0,P|332:156|217:203,1,213.750008153916,12|0,0:0|0:0,0:0:0:0:
148,166,55475,6,0,L|115:164,6,26.1250007972718,2|2|2|2|2|2|2,1:2|0:0|1:2|0:0|1:2|0:0|0:0,0:0:0:0:
231,208,55794,1,14,0:0:0:0:
262,250,55874,1,10,0:0:0:0:
262,302,55954,1,10,0:0:0:0:
235,346,56033,1,10,0:0:0:0:
181,365,56113,6,0,L|171:243,1,113.999996520996,6|0,1:2|0:0,0:0:0:0:
356,49,56432,2,0,L|346:162,1,113.999996520996,8|0,0:0|0:0,0:0:0:0:
308,367,56751,1,2,1:2:0:0:
153,130,56911,1,2,0:0:0:0:
384,269,57071,1,10,0:0:0:0:
156,362,57230,1,2,0:0:0:0:
225,77,57390,6,0,B|244:132|244:132|226:189,1,113.999996520996,2|0,1:2|0:0,0:0:0:0:
0,268,57709,2,0,L|115:282,1,113.999996520996,10|0,0:0|0:0,0:0:0:0:
322,223,58028,1,2,1:2:0:0:
322,223,58108,1,0,1:2:0:0:
322,223,58188,1,0,1:2:0:0:
226,384,58347,2,0,L|220:261,1,113.999996520996,10|0,0:0|0:0,0:0:0:0:
413,74,58666,6,0,P|433:145|311:219,1,227.999993041992,2|8,1:2|0:0,0:0:0:0:
151,46,59145,1,0,0:0:0:0:
109,278,59305,2,0,P|78:232|93:172,1,113.999996520996,0|0,1:2|0:0,0:0:0:0:
265,74,59624,1,8,0:0:0:0:
182,306,59783,6,0,B|194:183|194:183|157:219,1,170.999994781494,2|0,0:0|0:0,0:0:0:0:
109,278,60102,1,2,0:0:0:0:
312,168,60262,1,10,0:0:0:0:
98,113,60422,1,2,0:0:0:0:
274,276,60581,5,2,1:2:0:0:
244,105,60741,1,2,0:0:0:0:
415,76,60900,1,10,0:0:0:0:
443,246,61060,1,2,0:0:0:0:
274,276,61220,6,0,L|208:287,1,56.9999982604981,6|0,1:2|0:0,0:0:0:0:
137,296,61539,6,0,P|147:215|206:298,1,228,10|0,0:0|0:0,0:0:0:0:
180,370,61858,6,0,P|123:381|72:352,1,113.999996520996,2|0,1:2|0:0,0:0:0:0:
19,208,62177,1,10,0:0:0:0:
19,208,62257,1,0,1:2:0:0:
19,208,62337,1,0,1:2:0:0:
216,284,62496,6,0,L|282:295,1,56.9999982604981,2|0,1:2|0:0,0:0:0:0:
352,303,62815,6,0,P|341:222|282:305,1,228,10|0,0:0|0:0,0:0:0:0:
327,382,63134,6,0,P|383:383|425:346,1,113.999996520996,2|0,1:2|0:0,0:0:0:0:
497,212,63454,1,10,0:0:0:0:
496,189,63533,1,0,1:2:0:0:
495,166,63613,1,0,1:2:0:0:
494,143,63693,1,0,1:2:0:0:
493,120,63773,5,2,1:2:0:0:
400,227,63932,1,0,1:2:0:0:
256,54,64092,2,0,P|355:32|411:130,1,228,12|0,0:0|0:0,0:0:0:0:
400,227,64411,5,2,1:2:0:0:
157,335,64571,1,2,1:2:0:0:
324,109,64730,1,14,0:0:0:0:
399,384,64890,1,10,0:0:0:0:
399,384,64970,1,8,0:0:0:0:
399,384,65049,5,10,0:0:0:0:
194,170,65209,1,0,1:2:0:0:
467,44,65368,2,0,P|522:82|458:145,1,170.999994781494,10|0,0:0|0:0,0:0:0:0:
393,91,65688,5,8,0:0:0:0:
348,56,65767,1,8,0:0:0:0:
291,48,65847,1,8,0:0:0:0:
238,69,65927,1,8,0:0:0:0:
202,114,66007,1,8,0:0:0:0:
194,170,66087,1,8,0:0:0:0:
215,223,66167,1,8,0:0:0:0:
260,259,66247,1,8,0:0:0:0:
317,267,66326,6,0,L|433:249,1,113.999996520996,6|0,1:2|0:0,0:0:0:0:
194,170,66645,2,0,L|78:152,1,113.999996520996,8|0,0:0|0:0,0:0:0:0:
329,158,66964,1,2,1:2:0:0:
123,283,67124,1,2,0:0:0:0:
286,77,67283,1,10,0:0:0:0:
312,342,67443,1,2,0:0:0:0:
172,71,67602,6,0,L|288:77,1,113.999996520996,2|0,1:2|0:0,0:0:0:0:
335,265,67922,2,0,B|313:215|313:215|329:155,1,113.999996520996,10|0,0:0|0:0,0:0:0:0:
443,32,68241,1,2,1:2:0:0:
443,32,68321,1,0,1:2:0:0:
443,32,68400,1,0,1:2:0:0:
512,211,68560,2,0,L|386:201,1,113.999996520996,10|0,0:0|0:0,0:0:0:0:
172,71,68879,6,0,P|109:50|66:178,1,227.999993041992,6|8,1:2|0:0,0:0:0:0:
288,282,69358,1,0,0:0:0:0:
55,384,69517,2,0,L|76:256,1,113.999996520996,0|0,1:2|1:2,0:0:0:0:
239,109,69837,1,8,0:0:0:0:
328,379,69996,6,0,B|296:334|296:334|343:222,1,170.999994781494,10|0,0:0|0:0,0:0:0:0:
381,159,70315,1,2,1:2:0:0:
388,331,70475,1,10,0:0:0:0:
252,182,70634,1,2,0:0:0:0:
499,86,70794,5,2,1:2:0:0:
490,236,70954,1,2,0:0:0:0:
340,227,71113,1,10,0:0:0:0:
348,77,71273,1,10,0:0:0:0:
348,77,71352,1,8,0:0:0:0:
348,77,71432,6,0,L|287:74,1,57,14|0,1:2|0:0,0:0:0:0:
206,97,71751,6,0,P|132:50|229:35,1,228,10|0,0:0|0:0,0:0:0:0:
291,74,72071,6,0,L|285:146,1,56.9999982604981,2|0,1:2|0:0,0:0:0:0:
174,267,72230,1,8,0:0:0:0:
323,3,72390,1,10,0:0:0:0:
421,288,72549,1,2,1:2:0:0:
337,203,72709,6,0,L|398:200,1,57,2|0,1:2|0:0,0:0:0:0:
473,208,73028,6,0,P|536:150|438:152,1,228,10|0,0:0|0:0,0:0:0:0:
393,200,73347,6,0,L|401:272,1,56.9999982604981,2|0,1:2|0:0,0:0:0:0:
467,361,73507,1,10,0:0:0:0:
369,122,73666,2,0,L|256:134,1,113.999996520996,10|0,0:0|0:0,0:0:0:0:
54,237,73985,5,2,1:2:0:0:
211,32,74145,1,0,1:2:0:0:
249,295,74305,2,0,L|367:311,1,113.999996520996,8|0,0:0|0:0,0:0:0:0:
512,216,74624,5,0,1:2:0:0:
314,190,74783,1,2,1:2:0:0:
489,337,74943,1,10,0:0:0:0:
475,101,75102,1,2,1:2:0:0:
475,101,75182,1,0,1:2:0:0:
475,101,75262,5,10,0:0:0:0:
361,310,75422,1,0,1:2:0:0:
287,97,75581,2,0,P|234:59|133:92,1,170.999994781494,12|0,0:0|0:0,0:0:0:0:
115,132,75900,5,10,0:3:0:0:
119,183,75980,1,8,0:3:0:0:
124,233,76060,1,8,0:0:0:0:
129,284,76140,1,8,0:0:0:0:
134,335,76220,1,8,0:0:0:0:
28,133,76379,1,2,1:2:0:0:
27,121,76459,1,0,1:2:0:0:
26,109,76539,6,0,P|101:46|199:118,1,227.999993041992,6|0,1:2|0:0,0:0:0:0:
257,159,77337,2,0,L|326:161,2,56.9999982604981,2|2|2,0:0|0:0|0:0,0:0:0:0:
394,119,77815,6,0,P|364:150|435:289,1,227.999993041992,2|2,0:0|0:0,0:0:0:0:
361,365,78613,2,0,L|298:369,1,56.9999982604981,2|2,0:0|0:0,0:0:0:0:
200,332,78932,1,2,0:0:0:0:
198,344,79092,6,0,P|233:328|234:241,1,113.999996520996,2|2,0:0|0:0,0:0:0:0:
175,241,79571,1,2,0:0:0:0:
171,167,79730,1,2,0:0:0:0:
240,140,79890,1,2,0:0:0:0:
286,197,80049,1,2,0:0:0:0:
246,259,80209,1,2,0:0:0:0:
104,210,80368,6,0,B|76:218|76:218|48:214,2,56.9999982604981,2|2|2,0:0|0:0|0:0,0:0:0:0:
70,141,80847,1,10,0:0:0:0:
100,317,81007,5,10,0:0:0:0:
210,345,81166,1,10,0:3:0:0:
320,315,81326,1,6,0:3:0:0:
394,228,81485,1,6,0:3:0:0:
407,114,81645,5,6,1:2:0:0:
318,193,81805,1,2,1:2:0:0:
467,197,81964,1,2,1:2:0:0:
308,104,82124,1,2,1:2:0:0:
387,272,82283,1,2,1:2:0:0:
511,119,82443,2,0,L|404:113,1,104.500003189087,10|0,0:0|1:2,0:0:0:0:
135,181,82762,6,0,L|254:158,1,104.500003189087,10|0,0:0|1:2,0:0:0:0:
406,113,83081,1,10,0:0:0:0:
271,253,83241,1,10,0:0:0:0:
228,67,83400,1,2,1:2:0:0:
373,205,83560,1,10,0:0:0:0:
167,271,83720,1,8,0:0:0:0:
333,52,83879,1,10,0:0:0:0:
387,300,84039,1,10,0:0:0:0:
482,43,84198,5,14,1:2:0:0:
477,95,84278,1,0,1:2:0:0:
449,139,84358,1,0,1:2:0:0:
402,162,84438,1,0,1:2:0:0:
350,166,84517,1,8,1:2:0:0:
301,145,84597,1,0,1:2:0:0:
265,106,84677,1,0,1:2:0:0:
216,86,84757,1,0,1:2:0:0:
165,99,84837,5,8,1:2:0:0:
135,141,84916,1,0,1:2:0:0:
138,193,84996,1,0,1:2:0:0:
173,231,85076,1,0,1:2:0:0:
224,240,85156,1,8,1:2:0:0:
269,216,85235,1,0,1:2:0:0:
295,171,85315,1,2,1:2:0:0:
341,146,85395,1,0,1:2:0:0:
393,150,85475,6,0,L|400:226,1,71.2500027179719,10|0,0:0|1:2,0:0:0:0:
294,384,85634,1,8,0:0:0:0:
236,377,85714,1,8,0:0:0:0:
189,342,85794,1,10,0:0:0:0:
166,288,85874,1,8,0:0:0:0:
173,230,85954,1,10,0:0:0:0:
208,182,86033,1,8,0:0:0:0:
263,159,86113,5,8,0:0:0:0:
262,228,86193,1,8,0:0:0:0:
226,287,86273,1,10,0:0:0:0:
165,320,86352,1,8,0:0:0:0:
96,318,86432,1,10,0:0:0:0:
36,282,86512,1,8,0:0:0:0:
3,221,86592,1,8,0:0:0:0:
5,152,86671,1,8,0:0:0:0:
41,93,86751,6,0,B|163:55|119:138|246:90,1,209.000006378174,6|0,0:0|0:0,0:0:0:0:
405,0,87230,1,8,0:0:0:0:
405,0,87310,1,8,0:0:0:0:
405,0,87390,1,8,0:0:0:0:
393,113,87549,1,0,1:2:0:0:
380,227,87709,1,0,1:2:0:0:
370,341,87868,6,0,P|395:285|487:266,2,152,2|8|8,1:2|0:0|0:3,0:0:0:0:
481,266,88826,1,4,0:3:0:0:
481,266,88985,2,0,L|475:179,1,76,4|4,0:3|0:3,0:0:0:0:
469,96,89225,1,4,0:3:0:0:
469,96,89305,6,0,B|397:73|397:73|321:97,1,152,6|0,0:0|0:0,0:0:0:0:
259,221,89783,1,0,1:2:0:0:
259,221,89863,1,0,1:2:0:0:
259,221,89943,2,0,L|254:143,1,76,0|0,1:2|1:2,0:0:0:0:
248,67,90262,1,8,0:0:0:0:
313,301,90422,6,0,B|267:318|267:318|220:310,1,95,6|0,1:2|0:0,0:0:0:0:
45,227,90741,1,8,0:0:0:0:
162,59,90900,2,0,B|157:155,1,95,8|0,0:0|1:2,0:0:0:0:
128,277,91220,5,0,1:2:0:0:
135,277,91299,1,0,1:2:0:0:
142,277,91379,1,0,1:2:0:0:
149,277,91459,1,0,1:2:0:0:
156,277,91539,1,12,0:0:0:0:
366,233,91858,5,2,1:2:0:0:
247,346,92017,1,2,0:0:0:0:
337,151,92177,1,10,0:0:0:0:
435,340,92337,1,2,0:0:0:0:
224,259,92496,5,2,1:2:0:0:
419,165,92656,1,2,1:2:0:0:
302,281,92815,1,2,1:2:0:0:
236,87,92975,6,0,P|295:86|329:182,1,142.5,10|0,0:0|0:0,0:0:0:0:
336,150,93294,1,2,1:2:0:0:
156,141,93454,1,10,0:0:0:0:
318,10,93613,1,2,0:0:0:0:
210,217,93773,5,2,1:2:0:0:
97,90,93932,1,2,1:2:0:0:
87,263,94092,1,10,0:0:0:0:
216,73,94251,1,2,1:2:0:0:
216,73,94331,1,0,1:2:0:0:
216,73,94411,5,14,0:0:0:0:
300,282,94571,1,2,1:2:0:0:
147,154,94730,5,10,0:0:0:0:
328,40,94890,1,2,1:2:0:0:
152,269,95049,5,10,0:0:0:0:
122,69,95209,1,2,1:2:0:0:
306,289,95368,5,10,0:0:0:0:
328,40,95528,2,0,B|281:27|281:27|233:39,1,95,2|8,1:2|0:0,0:0:0:0:
59,111,95847,5,2,1:2:0:0:
100,150,95927,1,2,0:0:0:0:
155,163,96007,1,10,0:0:0:0:
205,148,96087,1,2,0:0:0:0:
239,115,96167,1,2,0:0:0:0:
250,74,96246,1,2,0:0:0:0:
236,38,96326,5,10,0:3:0:0:
207,63,96406,1,2,0:0:0:0:
191,98,96485,1,10,0:0:0:0:
191,136,96565,1,10,0:0:0:0:
207,170,96644,1,10,0:0:0:0:
236,195,96725,1,2,0:0:0:0:
272,204,96804,1,10,0:0:0:0:
309,197,96885,1,10,0:0:0:0:
340,177,96964,6,0,L|342:86,1,85.4999973907472,6|0,1:2|0:0,0:0:0:0:
482,19,97283,1,0,1:2:0:0:
481,95,97443,2,0,L|479:180,1,85.4999973907472,0|0,0:0|1:2,0:0:0:0:
339,284,97762,1,2,0:0:0:0:
365,208,97922,1,2,1:2:0:0:
417,270,98081,1,2,0:0:0:0:
265,329,98241,6,0,P|254:287|266:244,1,85.4999973907472,2|0,1:2|0:0,0:0:0:0:
316,98,98560,1,2,1:2:0:0:
292,173,98720,2,0,L|207:163,1,85.4999973907472,2|0,0:0|1:2,0:0:0:0:
122,91,99039,1,2,0:0:0:0:
122,91,99198,2,0,L|206:81,1,85.4999973907472,2|0,1:2|0:0,0:0:0:0:
341,11,99517,6,0,P|256:17|204:90,2,170.999994781494,2|0|0,1:2|1:2|1:2,0:0:0:0:
486,133,100315,1,2,0:0:0:0:
407,149,100475,1,2,1:2:0:0:
433,73,100634,1,2,0:0:0:0:
499,210,100794,6,0,L|490:299,1,85.4999973907472,2|0,1:2|0:0,0:0:0:0:
364,359,101113,1,2,1:2:0:0:
324,289,101273,2,0,B|432:264|384:324|492:294,1,170.999994781494,2|2,0:0|0:0,0:0:0:0:
305,208,101751,6,0,P|262:229|240:276,1,85.4999973907472,2|0,1:2|0:0,0:0:0:0:
255,342,102071,5,6,1:2:0:0:
187,116,102230,2,0,P|128:113|77:260,1,227.999993041992,8|2,0:0|1:2,0:0:0:0:
172,314,102709,2,0,L|154:196,1,113.999996520996,10|0,0:0|1:2,0:0:0:0:
191,31,103028,1,10,0:0:0:0:
319,104,103188,6,0,B|254:109|231:159|231:159|200:107|122:120,2,227.999993041992,2|10|2,1:2|0:0|1:2,0:0:0:0:
447,20,103985,1,10,0:0:0:0:
354,180,104145,1,0,1:2:0:0:
302,12,104305,2,0,L|186:5,1,113.999996520996,2|0,0:0|0:0,0:0:0:0:
5,56,104624,5,6,1:2:0:0:
82,3,104783,2,0,L|96:105,1,95,8|0,0:0|0:0,0:0:0:0:
104,231,105102,1,0,1:2:0:0:
8,146,105262,1,8,0:0:0:0:
221,83,105422,1,2,1:2:0:0:
221,83,105501,1,0,1:2:0:0:
221,83,105581,5,10,0:0:0:0:
258,96,105661,1,8,0:0:0:0:
287,125,105741,1,10,0:0:0:0:
300,164,105820,1,8,0:0:0:0:
293,206,105900,5,10,0:0:0:0:
410,103,106060,1,0,1:2:0:0:
366,313,106220,1,10,0:0:0:0:
203,172,106379,2,0,L|103:164,1,95,10|0,0:0|1:2,0:0:0:0:
0,36,106698,2,0,P|63:-1|107:92,1,190,10|0,0:0|0:0,0:0:0:0:
34,222,107177,6,0,L|26:129,1,85.4999973907472,4|0,1:2|0:0,0:0:0:0:
235,78,107496,2,0,L|227:167,1,85.4999973907472,10|0,0:0|0:0,0:0:0:0:
125,320,107815,1,2,1:2:0:0:
126,169,107975,1,0,0:0:0:0:
254,270,108134,2,0,L|348:281,1,85.4999973907472,10|0,0:0|0:0,0:0:0:0:
493,221,108454,5,2,1:2:0:0:
329,156,108613,1,0,0:0:0:0:
429,310,108773,1,10,0:0:0:0:
476,125,108932,2,0,P|471:78|435:42,1,85.4999973907472,2|0,0:0|1:2,0:0:0:0:
298,34,109251,2,0,L|193:49,1,85.4999973907472,2|8,0:0|0:0,0:0:0:0:
124,153,109571,1,2,0:0:0:0:
87,16,109730,5,2,1:2:0:0:
224,132,109890,1,0,0:0:0:0:
40,134,110049,1,10,0:0:0:0:
214,47,110209,2,0,L|225:145,1,85.4999973907472,2|0,0:0|1:2,0:0:0:0:
118,238,110528,2,0,L|124:148,1,85.4999973907472,2|8,0:0|0:0,0:0:0:0:
127,79,110847,1,2,0:0:0:0:
300,203,111007,6,0,L|204:213,1,85.4999973907472,2|0,1:2|1:2,0:0:0:0:
354,97,111326,1,10,0:0:0:0:
323,303,111485,1,10,0:3:0:0:
323,303,111565,1,8,0:3:0:0:
323,303,111645,5,8,0:3:0:0:
327,213,111805,1,4,0:3:0:0:
327,213,111884,1,4,0:3:0:0:
327,213,111964,1,4,0:3:0:0:
403,269,112124,1,4,0:3:0:0:
403,269,112204,1,4,0:3:0:0:
403,269,112283,5,4,1:2:0:0:
321,117,112443,1,0,1:2:0:0:
407,273,112602,2,0,L|414:363,1,85.4999973907472,10|0,0:0|0:0,0:0:0:0:
463,203,112922,2,0,P|421:181|381:184,1,85.4999973907472,2|0,1:2|1:2,0:0:0:0:
222,177,113241,2,0,P|260:201|301:202,1,85.4999973907472,8|0,0:0|0:0,0:0:0:0:
440,120,113560,5,2,1:2:0:0:
309,292,113720,1,0,1:2:0:0:
317,81,113879,1,10,0:0:0:0:
451,219,114039,2,0,B|408:249|408:249|297:201,1,170.999994781494,6|2,0:0|1:2,0:0:0:0:
192,114,114517,1,10,0:0:0:0:
165,242,114677,1,0,1:2:0:0:
165,242,114757,1,0,1:2:0:0:
165,242,114837,5,12,0:0:0:0:
370,130,114996,1,0,1:2:0:0:
107,112,115156,5,10,0:0:0:0:
323,276,115315,1,0,1:2:0:0:
77,324,115475,5,10,0:0:0:0:
275,94,115634,1,0,1:2:0:0:
275,94,115714,1,0,1:2:0:0:
275,94,115794,5,10,0:0:0:0:
336,381,115954,1,0,1:2:0:0:
167,168,116113,5,14,0:0:0:0:
457,88,116273,1,0,1:2:0:0:
250,299,116432,5,8,0:0:0:0:
172,18,116592,1,10,0:3:0:0:
172,18,116672,1,8,0:3:0:0:
172,18,116751,6,0,P|218:12|267:27,1,85.4999973907472,10|4,0:3|0:3,0:0:0:0:
265,29,116991,1,4,0:3:0:0:
270,40,117071,2,0,L|275:138,1,85.4999973907472,0|4,0:2|0:3,0:0:0:0:
280,136,117310,1,4,0:3:0:0:
285,147,117390,6,0,L|290:245,1,85.4999973907472,4|0,0:3|0:0,0:0:0:0:
315,321,117709,1,10,0:0:0:0:
204,214,117868,1,2,1:2:0:0:
374,253,118028,1,10,0:0:0:0:
226,337,118188,1,2,1:2:0:0:
353,176,118347,1,2,1:2:0:0:
406,370,118507,1,10,0:0:0:0:
406,370,118587,1,8,0:0:0:0:
406,370,118666,5,10,0:0:0:0:
412,123,118826,1,2,1:2:0:0:
165,116,118985,1,2,1:2:0:0:
158,362,119145,2,0,P|199:341|176:195,1,209.000006378174,10|2,0:0|1:2,0:0:0:0:
45,104,119624,1,10,0:0:0:0:
45,104,119704,1,8,0:0:0:0:
45,104,119783,1,10,0:0:0:0:
187,202,119943,6,0,L|292:192,1,104.500003189087,6|0,1:2|0:0,0:0:0:0:
488,224,120262,1,10,0:0:0:0:
306,278,120422,1,10,0:0:0:0:
306,278,120501,1,8,0:0:0:0:
306,278,120581,1,8,0:0:0:0:
380,91,120741,2,0,L|377:162,1,52.2500015945435,2|0,1:2|0:0,0:0:0:0:
376,222,120900,1,8,0:0:0:0:
453,48,121060,6,0,B|390:2|390:2|259:57,1,209.000006378174,6|0,1:2|1:2,0:0:0:0:
43,131,121539,1,10,0:0:0:0:
172,10,121698,1,0,1:2:0:0:
172,10,121778,1,0,1:2:0:0:
172,10,121858,1,2,1:2:0:0:
176,206,122017,5,10,0:0:0:0:
200,252,122097,1,8,0:0:0:0:
245,278,122177,1,10,0:0:0:0:
297,275,122257,1,8,0:0:0:0:
342,250,122337,1,0,1:2:0:0:
366,204,122416,1,0,1:2:0:0:
360,152,122496,1,0,1:2:0:0:
350,57,122815,6,0,L|360:162,2,95,2|2|2,0:0|0:0|0:0,0:0:0:0:
273,43,123613,2,0,B|122:92|191:-3|37:43,1,237.5,2|0,0:0|0:0,0:0:0:0:
106,121,124730,1,2,0:0:0:0:
109,213,125049,6,0,P|52:199|22:161,1,95,2|0,0:0|0:0,0:0:0:0:
190,165,125688,2,0,P|203:215|188:264,1,95,2|2,0:0|0:0,0:0:0:0:
142,313,126166,1,2,0:0:0:0:
174,86,126326,6,0,B|269:90,1,95,10|0,0:0|0:0,0:0:0:0:
296,15,126565,2,0,B|201:11,1,95,2|0,1:2|0:0,0:0:0:0:
174,86,126805,1,0,1:2:0:0:
261,192,126964,5,10,0:0:0:0:
296,190,127043,1,8,0:0:0:0:
329,177,127123,1,10,0:0:0:0:
355,152,127203,1,8,0:0:0:0:
371,121,127283,1,10,0:0:0:0:
375,86,127362,1,8,0:0:0:0:
366,51,127442,1,10,0:0:0:0:
346,22,127522,1,8,0:0:0:0:
317,1,127602,6,0,L|325:99,1,95,6|0,1:2|0:0,0:0:0:0:
434,241,127922,2,0,L|441:146,1,95,2|0,1:2|0:0,0:0:0:0:
241,63,128241,2,0,P|236:117|347:187,1,190,2|8,1:2|0:0,0:0:0:0:
335,188,128720,1,0,0:0:0:0:
180,163,128879,5,0,1:2:0:0:
155,249,129039,1,0,0:0:0:0:
0,176,129198,2,0,L|100:183,1,95,10|0,0:0|0:0,0:0:0:0:
243,230,129517,1,2,1:2:0:0:
243,230,129597,2,0,L|299:225,1,47.5,8|0,0:0|1:2,0:0:0:0:
175,68,129837,2,0,L|180:172,1,95,10|0,0:0|0:0,0:0:0:0:
221,322,130156,6,0,L|283:331,1,56.9999982604981,14|0,1:2|1:2,0:0:0:0:
398,271,130315,1,8,0:0:0:0:
398,271,130395,1,8,0:0:0:0:
398,271,130475,2,0,L|334:280,1,56.9999982604981,10|8,0:0|0:0,0:0:0:0:
146,351,130634,5,14,0:3:0:0:
104,341,130714,1,10,0:3:0:0:
72,311,130794,1,10,0:3:0:0:
59,269,130874,1,10,0:3:0:0:
69,226,130954,1,10,0:3:0:0:
98,193,131033,1,10,0:3:0:0:
141,180,131113,5,6,1:2:0:0:
197,189,131193,1,2,1:2:0:0:
248,164,131273,1,10,0:0:0:0:
275,114,131352,1,10,0:0:0:0:
269,57,131432,1,10,0:0:0:0:
231,14,131512,1,10,0:0:0:0:
175,0,131592,5,6,1:2:0:0:
172,71,131672,1,2,1:2:0:0:
210,130,131751,1,10,0:0:0:0:
274,156,131831,1,10,0:0:0:0:
343,140,131911,1,10,0:3:0:0:
390,88,131990,1,10,0:3:0:0:
399,19,132071,6,0,P|336:1|263:32,1,142.500005435944,10|0,0:0|0:0,0:0:0:0:
193,154,132310,2,0,P|124:169|61:140,1,142.500005435944,8|0,0:0|0:0,0:0:0:0:
0,13,132549,1,10,0:0:0:0:
273,107,132709,6,0,L|264:266,1,156.750004783631,6|0,1:2|0:0,0:0:0:0:
259,343,133028,1,8,0:0:0:0:
372,158,133188,1,8,0:0:0:0:
436,368,133347,1,8,0:0:0:0:
453,154,133507,5,8,0:0:0:0:
259,343,133666,1,8,0:0:0:0:
264,91,133826,1,8,0:0:0:0:
414,246,133985,5,8,0:0:0:0:
373,270,134065,1,8,0:0:0:0:
325,274,134145,1,8,0:0:0:0:
279,266,134225,1,8,0:0:0:0:
238,242,134305,2,0,P|193:224|136:238,1,104.500003189087,12|0,0:0|1:2,0:0:0:0:
129,249,134544,1,0,1:2:0:0:
119,261,134624,2,0,L|115:155,1,104.500003189087,12|0,0:0|1:2,0:0:0:0:
100,162,134863,1,0,1:2:0:0:
85,169,134943,5,8,0:0:0:0:
96,112,135023,1,8,0:0:0:0:
141,78,135102,1,8,0:0:0:0:
198,72,135182,1,8,0:0:0:0:
249,93,135262,6,0,L|253:218,1,113.999996520996,6|0,1:2|0:0,0:0:0:0:
368,373,135581,2,0,L|372:259,1,113.999996520996,8|0,0:0|0:0,0:0:0:0:
444,66,135900,1,2,1:2:0:0:
512,251,136060,1,2,0:0:0:0:
324,136,136220,1,10,0:0:0:0:
512,9,136379,1,2,0:0:0:0:
379,213,136539,6,0,P|322:230|264:209,1,113.999996520996,2|0,1:2|0:0,0:0:0:0:
126,121,136858,2,0,L|240:133,1,113.999996520996,10|0,0:0|0:0,0:0:0:0:
450,265,137177,1,2,1:2:0:0:
450,265,137257,1,0,1:2:0:0:
450,265,137337,1,0,1:2:0:0:
375,77,137496,2,0,B|357:130|357:130|372:188,1,113.999996520996,10|0,0:0|0:0,0:0:0:0:
468,384,137815,6,0,P|447:314|302:322,1,227.999993041992,2|8,1:2|0:0,0:0:0:0:
85,357,138294,1,0,0:0:0:0:
230,160,138454,2,0,L|239:284,1,113.999996520996,0|0,1:2|0:0,0:0:0:0:
162,103,138773,1,8,0:0:0:0:
394,145,138932,6,0,B|430:176|430:176|303:193,1,170.999994781494,2|0,0:0|0:0,0:0:0:0:
234,205,139251,1,2,0:0:0:0:
420,62,139411,1,10,0:0:0:0:
411,297,139571,1,2,0:0:0:0:
254,127,139730,5,2,1:2:0:0:
303,258,139890,1,2,0:0:0:0:
346,46,140049,1,10,0:0:0:0:
159,135,140209,1,10,0:0:0:0:
159,135,140289,1,8,0:0:0:0:
159,135,140368,6,0,L|96:138,1,57,6|0,1:2|0:0,0:0:0:0:
54,200,140688,6,0,P|2:154|103:146,1,228,10|0,0:0|0:0,0:0:0:0:
134,215,141007,6,0,L|122:331,1,113.999996520996,2|0,1:2|0:0,0:0:0:0:
185,147,141326,1,10,0:0:0:0:
282,309,141485,1,2,0:0:0:0:
344,107,141645,6,0,L|407:110,1,57,2|0,1:2|0:0,0:0:0:0:
449,172,141965,6,0,P|501:126|400:118,1,228,10|0,0:0|0:0,0:0:0:0:
369,187,142284,6,0,L|381:303,1,113.999996520996,2|0,1:2|0:0,0:0:0:0:
216,206,142602,1,10,0:0:0:0:
409,116,142762,1,0,1:2:0:0:
409,116,142842,1,0,1:2:0:0:
409,116,142922,5,2,1:2:0:0:
293,236,143081,1,0,1:2:0:0:
143,39,143241,2,0,P|232:25|283:155,1,228,12|0,0:0|0:0,0:0:0:0:
293,236,143560,5,0,1:2:0:0:
142,174,143720,1,2,1:2:0:0:
401,109,143879,1,10,0:0:0:0:
242,340,144039,1,2,1:2:0:0:
137,76,144198,5,10,0:0:0:0:
30,357,144358,1,0,1:2:0:0:
30,357,144438,1,0,1:2:0:0:
30,357,144517,2,0,B|72:314|72:314|44:205,1,170.999994781494,14|0,0:0|0:0,0:0:0:0:
14,109,144837,5,8,0:0:0:0:
32,55,144916,1,8,0:0:0:0:
74,17,144996,1,8,0:0:0:0:
130,5,145076,1,8,0:0:0:0:
184,22,145156,1,8,0:0:0:0:
221,64,145235,1,8,0:0:0:0:
233,119,145315,1,8,0:0:0:0:
216,174,145395,1,8,0:0:0:0:
174,212,145475,6,0,L|161:96,1,113.999996520996,6|0,1:2|0:0,0:0:0:0:
402,0,145794,2,0,L|389:113,1,113.999996520996,8|0,0:0|0:0,0:0:0:0:
222,339,146113,1,2,1:2:0:0:
253,94,146273,1,2,0:0:0:0:
398,303,146432,1,10,0:0:0:0:
353,54,146592,1,2,0:0:0:0:
193,246,146751,6,0,L|68:237,1,113.999996520996,2|0,1:2|0:0,0:0:0:0:
283,197,147071,2,0,B|301:253|301:253|279:305,1,113.999996520996,10|0,0:0|0:0,0:0:0:0:
193,153,147390,1,2,1:2:0:0:
193,153,147470,1,0,1:2:0:0:
193,153,147549,1,0,1:2:0:0:
352,137,147709,2,0,L|465:145,1,113.999996520996,10|0,0:0|0:0,0:0:0:0:
356,335,148028,6,0,P|449:362|441:265,1,227.999993041992,2|8,1:2|0:0,0:0:0:0:
270,105,148507,1,0,0:0:0:0:
167,330,148666,2,0,L|161:212,1,113.999996520996,0|0,1:2|0:0,0:0:0:0:
352,137,148985,1,8,0:0:0:0:
277,275,149145,6,0,L|269:92,1,170.999994781494,10|0,0:0|0:0,0:0:0:0:
268,27,149464,1,2,1:2:0:0:
162,217,149624,1,10,0:0:0:0:
344,63,149783,1,2,0:0:0:0:
346,314,149943,5,2,1:2:0:0:
163,127,150102,1,10,0:0:0:0:
145,78,150182,1,8,0:0:0:0:
148,26,150262,1,10,0:0:0:0:
249,179,150422,1,10,0:3:0:0:
249,190,150501,1,8,0:3:0:0:
249,201,150581,6,0,L|250:260,1,57,14|0,0:3|0:0,0:0:0:0:
216,349,150900,6,0,P|154:283|257:269,1,228,10|0,0:0|0:0,0:0:0:0:
312,332,151220,6,0,L|369:335,1,56.9999982604981,2|0,1:2|0:0,0:0:0:0:
478,318,151379,1,8,0:0:0:0:
326,97,151539,1,10,0:0:0:0:
216,349,151698,1,2,1:2:0:0:
431,151,151858,6,0,L|430:92,1,57,2|0,1:2|0:0,0:0:0:0:
464,3,152177,6,0,P|526:69|423:83,1,228,10|0,0:0|0:0,0:0:0:0:
368,20,152497,6,0,L|311:17,1,56.9999982604981,2|0,1:2|0:0,0:0:0:0:
205,45,152656,1,8,0:0:0:0:
373,261,152815,1,10,0:0:0:0:
471,10,152975,1,8,0:0:0:0:
471,10,153055,1,8,0:0:0:0:
471,10,153134,5,14,0:0:0:0:
200,140,153294,1,0,1:2:0:0:
480,221,153454,5,8,0:0:0:0:
271,12,153613,1,0,1:2:0:0:
230,281,153773,5,8,0:0:0:0:
440,70,153932,1,2,1:2:0:0:
473,370,154092,5,10,0:0:0:0:
292,132,154251,1,2,1:2:0:0:
292,132,154331,1,0,1:2:0:0:
292,132,154411,2,0,P|234:124|195:224,1,170.999994781494,14|0,0:0|1:2,0:0:0:0:
230,281,154730,5,8,1:2:0:0:
184,292,154810,1,0,1:2:0:0:
139,280,154890,2,0,P|114:255|101:226,1,56.9999982604981,2|0,1:2|1:2,0:0:0:0:
57,113,155049,5,10,0:0:0:0:
104,81,155129,1,8,0:0:0:0:
166,75,155209,1,8,0:0:0:0:
232,92,155289,1,8,0:0:0:0:
282,144,155368,5,8,0:0:0:0:
357,168,155448,1,8,0:0:0:0:
434,154,155528,1,10,0:0:0:0:
488,97,155608,1,8,0:0:0:0:
504,19,155688,6,0,B|346:-8|429:71|269:32,1,227.999993041992,6|8,1:2|0:0,0:0:0:0:
56,13,156166,1,2,0:0:0:0:
269,165,156326,1,2,1:2:0:0:
21,217,156485,1,2,0:0:0:0:
178,19,156645,1,10,0:0:0:0:
226,265,156805,1,2,0:0:0:0:
30,97,156964,5,2,1:2:0:0:
282,35,157124,1,2,0:0:0:0:
141,272,157283,2,0,L|133:145,1,113.999996520996,10|0,0:0|0:0,0:0:0:0:
363,59,157602,6,0,B|416:24|416:24|401:196,1,227.999993041992,2|8,1:2|0:0,0:0:0:0:
239,277,158081,1,2,0:0:0:0:
239,277,158161,1,2,0:0:0:0:
239,277,158241,6,0,P|272:198|418:201,1,227.999993041992,2|8,1:2|0:0,0:0:0:0:
277,384,158720,1,2,0:0:0:0:
183,165,158879,1,2,1:2:0:0:
394,265,159039,1,2,0:0:0:0:
287,45,159198,1,10,0:0:0:0:
165,256,159358,1,2,0:0:0:0:
391,91,159517,5,2,1:2:0:0:
151,33,159677,1,2,0:0:0:0:
301,280,159837,2,0,L|296:158,1,113.999996520996,10|0,0:0|0:0,0:0:0:0:
477,4,160156,1,2,1:2:0:0:
406,217,160315,1,2,0:0:0:0:
264,40,160475,2,0,L|148:32,1,113.999996520996,10|0,0:0|0:0,0:0:0:0:
0,200,160794,6,0,B|58:152|58:152|203:203,1,227.999993041992,6|8,1:2|0:0,0:0:0:0:
331,292,161273,2,0,L|265:296,1,56.9999982604981,2|2,0:0|0:0,0:0:0:0:
144,305,161432,1,2,1:2:0:0:
359,105,161592,1,2,0:0:0:0:
373,384,161751,1,10,0:0:0:0:
249,141,161911,1,2,0:0:0:0:
501,267,162071,6,0,B|446:250|401:273|401:273|396:255|396:255|345:275|292:250,1,227.999993041992,2|8,1:2|0:0,0:0:0:0:
117,84,162549,1,2,0:0:0:0:
76,320,162709,1,2,1:2:0:0:
249,141,162868,1,2,0:0:0:0:
1,104,163028,1,10,0:0:0:0:
163,311,163188,1,2,1:2:0:0:
163,311,163267,1,2,1:2:0:0:
163,311,163347,6,0,L|154:183,1,113.999996520996,6|0,1:2|0:0,0:0:0:0:
276,6,163666,6,0,P|257:92|124:86,1,228,14|0,0:0|0:0,0:0:0:0:
73,29,163985,6,0,B|128:10|128:10|181:24,1,113.999996520996,2|0,1:2|0:0,0:0:0:0:
451,146,164305,6,0,P|513:79|387:52,1,256.499992172241,14|0,0:0|0:0,0:0:0:0:
329,135,164624,5,2,1:2:0:0:
450,350,164783,1,2,1:2:0:0:
268,82,164943,1,10,0:0:0:0:
167,384,165102,1,2,1:2:0:0:
345,55,165262,5,14,0:0:0:0:
21,59,165422,1,10,0:3:0:0:
27,127,165501,1,10,0:3:0:0:
79,169,165581,1,6,0:3:0:0:
147,163,165661,1,6,0:3:0:0:
189,111,165741,1,6,0:3:0:0:
182,43,165821,1,6,0:3:0:0:
130,0,165900,6,0,L|133:57,1,56.9999982604981,2|0,1:2|0:0,0:0:0:0:
99,136,166060,2,0,L|103:199,1,56.9999982604981,0|0,1:2|0:0,0:0:0:0:
83,282,166220,6,0,B|160:275|160:275|166:268|166:268|167:280|167:280|173:273|173:273|255:263,1,185.249991519928,14|0,0:0|0:0,0:0:0:0:
362,172,166539,2,0,B|284:165|284:165|278:158|278:158|277:170|277:170|271:163|271:163|195:154,1,185.249991519928,2|0,1:2|0:0,0:0:0:0:
99,136,166858,1,8,0:0:0:0:
302,82,167017,1,2,0:2:0:0:
166,275,167177,5,2,1:2:0:0:
96,51,167337,1,2,0:0:0:0:
47,42,167416,1,2,0:0:0:0:
2,62,167496,1,10,0:0:0:0:
114,193,167656,6,0,B|172:169|224:197|224:197|234:181|234:181|292:205|343:169,1,246.999988693238,2|0,0:0|0:0,0:0:0:0:
485,15,168134,2,0,L|475:155,1,123.499994346619,8|0,0:0|0:0,0:0:0:0:
356,295,168454,5,2,1:2:0:0:
279,100,168613,1,2,0:0:0:0:
454,290,168773,1,10,0:0:0:0:
202,347,168932,1,2,0:0:0:0:
363,96,169092,5,2,1:2:0:0:
482,371,169251,1,2,0:0:0:0:
444,377,169331,1,2,0:0:0:0:
408,366,169411,1,10,0:0:0:0:
267,194,169571,1,2,0:0:0:0:
481,235,169730,6,0,P|424:265|366:249,1,123.499994346619,2|2,1:2|0:0,0:0:0:0:
229,107,170049,1,10,0:0:0:0:
403,141,170209,1,2,0:0:0:0:
415,162,170289,1,2,0:0:0:0:
416,186,170368,5,2,1:2:0:0:
278,292,170528,1,2,0:0:0:0:
465,91,170688,5,10,0:0:0:0:
491,363,170847,1,10,0:0:0:0:
491,363,170927,1,8,0:0:0:0:
491,363,171007,5,6,1:2:0:0:
327,141,171166,1,2,0:0:0:0:
228,384,171326,1,10,0:0:0:0:
421,240,171485,1,2,0:0:0:0:
195,118,171645,5,2,1:2:0:0:
356,337,171805,1,2,0:0:0:0:
369,47,171964,1,10,0:0:0:0:
179,264,172124,1,2,0:0:0:0:
446,127,172283,5,2,1:2:0:0:
150,24,172443,1,2,0:0:0:0:
478,16,172602,1,10,0:0:0:0:
275,275,172762,1,0,1:2:0:0:
275,275,172842,1,0,1:2:0:0:
275,275,172922,6,0,L|268:143,1,123.499994346619,10|0,0:0|0:0,0:0:0:0:
361,116,173161,2,0,L|367:239,1,123.499994346619,14|0,0:0|0:0,0:0:0:0:
351,333,173400,1,14,0:0:0:0:
72,155,173560,6,0,P|115:94|271:168,1,265.999991882324,6|8,1:2|0:0,0:0:0:0:
212,307,174039,2,0,B|152:356|152:356|173:161,1,265.999991882324,2|0,0:0|0:0,0:0:0:0:
363,5,174517,1,10,0:0:0:0:
388,260,174677,1,2,0:0:0:0:
386,279,174757,1,2,0:0:0:0:
384,298,174837,6,0,P|376:230|474:264,1,213.750008153916,2|0,1:2|0:0,0:0:0:0:
457,352,175156,1,10,0:0:0:0:
326,135,175315,1,0,0:0:0:0:
228,367,175475,1,2,1:2:0:0:
204,372,175555,1,2,1:2:0:0:
180,373,175634,1,2,1:2:0:0:
155,370,175714,1,2,1:2:0:0:
132,361,175794,5,10,0:0:0:0:
157,310,175874,1,2,1:2:0:0:
164,253,175954,1,2,1:2:0:0:
157,197,176033,1,2,1:2:0:0:
129,147,176113,5,14,0:0:0:0:
359,344,176273,1,0,1:2:0:0:
60,294,176432,1,0,1:2:0:0:
351,148,176592,5,14,0:0:0:0:
28,110,176751,1,0,1:2:0:0:
251,354,176911,1,0,1:2:0:0:
382,42,177071,6,0,B|305:46|305:46|292:37|292:37|295:58|295:58|280:49|280:49|175:58,1,213.750008153916,14|0,0:0|0:0,0:0:0:0:
121,63,177390,5,2,1:2:0:0:
404,254,177549,1,12,0:0:0:0:
58,293,177709,1,12,0:0:0:0:
168,131,177868,1,0,1:2:0:0:
363,360,178028,5,8,0:0:0:0:
433,363,178107,1,8,0:0:0:0:
491,324,178187,1,8,0:0:0:0:
512,259,178267,1,8,0:0:0:0:
497,191,178347,1,8,0:0:0:0:
443,148,178426,1,8,0:0:0:0:
373,144,178506,1,8,0:0:0:0:
314,183,178586,1,8,0:0:0:0:
290,249,178666,1,4,1:2:0:0:
290,249,179305,6,0,P|299:222|288:181,1,56.9999982604981,2|2,0:0|0:0,0:0:0:0:
357,144,179624,2,0,P|331:123|289:121,1,56.9999982604981,2|2,0:0|0:0,0:0:0:0:
277,47,179943,2,0,P|248:64|237:154,1,113.999996520996,2|2,0:0|0:0,0:0:0:0:
70,52,180581,2,0,P|98:69|109:159,1,113.999996520996,2|2,0:0|0:0,0:0:0:0:
178,229,181220,6,0,L|171:342,1,113.999996520996,2|0,0:0|0:0,0:0:0:0:
180,191,181858,2,0,L|177:234,3,38,2|2|2|2,0:0|0:0|0:0|0:0,0:0:0:0:
236,102,182496,2,0,P|276:86|296:44,1,76,2|2,0:0|0:0,0:0:0:0:
316,233,183134,2,0,P|294:202|258:190,1,76,2|2,0:0|0:0,0:0:0:0:
482,280,183773,6,0,L|477:201,1,76,2|0,0:0|0:0,0:0:0:0:
362,42,184411,2,0,P|393:55|414:87,1,56.9999982604981,2|2,0:0|0:0,0:0:0:0:
488,77,184730,2,0,P|477:114|452:133,1,56.9999982604981,2|2,0:0|0:0,0:0:0:0:
478,205,185049,2,0,P|438:201|390:138,1,113.999996520996,2|2,0:0|0:0,0:0:0:0:
338,337,185688,2,0,P|324:283|276:254,1,113.999996520996,2|2,0:0|0:0,0:0:0:0:
176,114,186326,6,0,L|295:103,1,113.999996520996,2|0,0:0|0:0,0:0:0:0:
92,106,186964,2,0,L|89:64,3,38,2|2|2|2,0:0|0:0|0:0|0:0,0:0:0:0:
176,114,187602,2,0,L|167:191,1,76,2|2,0:0|0:0,0:0:0:0:
74,333,188081,6,0,B|120:304|120:304|210:333,1,142.5,10|0,0:0|0:0,0:0:0:0:
203,331,188400,1,0,1:2:0:0:
280,357,188560,1,2,1:2:0:0:
353,377,188720,1,0,1:2:0:0:
418,279,188879,6,0,L|289:292,1,113.999996520996,14|0,0:0|1:2,0:0:0:0:
139,384,189198,1,8,0:0:0:0:
255,150,189358,1,0,1:2:0:0:
353,377,189517,5,8,0:0:0:0:
304,290,189677,1,0,1:2:0:0:
257,383,189837,1,2,1:2:0:0:
418,279,189996,6,0,L|403:161,1,113.999996520996,8|2,0:0|1:2,0:0:0:0:
244,24,190315,1,8,0:0:0:0:
244,24,190475,2,0,L|229:137,1,113.999996520996,10|0,0:0|1:2,0:0:0:0:
131,69,190794,5,10,0:0:0:0:
332,226,190954,1,0,1:2:0:0:
136,278,191113,1,10,0:0:0:0:
339,25,191273,1,0,1:2:0:0:
339,25,191352,1,0,1:2:0:0:
339,25,191432,6,0,L|325:140,1,113.999996520996,14|0,0:0|1:2,0:0:0:0:
222,341,191751,1,0,1:2:0:0:
120,162,191911,5,8,0:0:0:0:
337,259,192071,1,2,1:2:0:0:
104,360,192230,1,0,1:2:0:0:
173,81,192390,5,8,0:0:0:0:
331,345,192549,2,0,P|415:298|411:215,1,170.999994781494,14|0,0:0|0:0,0:0:0:0:
393,161,192868,5,8,0:0:0:0:
223,284,193028,1,8,0:0:0:0:
250,68,193188,1,0,1:2:0:0:
250,68,193267,1,0,1:2:0:0:
250,68,193347,5,8,0:3:0:0:
217,91,193427,1,8,0:3:0:0:
178,101,193507,1,8,0:3:0:0:
137,101,193587,1,8,0:3:0:0:
99,89,193666,5,10,0:0:0:0:
122,140,193746,1,8,0:0:0:0:
119,197,193826,1,10,0:0:0:0:
100,251,193906,1,8,0:0:0:0:
58,288,193985,6,0,B|101:249|101:249|232:287,1,185.249991519928,14|0,0:0|0:0,0:0:0:0:
300,308,194305,5,8,0:0:0:0:
41,195,194464,1,0,1:2:0:0:
332,190,194624,5,8,0:0:0:0:
112,376,194783,1,0,1:2:0:0:
253,123,194943,5,10,0:0:0:0:
384,384,195102,1,0,1:2:0:0:
177,174,195262,5,10,0:0:0:0:
450,74,195422,1,0,1:2:0:0:
299,322,195581,5,8,0:0:0:0:
201,37,195741,1,0,1:2:0:0:
436,224,195900,5,10,0:0:0:0:
115,302,196060,1,0,1:2:0:0:
439,78,196220,5,10,0:0:0:0:
103,23,196379,1,0,1:2:0:0:
103,23,196459,1,0,1:2:0:0:
103,23,196539,6,0,P|42:30|83:161,1,246.999988693238,14|0,0:0|1:2,0:0:0:0:
245,132,197017,1,10,0:0:0:0:
127,251,197177,1,10,0:0:0:0:
178,73,197337,1,10,0:0:0:0:
262,242,197496,1,8,0:0:0:0:
80,160,197656,1,8,0:0:0:0:
272,42,197815,5,8,0:0:0:0:
204,297,197975,1,8,0:0:0:0:
77,67,198134,1,8,0:0:0:0:
334,156,198294,1,8,0:0:0:0:
52,260,198454,5,8,0:0:0:0:
349,37,198613,1,8,0:0:0:0:
322,384,198773,1,8,0:0:0:0:
77,67,198932,1,6,1:2:0:0:
256,192,199012,12,2,200368,0:0:0:0:
481,0,201645,6,0,P|416:17|400:145,1,199.499993911743,6|0,0:0|0:0,0:0:0:0:
512,165,202283,5,2,0:0:0:0:
481,238,202443,1,2,0:0:0:0:
418,286,202602,1,2,0:0:0:0:
338,294,202762,1,2,0:0:0:0:
212,217,202922,6,0,B|245:188|245:188|259:277,1,132.999995941162,2|2,1:2|0:0,0:0:0:0:
335,212,203400,2,0,L|320:139,1,66.4999979705811,8|2,0:0|0:0,0:0:0:0:
217,151,203720,2,0,L|211:217,1,66.4999979705811,4|6,0:3|0:3,0:0:0:0:
118,295,204039,1,0,1:2:0:0:
118,295,204118,1,0,1:2:0:0:
118,295,204198,5,2,1:2:0:0:
131,206,204358,1,0,1:2:0:0:
157,23,204517,2,0,L|145:118,1,95,12|0,0:0|0:0,0:0:0:0:
269,349,204837,5,0,1:2:0:0:
260,259,204997,1,0,1:2:0:0:
243,75,205156,2,0,L|250:169,1,95,12|2,0:0|0:0,0:0:0:0:
250,169,205395,1,0,0:0:0:0:
250,169,205475,5,8,0:0:0:0:
490,314,205634,1,2,1:2:0:0:
380,96,205794,1,14,0:0:0:0:
346,366,205954,1,2,1:2:0:0:
346,366,206033,1,0,1:2:0:0:
346,366,206113,5,2,1:2:0:0:
300,340,206193,1,8,0:0:0:0:
273,294,206273,1,10,0:0:0:0:
272,241,206352,1,8,0:0:0:0:
298,194,206432,1,10,0:0:0:0:
343,167,206512,1,8,0:0:0:0:
396,166,206592,1,10,0:0:0:0:
443,192,206671,1,8,0:0:0:0:
470,238,206751,6,0,L|412:245,1,57,6|0,1:2|0:0,0:0:0:0:
325,288,207071,6,0,P|320:202|412:252,1,228,10|0,0:0|0:0,0:0:0:0:
404,337,207390,6,0,P|359:373|296:373,1,113.999996520996,2|0,1:2|0:0,0:0:0:0:
145,165,207709,1,10,0:0:0:0:
73,384,207868,1,2,0:0:0:0:
233,211,208028,6,0,L|231:144,1,56.9999982604981,2|0,1:2|0:0,0:0:0:0:
208,67,208347,6,0,P|292:74|225:152,1,228,10|0,0:0|0:0,0:0:0:0:
147,134,208666,6,0,L|30:124,1,113.999996520996,2|0,1:2|0:0,0:0:0:0:
208,67,208985,1,10,0:0:0:0:
147,246,209145,1,0,1:2:0:0:
147,246,209225,1,0,1:2:0:0:
147,246,209305,5,2,1:2:0:0:
258,159,209464,1,0,1:2:0:0:
392,341,209624,2,0,P|304:365|255:247,1,228,12|0,0:0|0:0,0:0:0:0:
258,159,209943,5,0,1:2:0:0:
118,320,210102,1,2,1:2:0:0:
208,67,210262,1,14,0:0:0:0:
378,281,210422,1,0,1:2:0:0:
378,281,210501,1,0,1:2:0:0:
378,281,210581,5,10,0:0:0:0:
138,146,210741,1,0,1:2:0:0:
390,21,210900,2,0,P|456:32|468:130,1,170.999994781494,14|0,0:0|0:0,0:0:0:0:
431,211,211220,5,8,0:0:0:0:
380,237,211299,1,8,0:0:0:0:
322,234,211379,1,8,0:0:0:0:
273,202,211459,1,8,0:0:0:0:
247,151,211539,1,8,0:0:0:0:
249,93,211618,1,8,0:0:0:0:
281,45,211698,1,8,0:0:0:0:
333,18,211778,1,8,0:0:0:0:
390,21,211858,6,0,L|383:138,1,113.999996520996,6|0,1:2|0:0,0:0:0:0:
202,322,212177,2,0,L|195:208,1,113.999996520996,8|0,0:0|0:0,0:0:0:0:
110,0,212496,1,2,1:2:0:0:
53,232,212656,1,2,0:0:0:0:
251,76,212815,1,10,0:0:0:0:
0,14,212975,1,2,0:0:0:0:
195,208,213134,6,0,B|254:219|254:219|306:202,1,113.999996520996,2|0,1:2|0:0,0:0:0:0:
488,111,213454,2,0,L|372:95,1,113.999996520996,10|0,0:0|0:0,0:0:0:0:
144,34,213773,1,2,1:2:0:0:
144,34,213852,1,0,1:2:0:0:
144,34,213932,1,0,1:2:0:0:
283,20,214092,2,0,P|303:75|283:126,1,113.999996520996,10|0,0:0|0:0,0:0:0:0:
61,308,214411,6,0,P|75:219|207:219,1,227.999993041992,2|8,1:2|0:0,0:0:0:0:
407,342,214890,1,0,0:0:0:0:
315,107,215049,2,0,L|302:236,1,113.999996520996,0|0,1:2|0:0,0:0:0:0:
249,374,215368,1,8,0:0:0:0:
440,230,215528,6,0,P|488:166|394:70,1,227.999993041992,2|2,3:0|3:0,3:0:0:0:
158,16,216007,1,10,0:0:0:0:
318,219,216166,1,2,0:0:0:0:
77,174,216326,1,2,1:2:0:0:
331,56,216485,1,2,0:0:0:0:
234,330,216645,1,10,0:0:0:0:
231,289,216725,1,8,0:0:0:0:
228,248,216805,1,10,0:0:0:0:
225,209,216884,1,8,0:0:0:0:
222,168,216964,6,0,B|212:2|212:2|182:59,2,227.999993041992,6|8|0,1:2|0:0|1:2,0:0:0:0:
140,273,217762,1,2,0:0:0:0:
289,103,217922,1,10,0:0:0:0:
356,315,218081,1,2,0:0:0:0:
106,195,218241,6,0,P|164:191|214:230,1,113.999996520996,2|0,1:2|0:0,0:0:0:0:
307,384,218560,2,0,P|274:335|283:272,1,113.999996520996,10|0,0:0|0:0,0:0:0:0:
371,114,218879,2,0,P|345:166|286:190,1,113.999996520996,2|0,1:2|0:0,0:0:0:0:
48,39,219198,2,0,L|169:49,1,113.999996520996,10|0,0:0|0:0,0:0:0:0:
417,227,219517,5,4,1:2:0:0:
105,233,219677,1,0,0:0:0:0:
354,45,219837,1,8,0:0:0:0:
264,342,219996,1,0,0:0:0:0:
161,48,220156,6,0,P|212:83|219:138,1,113.999996520996,2|0,1:2|0:0,0:0:0:0:
95,346,220475,2,0,L|105:231,1,113.999996520996,10|0,0:0|0:0,0:0:0:0:
104,232,220714,1,0,1:2:0:0:
104,232,220794,1,0,1:2:0:0:
377,72,220954,5,12,0:0:0:0:
361,126,221033,1,8,0:0:0:0:
320,164,221113,1,8,0:0:0:0:
265,177,221193,1,8,0:3:0:0:
211,160,221273,1,8,0:3:0:0:
172,118,221352,1,8,0:3:0:0:
159,63,221432,5,4,0:3:0:0:
176,65,221512,1,4,0:3:0:0:
193,67,221592,1,4,0:3:0:0:
209,69,221672,1,4,0:3:0:0:
225,71,221751,2,0,L|348:85,1,113.999996520996,12|0,0:0|1:2,0:0:0:0:
480,293,222071,6,0,L|414:304,1,61.7499971733095,14|0,0:0|0:0,0:0:0:0:
257,297,222230,1,0,1:2:0:0:
220,234,222310,1,0,1:2:0:0:
220,160,222390,1,8,0:0:0:0:
257,99,222470,1,8,0:0:0:0:
319,61,222550,1,0,1:2:0:0:
391,60,222629,1,0,1:2:0:0:
454,98,222709,5,10,1:2:0:0:
398,140,222789,1,8,0:0:0:0:
328,149,222868,1,10,0:0:0:0:
257,139,222948,1,8,0:0:0:0:
205,90,223028,1,10,0:3:0:0:
136,68,223108,1,8,0:3:0:0:
66,82,223188,1,10,0:3:0:0:
22,137,223267,1,8,0:3:0:0:
23,208,223347,6,0,L|33:300,1,80.750001540184,2|0,1:2|1:2,0:0:0:0:
248,377,223507,2,0,L|257:297,1,80.750001540184,12|0,0:0|1:2,0:0:0:0:
325,71,223666,5,10,1:2:0:0:
263,105,223746,1,8,0:0:0:0:
225,165,223826,1,8,0:0:0:0:
224,235,223906,1,8,0:0:0:0:
257,297,223986,5,10,0:0:0:0:
309,260,224065,1,8,0:0:0:0:
373,258,224145,1,8,0:0:0:0:
434,278,224225,1,8,0:0:0:0:
473,329,224305,5,10,0:3:0:0:
421,351,224384,1,8,0:3:0:0:
365,342,224464,1,4,0:3:0:0:
326,300,224544,1,4,0:3:0:0:
323,228,224624,6,0,L|336:95,1,123.499994346619,14|0,1:2|0:0,0:0:0:0:
27,311,224943,5,0,1:2:0:0:
117,20,225102,1,8,0:0:0:0:
254,275,225262,5,0,1:2:0:0:
43,56,225422,1,8,0:0:0:0:
350,144,225581,5,8,0:0:0:0:
102,334,225741,2,0,L|113:260,1,61.7499971733095,10|0,0:0|1:2,0:0:0:0:
340,20,225900,6,0,L|350:148,1,123.499994346619,12|2,0:0|1:2,0:0:0:0:
211,378,226220,1,14,0:0:0:0:
253,130,226379,1,2,1:2:0:0:
414,329,226539,1,14,0:0:0:0:
262,41,226698,5,10,0:0:0:0:
203,56,226778,1,8,0:0:0:0:
167,104,226858,1,10,0:0:0:0:
169,165,226938,1,8,0:0:0:0:
209,210,227017,1,10,0:0:0:0:
268,221,227097,1,8,0:0:0:0:
321,191,227177,6,0,L|323:132,1,57,6|0,1:2|0:0,0:0:0:0:
340,51,227496,6,0,P|410:82|314:122,1,228,10|0,0:0|0:0,0:0:0:0:
253,74,227815,6,0,L|125:65,1,123.499994346619,2|0,1:2|0:0,0:0:0:0:
0,226,228134,1,10,0:0:0:0:
18,27,228294,1,2,0:0:0:0:
147,190,228454,6,0,L|214:194,1,57,2|0,1:2|0:0,0:0:0:0:
277,234,228773,6,0,P|220:292|208:192,1,228,10|0,0:0|0:0,0:0:0:0:
277,144,229092,6,0,L|408:154,1,123.499994346619,2|0,1:2|0:0,0:0:0:0:
204,193,229411,1,10,0:0:0:0:
405,67,229571,1,0,1:2:0:0:
405,67,229650,1,0,1:2:0:0:
405,67,229730,5,2,1:2:0:0:
337,228,229890,1,0,1:2:0:0:
149,83,230049,2,0,P|239:41|317:123,1,228,12|0,0:0|0:0,0:0:0:0:
337,228,230368,5,0,1:2:0:0:
107,238,230528,1,2,1:2:0:0:
392,94,230688,1,14,0:0:0:0:
332,366,230847,1,2,1:2:0:0:
194,41,231007,5,14,0:0:0:0:
71,367,231166,1,8,0:0:0:0:
130,382,231246,1,8,0:0:0:0:
191,374,231326,1,10,0:0:0:0:
242,340,231405,1,8,0:0:0:0:
264,282,231485,2,0,P|274:253|270:221,1,61.7499971733095,8|8,0:0|0:0,0:0:0:0:
194,41,231645,5,8,0:0:0:0:
126,28,231725,1,8,0:0:0:0:
60,50,231805,1,8,0:0:0:0:
14,102,231884,1,8,0:0:0:0:
0,170,231964,1,8,0:0:0:0:
22,235,232044,1,8,0:0:0:0:
73,281,232124,1,8,0:0:0:0:
140,295,232204,1,8,0:0:0:0:
206,283,232283,6,0,L|335:274,1,123.499994346619,6|0,1:2|0:0,0:0:0:0:
511,120,232602,2,0,L|382:111,1,123.499994346619,8|0,0:0|0:0,0:0:0:0:
150,186,232922,1,2,1:2:0:0:
388,112,233081,1,2,0:0:0:0:
282,340,233241,1,10,0:0:0:0:
248,76,233400,1,2,0:0:0:0:
435,251,233560,6,0,L|421:377,1,123.499994346619,2|0,1:2|0:0,0:0:0:0:
373,178,233879,2,0,P|438:156|490:173,1,123.499994346619,10|0,0:0|0:0,0:0:0:0:
307,253,234198,1,2,1:2:0:0:
307,253,234278,1,0,1:2:0:0:
307,253,234358,1,0,1:2:0:0:
226,106,234517,2,0,B|169:79|169:79|111:102,1,123.499994346619,10|0,0:0|0:0,0:0:0:0:
76,374,234837,6,0,B|160:348|160:348|141:183,1,246.999988693238,2|8,1:2|0:0,0:0:0:0:
23,15,235315,1,0,0:0:0:0:
64,294,235475,2,0,L|49:164,1,123.499994346619,0|0,1:2|0:0,0:0:0:0:
224,25,235794,1,8,0:0:0:0:
263,300,235954,6,0,P|340:354|417:241,1,246.999988693238,10|2,0:0|1:2,0:0:0:0:
334,5,236432,1,10,0:0:0:0:
208,228,236592,1,2,0:0:0:0:
445,118,236751,1,2,1:2:0:0:
191,31,236911,5,10,0:0:0:0:
131,43,236991,1,8,0:0:0:0:
85,83,237071,1,10,0:0:0:0:
63,140,237150,1,8,0:0:0:0:
72,201,237230,1,10,0:0:0:0:
110,249,237309,1,8,0:0:0:0:
166,274,237390,6,0,L|237:271,1,57,6|0,1:2|0:0,0:0:0:0:
269,202,237709,6,0,P|359:192|280:253,1,228,10|0,0:0|0:0,0:0:0:0:
189,201,238028,6,0,L|205:67,1,123.499994346619,2|0,1:2|0:0,0:0:0:0:
253,338,238347,1,10,0:0:0:0:
75,182,238507,1,2,0:0:0:0:
292,65,238666,6,0,L|284:136,1,57,2|0,1:2|0:0,0:0:0:0:
247,205,238985,6,0,P|156:221|220:143,1,228,10|0,0:0|0:0,0:0:0:0:
338,198,239305,6,0,L|329:327,1,123.499994346619,2|0,1:2|0:0,0:0:0:0:
196,137,239624,1,10,0:0:0:0:
436,205,239783,1,0,0:0:0:0:
235,341,239943,5,6,1:2:0:0:
390,109,240102,1,0,0:0:0:0:
503,375,240262,2,0,P|441:350|414:296,1,123.499994346619,8|0,0:0|0:0,0:0:0:0:
435,28,240581,1,2,1:2:0:0:
266,230,240741,1,2,0:0:0:0:
477,108,240900,1,10,0:0:0:0:
242,50,241060,1,2,0:0:0:0:
345,295,241220,6,0,L|337:166,1,123.499994346619,6|0,1:2|1:2,0:0:0:0:
142,4,241539,1,8,0:0:0:0:
191,268,241698,1,2,1:2:0:0:
191,268,241778,1,0,1:2:0:0:
191,268,241858,5,10,0:0:0:0:
233,179,242017,1,8,0:3:0:0:
161,111,242177,1,4,0:3:0:0:
74,158,242337,1,6,0:3:0:0:
92,255,242496,6,0,P|112:314|11:380,2,190,6|2|2,1:2|0:0|0:0,0:0:0:0:
30,40,244411,2,0,L|85:47,1,47.5,2|2,0:0|0:0,0:0:0:0:
237,70,244890,1,2,0:0:0:0:
236,59,245049,6,0,P|190:59|159:119,1,113.999996520996,2|0,0:0|0:0,0:0:0:0:
203,177,245528,1,2,0:0:0:0:
281,177,245688,2,0,L|342:166,2,56.9999982604981,2|2|2,0:0|0:0|0:0,0:0:0:0:
243,245,246166,1,2,0:0:0:0:
325,311,246326,6,0,L|321:245,2,56.9999982604981,0|2|2,0:0|0:0|0:0,0:0:0:0:
402,239,246805,1,10,0:0:0:0:
478,116,246964,5,10,0:0:0:0:
363,81,247124,1,6,0:3:0:0:
245,98,247283,1,6,0:3:0:0:
173,192,247443,1,6,0:3:0:0:
158,309,247602,5,6,0:2:0:0:
155,111,247762,1,2,1:2:0:0:
273,250,247922,1,2,1:2:0:0:
94,169,248081,1,2,1:2:0:0:
307,128,248241,1,2,1:2:0:0:
178,315,248400,2,0,L|172:183,1,123.499994346619,10|0,0:0|1:2,0:0:0:0:
357,53,248720,6,0,L|351:176,1,123.499994346619,10|0,0:0|1:2,0:0:0:0:
286,362,249039,1,10,0:0:0:0:
475,245,249198,1,10,0:0:0:0:
251,132,249358,1,10,0:0:0:0:
414,362,249517,1,8,0:0:0:0:
473,87,249677,1,10,0:0:0:0:
203,227,249837,1,8,0:0:0:0:
495,368,249996,1,10,0:0:0:0:
334,83,250156,5,14,0:0:0:0:
212,384,250315,1,8,0:0:0:0:
197,322,250395,1,8,0:0:0:0:
215,261,250475,1,8,0:0:0:0:
260,218,250555,1,8,0:0:0:0:
322,202,250635,1,8,0:0:0:0:
382,220,250714,1,8,0:0:0:0:
425,265,250794,5,8,0:0:0:0:
370,296,250874,1,8,0:0:0:0:
307,304,250954,1,8,0:0:0:0:
246,288,251033,1,8,0:0:0:0:
185,272,251113,1,8,0:0:0:0:
122,280,251193,1,8,0:0:0:0:
67,311,251273,2,0,L|76:379,1,61.7499971733095,10|8,0:0|0:0,0:0:0:0:
248,359,251432,5,10,0:0:0:0:
246,288,251512,1,8,0:0:0:0:
245,217,251592,1,8,0:0:0:0:
244,146,251672,1,8,0:0:0:0:
243,76,251751,1,10,0:0:0:0:
202,18,251831,1,8,0:0:0:0:
133,1,251911,1,10,0:0:0:0:
65,20,251991,1,8,0:0:0:0:
33,83,252071,6,0,P|71:97|116:99,1,80.750001540184,8|8,0:0|0:0,0:0:0:0:
295,19,252230,2,0,P|335:12|377:9,1,80.750001540184,10|8,0:0|0:0,0:0:0:0:
512,153,252390,5,10,0:0:0:0:
509,228,252470,1,8,0:0:0:0:
504,303,252549,1,8,0:0:0:0:
497,378,252629,1,8,0:0:0:0:
30,239,253826,6,0,B|3:182|-100:121|57:25|93:104|103:145|103:145|129:107|203:46|299:138|225:290|144:252|90:208|82:357,1,684,6|2,0:0|0:0,0:0:0:0:
256,192,255342,12,0,256539,0:0:0:0:
