osu file format v14

[General]
AudioFilename: audio.ogg
AudioLeadIn: 0
PreviewTime: 33095
Countdown: 0
SampleSet: Soft
StackLeniency: 0.9
Mode: 0
LetterboxInBreaks: 0
WidescreenStoryboard: 1

[Editor]
DistanceSpacing: 1.2
BeatDivisor: 4
GridSize: 4
TimelineZoom: 1.2

[Metadata]
Title:Hate no Nai Tabi (TV Size)
TitleUnicode:果てのない旅 (TV Size)
Artist:Suzuki Aina
ArtistUnicode:鈴木愛奈
Creator:Lancien
Version:Normal
Source:最弱テイマーはゴミ拾いの旅を始めました。
Tags:femicia ivy アイビー saijaku tamer wa gomi hiroi no tabi wo hajimemashita the weakest tamer began a journey to pick up trash picking begins japanese pop jpop j-pop female vocalist anime opening op
BeatmapID:4533945
BeatmapSetID:2151863

[Difficulty]
HPDrainRate:3.5
CircleSize:3.3
OverallDifficulty:5
ApproachRate:6
SliderMultiplier:1.4
SliderTickRate:1

[Events]
//Background and Video events
Video,0,"video.mp4"
0,0,"bg.jpg",0,0
//Break Periods
2,64103,70612
//Storyboard Layer 0 (Background)
//Storyboard Layer 1 (Fail)
//Storyboard Layer 2 (Pass)
//Storyboard Layer 3 (Foreground)
//Storyboard Layer 4 (Overlay)
//Storyboard Sound Samples

[TimingPoints]
800,517.241379310345,4,2,1,30,1,0
13213,-100,4,2,1,40,0,0
15282,-100,4,2,1,50,0,0
17351,-100,4,2,1,50,0,0
25627,-100,4,2,1,45,0,0
29765,-100,4,2,1,50,0,0
31834,-100,4,2,1,60,0,0
32610,-100,4,2,1,50,0,0
33127,-100,4,2,1,60,0,0
33903,-100,4,2,1,70,0,1
50455,-100,4,2,1,60,0,0
61123,-100,4,2,1,50,0,0
62868,-100,4,2,1,40,0,0
72179,-100,4,2,1,50,0,0
79420,-100,4,2,1,60,0,0
80455,-100,4,2,1,70,0,1
88601,-100,4,2,1,40,0,0

[Colours]
Combo1 : 255,102,102
Combo2 : 211,115,249
Combo3 : 75,196,241
Combo4 : 66,234,150

[HitObjects]
367,195,800,6,0,P|457:174|498:119,2,140,2|2|2,0:0|0:0|0:0,0:0:0:0:
153,127,2868,2,0,P|63:148|22:203,2,140,2|2|2,0:0|0:0|0:0,0:0:0:0:
220,177,4162,1,2,0:0:0:0:
469,144,4937,6,0,P|435:193|422:294,2,140,2|2|2,0:0|0:0|0:0,0:0:0:0:
487,61,6231,1,0,0:0:0:0:
415,17,6489,2,0,P|370:28|334:46,1,70,2|0,0:0|0:0,0:0:0:0:
269,8,7006,1,2,0:0:0:0:
182,152,7524,1,2,0:0:0:0:
26,88,8041,2,0,P|24:175|74:298,1,210,2|2,0:0|0:0,0:0:0:0:
45,369,9075,6,0,B|153:381|125:318|262:349,1,210,2|0,0:0|0:0,0:0:0:0:
328,376,10110,1,2,0:0:0:0:
190,164,10886,2,0,P|206:108|209:104,1,35
194,87,11144,2,0,P|257:62|340:93,1,140,2|2,0:0|0:0,0:0:0:0:
490,56,12179,1,2,0:0:0:0:
459,306,12955,2,0,P|427:315|411:323,1,35,2|2,0:0|0:0,0:0:0:0:
394,343,13213,6,0,P|347:334|316:305,1,70,2|2,0:0|0:0,0:0:0:0:
275,256,13731,1,2,0:0:0:0:
220,320,13989,1,2,0:0:0:0:
146,278,14248,2,0,P|127:215|136:122,1,140,2|10,0:0|0:0,0:0:0:0:
206,105,15024,2,0,L|187:53,1,35,10|8,0:0|0:0,0:0:0:0:
161,47,15282,6,0,P|84:56|64:56,1,70,6|0,1:2|0:0,0:0:0:0:
49,54,15670,1,10,0:0:0:0:
14,175,16058,2,0,P|15:222|54:288,1,105,6|10,1:2|0:0,0:0:0:0:
160,236,16834,2,0,P|208:219|245:216,1,70,14|10,0:0|0:0,0:0:0:0:
304,247,17351,5,6,1:2:0:0:
210,107,17868,1,2,1:2:0:0:
343,4,18386,2,0,P|436:33|468:83,1,140,2|2,1:2|1:2,0:0:0:0:
490,142,19162,1,0,0:0:0:0:
409,166,19420,5,0,1:2:0:0:
500,306,19937,2,0,P|467:347|411:365,1,105,2|2,1:2|0:0,0:0:0:0:
381,344,20455,2,0,P|326:331|301:333,1,70,2|2,1:2|0:0,0:0:0:0:
241,376,20972,1,2,1:2:0:0:
81,324,21489,5,6,1:2:0:0:
104,243,21748,2,0,P|132:250|146:253,1,35,2|2,0:0|0:0,0:0:0:0:
171,275,22006,2,0,P|244:262|255:249,1,70,2|2,1:2|0:0,0:0:0:0:
320,252,22524,2,0,B|356:167|356:167|331:122,1,140,2|2,1:2|1:2,0:0:0:0:
359,45,23300,1,2,0:0:0:0:
278,23,23558,2,0,P|216:31|160:54,2,105,2|2|2,1:2|0:0|0:0,0:0:0:0:
359,45,24593,2,0,P|406:39|444:25,1,70,2|2,1:2|0:0,0:0:0:0:
499,75,25110,1,2,1:2:0:0:
499,158,25368,1,6,0:3:0:0:
415,164,25627,5,6,1:2:0:0:
122,34,27696,2,0,B|44:75|36:180|36:180|75:224,1,210,2|2,0:0|0:0,0:0:0:0:
54,288,28731,2,0,P|79:313|116:329,1,70,2|0,0:0|0:0,0:0:0:0:
173,382,29248,1,2,0:0:0:0:
310,286,29765,6,0,P|286:234|262:198,1,70,6|2,1:2|0:0,0:0:0:0:
197,202,30282,2,0,P|204:161|224:124,1,70,2|10,0:0|0:0,0:0:0:0:
210,51,30800,1,2,1:2:0:0:
325,100,31187,2,0,P|379:79|411:75,1,70,10|8,0:3|0:3,0:0:0:0:
430,62,31575,1,6,0:3:0:0:
492,120,31834,6,0,P|497:195|490:212,1,70,6|8,1:2|0:0,0:0:0:0:
460,206,32222,2,0,P|462:243|480:285,1,70,6|0,1:2|1:2,0:0:0:0:
498,307,32610,1,6,1:2:0:0:
336,352,33127,1,10,0:0:0:0:
302,274,33386,2,0,P|288:219|288:187,1,70,10|10,0:0|0:3,0:0:0:0:
341,141,33903,6,0,P|331:91|270:54,1,105,6|0,1:2|0:0,0:0:0:0:
257,31,34420,2,0,P|210:55|143:62,1,105,10|2,0:0|0:0,0:0:0:0:
124,38,34937,2,0,P|112:23|106:-2,2,35,2|8|0,1:2|0:0|1:2,0:0:0:0:
92,116,35455,2,0,P|65:147|47:191,1,70,8|2,0:0|0:0,0:0:0:0:
14,192,35843,1,2,1:2:0:0:
14,192,35972,2,0,P|20:240|96:295,1,140,2|10,1:2|0:0,0:0:0:0:
129,367,36748,2,0,P|164:370|182:372,1,35,2|0,0:0|0:0,0:0:0:0:
205,362,37006,2,0,L|256:353,2,35,2|8|2,1:2|0:0|1:2,0:0:0:0:
189,278,37524,2,0,P|182:217|185:143,1,105,10|8,0:0|0:0,0:0:0:0:
160,137,38041,5,2,1:2:0:0:
216,74,38300,1,2,0:0:0:0:
291,110,38558,2,0,P|358:83|415:89,2,105,10|10|0,0:0|0:0|1:2,0:0:0:0:
216,74,39593,2,0,P|170:58|136:43,1,70,14|2,0:0|0:0,0:0:0:0:
71,40,40110,5,6,1:2:0:0:
71,40,40239,2,0,P|53:73|46:131,1,70,10|10,0:0|0:3,0:0:0:0:
55,145,40627,1,2,1:2:0:0:
136,182,40886,1,10,0:3:0:0:
136,182,41015,1,6,1:2:0:0:
133,266,41274,1,10,0:0:0:0:
15,312,41662,2,0,L|26:355,1,35,2|10,1:2|0:3,0:0:0:0:
59,366,41920,1,10,0:3:0:0:
142,358,42179,6,0,P|213:371|267:397,1,105,6|2,1:2|0:0,0:0:0:0:
278,360,42696,2,0,P|320:336|385:341,1,105,10|10,0:0|0:0,0:0:0:0:
417,336,43213,2,0,L|430:383,2,35,2|8|0,1:2|0:0|1:2,0:0:0:0:
455,261,43731,1,8,0:0:0:0:
405,193,43989,1,2,0:0:0:0:
473,143,44248,6,0,P|467:89|436:57,1,70,2|2,1:2|1:2,0:0:0:0:
389,29,44765,2,0,P|351:48|298:59,1,70,10|2,0:0|0:0,0:0:0:0:
284,68,45153,1,10,0:0:0:0:
284,68,45282,2,0,P|265:38|261:29,2,35,2|8|2,1:2|0:0|1:2,0:0:0:0:
339,131,45800,2,0,P|334:190|293:239,1,105,10|8,0:0|0:0,0:0:0:0:
299,267,46317,5,6,1:2:0:0:
230,218,46575,1,2,1:2:0:0:
146,230,46834,2,0,P|148:167|171:103,2,105,10|10|0,0:0|0:0|1:2,0:0:0:0:
183,305,47868,2,0,P|148:345|121:354,1,70,10|2,0:0|0:0,0:0:0:0:
66,299,48386,2,0,P|50:253|22:170,1,105,6|2,1:2|1:2,0:0:0:0:
53,118,49032,1,10,0:0:0:0:
53,118,49162,2,0,P|107:115|164:147,1,105,6|10,1:2|0:3,0:0:0:0:
256,206,49937,2,0,P|290:171|315:146,1,70,6|8,0:3|0:0,0:0:0:0:
380,118,50455,6,0,B|465:159|406:166|483:239,1,140,6|10,1:2|0:0,0:0:0:0:
504,297,51231,1,0,0:0:0:0:
420,296,51489,2,0,P|370:307|294:368,1,140,2|8,1:2|0:0,0:0:0:0:
181,239,52524,2,0,P|174:190|161:140,1,70,2|2,1:2|0:0,0:0:0:0:
253,168,53041,2,0,P|262:114|267:91,1,70,10|2,0:0|0:0,0:0:0:0:
239,18,53558,1,2,1:2:0:0:
156,3,53817,1,2,0:0:0:0:
97,63,54075,2,0,P|80:105|77:154,1,70,10|0,0:0|1:2,0:0:0:0:
9,180,54593,6,0,P|44:234|81:331,1,140,6|10,1:2|0:0,0:0:0:0:
124,369,55368,1,2,0:0:0:0:
187,314,55627,2,0,B|242:293|295:317|295:317|316:351,1,140,2|14,1:2|0:0,0:0:0:0:
388,371,56403,1,14,0:0:0:0:
459,326,56662,6,0,L|496:345,2,35,6|10|10,1:2|0:0|0:0,0:0:0:0:
451,242,57179,2,0,L|489:239,2,35,12|0|2,0:0|1:2|1:2,0:0:0:0:
404,172,57696,2,0,L|431:146,2,35,2|10|2,1:2|0:0|1:2,0:0:0:0:
326,140,58213,2,0,L|338:101,2,35,10|10|6,0:3|0:3|0:3,0:0:0:0:
295,168,58601,1,6,0:3:0:0:
295,168,58731,2,0,P|241:170|186:122,1,105,6|10,1:2|0:0,0:0:0:0:
118,240,59506,2,0,P|64:186|61:145,1,105,6|10,1:2|0:0,0:0:0:0:
101,41,60282,1,6,1:2:0:0:
214,95,60670,2,0,P|282:80|334:47,1,105,10|6,0:0|1:2,0:0:0:0:
256,192,61187,12,6,63903,0:0:0:0:
120,212,71662,6,0,L|107:162,2,35,2|2|2,0:0|0:0|0:0,0:0:0:0:
179,271,72179,2,0,P|217:285|287:273,1,105,6|0,1:2|0:0,0:0:0:0:
317,296,72696,1,2,1:2:0:0:
437,259,73084,1,0,0:0:0:0:
437,259,73213,2,0,P|442:202|466:126,1,105,2|0,1:2|0:0,0:0:0:0:
477,120,73731,1,2,1:2:0:0:
426,52,73989,2,0,P|397:58|390:62,1,35,2|8,1:2|0:0,0:0:0:0:
357,84,74248,6,0,P|306:60|234:54,1,105,2|10,1:2|0:0,0:0:0:0:
197,111,74894,1,10,0:0:0:0:
128,62,75153,2,0,P|63:80|13:172,1,175,10|2,0:0|1:2,0:0:0:0:
107,308,76317,5,0,1:2:0:0:
181,346,76575,2,0,P|209:312|238:242,1,105,2|10,1:2|0:0,0:0:0:0:
191,184,77222,2,0,P|184:136|193:100,1,70,10|10,0:0|0:0,0:0:0:0:
187,73,77610,2,0,P|169:51|156:41,2,35,0|10|2,1:2|0:0|1:2,0:0:0:0:
268,50,78127,2,0,L|304:40,1,35,2|10,1:2|0:0,0:0:0:0:
342,28,78386,5,2,1:2:0:0:
414,69,78644,1,2,1:2:0:0:
414,69,78774,2,0,P|458:123|465:186,1,105,10|2,0:0|1:2,0:0:0:0:
454,239,79420,2,0,P|421:249|382:284,1,70,2|2,1:2|1:2,0:0:0:0:
407,352,79937,1,10,1:2:0:0:
325,370,80196,1,10,1:2:0:0:
260,316,80455,6,0,P|243:251|244:185,1,105,6|10,1:2|0:3,0:0:0:0:
299,152,81101,1,2,1:2:0:0:
247,85,81360,2,0,P|198:82|161:99,1,70,2|10,0:0|0:0,0:0:0:0:
98,64,81877,2,0,P|56:110|60:225,1,175,2|4,1:2|0:3,0:0:0:0:
38,300,82782,1,6,1:2:0:0:
103,352,83041,2,0,P|138:342|145:341,1,35,2|2,1:2|0:0,0:0:0:0:
219,358,83429,2,0,P|261:318|272:238,1,140,6|0,1:2|0:0,0:0:0:0:
279,198,84075,2,0,L|229:185,2,35,6|10|10,1:2|0:3|0:0,0:0:0:0:
320,181,84463,1,6,0:3:0:0:
320,181,84593,5,6,1:2:0:0:
430,252,84981,1,10,0:0:0:0:
430,252,85110,2,0,P|466:194|473:137,1,105,6|2,1:2|1:2,0:0:0:0:
503,129,85627,1,14,0:0:0:0:
338,94,86144,2,0,P|286:63|234:48,1,105,14|14,0:0|0:0,0:0:0:0:
213,19,86662,2,0,P|152:19|96:39,1,105,6|14,1:2|0:2,0:0:0:0:
71,16,87179,1,6,1:2:0:0:
16,130,87567,2,0,P|26:189|42:216,1,70,6|2,1:2|1:2,0:0:0:0:
69,215,87955,2,0,P|63:252|59:260,1,35,2|10,1:2|0:0,0:0:0:0:
81,287,88213,2,0,P|57:306|45:312,2,35,6|10|14,1:2|0:0|0:0,0:0:0:0:
120,304,88601,5,8,0:0:0:0:
