osu file format v14

[General]
AudioFilename: audio.ogg
AudioLeadIn: 0
PreviewTime: 33095
Countdown: 0
SampleSet: Soft
StackLeniency: 0.9
Mode: 0
LetterboxInBreaks: 0
WidescreenStoryboard: 1

[Editor]
DistanceSpacing: 0.3
BeatDivisor: 4
GridSize: 4
TimelineZoom: 1.2

[Metadata]
Title:Hate no Nai Tabi (TV Size)
TitleUnicode:果てのない旅 (TV Size)
Artist:Suzuki Aina
ArtistUnicode:鈴木愛奈
Creator:Lancien
Version:Insane
Source:最弱テイマーはゴミ拾いの旅を始めました。
Tags:femicia ivy アイビー saijaku tamer wa gomi hiroi no tabi wo hajimemashita the weakest tamer began a journey to pick up trash picking begins japanese pop jpop j-pop female vocalist anime opening op
BeatmapID:4533944
BeatmapSetID:2151863

[Difficulty]
HPDrainRate:5
CircleSize:3.5
OverallDifficulty:8
ApproachRate:9
SliderMultiplier:2.1
SliderTickRate:1

[Events]
//Background and Video events
Video,0,"video.mp4"
0,0,"bg.jpg",0,0
//Break Periods
//Storyboard Layer 0 (Background)
//Storyboard Layer 1 (Fail)
//Storyboard Layer 2 (Pass)
//Storyboard Layer 3 (Foreground)
//Storyboard Layer 4 (Overlay)
//Storyboard Sound Samples

[TimingPoints]
800,517.241379310345,4,2,1,30,1,0
13213,-66.6666666666667,4,2,1,40,0,0
15282,-66.6666666666667,4,2,1,50,0,0
17351,-66.6666666666667,4,2,1,50,0,0
18127,-76.9230769230769,4,2,1,50,0,0
25627,-133.333333333333,4,2,1,45,0,0
28472,-100,4,2,1,45,0,0
29765,-83.3333333333333,4,2,1,50,0,0
31834,-66.6666666666667,4,2,1,60,0,0
32610,-100,4,2,1,50,0,0
33127,-100,4,2,1,60,0,0
33644,-66.6666666666667,4,2,1,60,0,0
33903,-66.6666666666667,4,2,1,70,0,1
50455,-66.6666666666667,4,2,1,60,0,0
61123,-66.6666666666667,4,2,1,50,0,0
62868,-66.6666666666667,4,2,1,40,0,0
63903,-100,4,2,1,40,0,0
72179,-100,4,2,1,50,0,0
74248,-66.6666666666667,4,2,1,50,0,0
76575,-59.8802395209581,4,2,1,50,0,0
79420,-59.8802395209581,4,2,1,60,0,0
80455,-59.8802395209581,4,2,1,70,0,1
88601,-59.8802395209581,4,2,1,40,0,0

[Colours]
Combo1 : 255,102,102
Combo2 : 211,115,249
Combo3 : 75,196,241
Combo4 : 66,234,150

[HitObjects]
287,223,541,5,2,0:0:0:0:
287,223,670,1,2,0:0:0:0:
287,223,800,2,0,L|418:183,1,105,2|0,0:0|0:0,0:0:0:0:
181,279,1317,2,0,L|292:335,1,105,2|0,0:0|0:0,0:0:0:0:
195,193,1834,2,0,L|170:131,1,52.5,2|0,0:0|0:0,0:0:0:0:
87,155,2093,2,0,L|105:84,1,52.5,2|0,0:0|0:0,0:0:0:0:
24,68,2351,1,2,0:0:0:0:
11,234,2610,5,2,0:0:0:0:
11,234,2739,1,2,0:0:0:0:
11,234,2868,2,0,P|85:246|127:281,1,105,2|0,0:0|0:0,0:0:0:0:
195,193,3386,2,0,P|243:250|261:315,1,105,2|0,0:0|0:0,0:0:0:0:
187,360,3903,6,0,P|281:376|407:304,1,210,2|0,0:0|0:0,0:0:0:0:
489,363,4679,1,2,0:0:0:0:
489,363,4808,1,0,0:0:0:0:
489,363,4937,2,0,P|466:307|464:255,1,105,2|0,0:0|0:0,0:0:0:0:
382,330,5455,2,0,P|359:274|357:222,1,105,2|0,0:0|0:0,0:0:0:0:
506,95,5972,2,0,P|481:156|412:152,1,105,2|0,0:0|0:0,0:0:0:0:
365,103,6360,1,0,0:0:0:0:
365,103,6489,2,0,P|316:127|247:138,1,105,2|0,0:0|0:0,0:0:0:0:
121,52,7006,5,2,0:0:0:0:
121,52,7265,1,0,0:0:0:0:
211,221,7524,1,2,0:0:0:0:
211,221,7783,1,0,0:0:0:0:
16,220,8041,2,0,B|125:205|61:143|215:121,1,210,2|0,0:0|0:0,0:0:0:0:
257,67,8687,1,2,0:0:0:0:
257,67,8817,2,0,P|284:90|306:125,1,52.5,2|0,0:0|0:0,0:0:0:0:
388,87,9075,5,2,0:0:0:0:
472,124,9334,1,0,0:0:0:0:
481,211,9593,1,2,0:0:0:0:
415,269,9851,1,0,0:0:0:0:
256,308,10110,5,2,0:0:0:0:
228,204,10886,2,0,P|190:190|175:170,1,52.5
124,87,11144,5,2,0:0:0:0:
40,124,11403,2,0,P|25:109|21:97,2,26.25,2|0|2,0:0|0:0|0:0,0:0:0:0:
31,211,11662,1,2,0:0:0:0:
97,269,11920,1,0,0:0:0:0:
256,308,12179,5,2,0:0:0:0:
276,88,12825,1,0,0:0:0:0:
276,88,12955,2,0,P|256:117|235:131,1,52.5,2|2,0:0|0:0,0:0:0:0:
152,122,13213,5,2,0:0:0:0:
152,122,13472,1,2,0:0:0:0:
336,194,13731,1,2,0:0:0:0:
336,194,13989,1,2,0:0:0:0:
71,332,14248,1,2,0:0:0:0:
240,187,14506,5,0,0:0:0:0:
244,290,14636,1,10,0:0:0:0:
240,187,14765,5,10,0:0:0:0:
146,245,14894,1,8,0:0:0:0:
244,290,15024,2,0,L|340:277,1,78.7500030040742,10|8,0:0|0:0,0:0:0:0:
410,384,15282,6,0,P|447:283|424:190,1,157.500006008148,6|0,1:2|0:0,0:0:0:0:
493,127,15670,2,0,P|435:145|404:157,1,78.7500030040742,10|0,0:0|0:0,0:0:0:0:
335,195,15929,1,0,1:2:0:0:
359,67,16058,2,0,B|335:96|335:96|260:126|260:126|225:177,1,157.500006008148,6|0,1:2|0:0,0:0:0:0:
274,17,16446,1,10,0:0:0:0:
121,47,16575,2,0,L|19:17,1,78.7500030040742,0|0,0:0|1:2,0:0:0:0:
159,133,16834,2,0,P|128:203|32:232,1,157.500006008148,14|10,0:0|0:0,0:0:0:0:
59,143,17222,1,8,0:0:0:0:
59,143,17351,6,0,B|165:116|209:207|171:203|222:295|334:260,1,315.000012016297,6|2,1:2|1:2,0:0:0:0:
321,263,18127,2,0,L|334:182,1,68.2499968757631,0|2,0:0|0:0,0:0:0:0:
480,314,18386,2,0,P|412:319|325:384,1,136.499993751526,2|2,1:2|0:0,0:0:0:0:
265,369,18774,1,0,0:0:0:0:
265,369,18903,1,2,1:2:0:0:
265,369,19162,2,0,L|245:283,1,68.2499968757631
168,277,19420,6,0,B|167:353|65:387|65:387|93:359|97:332,1,204.749990627289,0|0,1:2|0:0,0:0:0:0:
51,256,19937,2,0,P|38:215|19:182,1,68.2499968757631,2|0,1:2|0:0,0:0:0:0:
152,198,20196,2,0,P|138:144|125:118,1,68.2499968757631,0|2,0:0|0:0,0:0:0:0:
0,0,20455,2,0,P|56:51|133:31,1,136.499993751526,2|2,1:2|0:0,0:0:0:0:
281,118,20843,1,0,0:0:0:0:
281,0,20972,2,0,B|220:1|193:74|193:74|233:65,1,136.499993751526,2|0,1:2|0:0,0:0:0:0:
281,0,21360,1,0,0:0:0:0:
281,118,21489,6,0,L|300:194,1,68.2499968757631,6|0,1:2|0:0,0:0:0:0:
374,214,21748,1,2,0:0:0:0:
405,288,21877,1,2,0:0:0:0:
281,348,22006,2,0,L|288:273,1,68.2499968757631,2|0,1:2|0:0,0:0:0:0:
496,277,22265,2,0,L|477:199,1,68.2499968757631,2|0,0:0|0:0,0:0:0:0:
512,19,22524,6,0,B|435:45|403:130|403:130|390:88|388:51,1,204.749990627289,2|0,1:2|0:0,0:0:0:0:
338,12,23041,2,0,P|299:39|250:55,1,68.2499968757631,2|0,1:2|0:0,0:0:0:0:
149,22,23300,1,2,0:0:0:0:
66,34,23429,1,0,0:0:0:0:
161,147,23558,2,0,L|214:82,1,68.2499968757631,2|0,1:2|0:0,0:0:0:0:
38,129,23817,1,2,0:0:0:0:
19,208,23946,2,0,L|46:284,1,68.2499968757631,2|0,0:0|0:0,0:0:0:0:
232,233,24205,1,0,0:0:0:0:
227,313,24334,2,0,L|150:334,1,68.2499968757631,2|0,0:0|0:0,0:0:0:0:
82,364,24593,5,2,1:2:0:0:
316,355,24851,2,0,L|338:278,1,68.2499968757631,2|8,0:0|0:3,0:0:0:0:
438,199,25110,1,2,1:2:0:0:
413,271,25239,1,0,1:2:0:0:
489,299,25368,1,6,0:3:0:0:
512,226,25498,1,4,0:3:0:0:
371,122,25627,6,0,P|269:168|200:322,1,275.62501051426,6|0,1:2|0:0,0:0:0:0:
178,384,26662,2,0,P|173:339|170:281,1,78.7500030040742,2|2,0:0|0:0,0:0:0:0:
63,322,27179,1,2,0:0:0:0:
63,322,27437,2,0,P|76:285|83:260,1,39.3750015020371,2|2,0:0|0:0,0:0:0:0:
169,208,27696,6,0,B|146:101|104:160|72:33,1,196.875007510186,2|0,0:0|0:0,0:0:0:0:
178,51,28472,1,2,0:0:0:0:
178,51,28601,1,2,0:0:0:0:
178,51,28731,2,0,P|240:68|312:100,1,105,2|0,0:0|0:0,0:0:0:0:
81,121,29118,1,0,0:0:0:0:
81,121,29248,2,0,P|23:103|-4:49,1,105,2|10,0:0|0:0,0:0:0:0:
0,67,29571,1,8,0:0:0:0:
0,67,29636,1,10,0:0:0:0:
84,212,29765,6,0,P|103:280|137:382,1,125.999996154785,6|2,1:2|0:0,0:0:0:0:
203,373,30153,1,8,0:0:0:0:
335,235,30282,2,0,P|310:287|296:330,1,62.9999980773926,2|0,0:0|1:2,0:0:0:0:
182,155,30541,2,0,P|206:187|221:219,1,62.9999980773926,10|0,0:0|0:0,0:0:0:0:
337,47,30800,5,2,1:2:0:0:
427,151,30929,2,0,P|344:149|296:123,1,125.999996154785,8|8,0:0|0:3,0:0:0:0:
240,42,31317,1,0,1:2:0:0:
179,11,31446,1,8,0:3:0:0:
102,16,31575,1,6,0:3:0:0:
53,89,31705,1,8,0:2:0:0:
81,177,31834,6,0,P|176:152|285:159,1,157.500006008148,6|8,1:2|0:0,0:0:0:0:
195,292,32222,2,0,P|263:249|352:231,1,157.500006008148,6|0,1:2|1:2,0:0:0:0:
483,229,32610,2,0,P|461:303|366:311,1,157.500006008148,6|0,1:2|0:0,0:0:0:0:
341,237,33127,5,10,0:0:0:0:
345,231,33192,5,8,0:0:0:0:
337,231,33256,5,8,0:0:0:0:
409,179,33386,1,10,0:0:0:0:
406,77,33515,1,8,0:0:0:0:
319,7,33644,2,0,P|266:18|229:39,1,78.7500030040742,10|4,0:3|0:3,0:0:0:0:
138,58,33903,6,0,P|110:124|9:130,1,157.500006008148,6|2,1:2|0:0,0:0:0:0:
235,160,34291,1,0,0:0:0:0:
235,160,34420,2,0,P|278:236|370:212,1,157.500006008148,10|0,0:0|0:0,0:0:0:0:
420,178,34808,1,2,0:0:0:0:
340,236,34937,6,0,P|359:280|371:327,1,78.7500030040742,2|8,1:2|0:0,0:0:0:0:
265,384,35196,2,0,P|246:324|240:287,1,78.7500030040742,0|0,1:2|0:0,0:0:0:0:
113,303,35455,1,8,0:0:0:0:
113,303,35713,5,2,0:0:0:0:
213,239,35843,1,2,1:2:0:0:
88,194,35972,2,0,L|0:227,1,78.7500030040742,2|0,1:2|0:0,0:0:0:0:
220,135,36231,2,0,L|303:156,1,78.7500030040742,2|0,0:0|0:0,0:0:0:0:
75,78,36489,1,10,0:0:0:0:
75,78,36618,1,0,0:0:0:0:
182,16,36748,2,0,P|244:27|274:42,1,78.7500030040742,2|0,0:0|0:0,0:0:0:0:
459,11,37006,5,2,1:2:0:0:
375,85,37136,1,8,0:0:0:0:
481,120,37265,2,0,L|489:26,1,78.7500030040742,2|0,1:2|0:0,0:0:0:0:
296,154,37524,2,0,P|379:179|451:255,1,157.500006008148,10|0,0:0|1:2,0:0:0:0:
164,212,38041,6,0,P|109:236|77:282,1,78.7500030040742,2|0,1:2|0:0,0:0:0:0:
184,373,38300,1,2,0:0:0:0:
254,258,38429,1,2,0:0:0:0:
325,344,38558,2,0,P|364:361|412:359,1,78.7500030040742,10|0,0:0|0:0,0:0:0:0:
508,230,38817,1,2,0:0:0:0:
358,261,38946,6,0,P|338:180|341:72,1,157.500006008148,10|10,0:0|0:0,0:0:0:0:
434,55,39334,2,0,P|431:108|421:159,1,78.7500030040742,0|2,1:2|0:0,0:0:0:0:
339,23,39593,2,0,P|289:81|179:99,1,157.500006008148,14|2,0:0|0:0,0:0:0:0:
10,83,40110,5,6,1:2:0:0:
140,134,40239,2,0,P|159:178|164:253,1,78.7500030040742,10|8,0:0|0:3,0:0:0:0:
11,191,40498,1,6,0:3:0:0:
45,322,40627,2,0,P|64:352|103:389,1,78.7500030040742,2|8,1:2|0:0,0:0:0:0:
272,362,40886,1,10,0:3:0:0:
306,235,41015,6,0,P|235:270|181:331,1,157.500006008148,6|6,1:2|0:0,0:0:0:0:
183,327,41532,1,10,0:0:0:0:
359,310,41662,1,2,1:2:0:0:
400,191,41791,1,10,0:3:0:0:
324,111,41920,2,0,P|278:129|234:163,1,78.7500030040742,10|4,0:3|0:3,0:0:0:0:
159,210,42179,6,0,B|140:69|76:156|49:3,1,236.250009012223,6|2,1:2|0:0,0:0:0:0:
9,123,42696,2,0,P|104:80|180:64,1,157.500006008148,10|0,0:0|0:0,0:0:0:0:
218,0,43084,1,10,0:0:0:0:
324,111,43213,1,2,1:2:0:0:
413,70,43343,1,8,0:0:0:0:
351,202,43472,2,0,P|296:217|241:219,1,78.7500030040742,0|0,1:2|0:0,0:0:0:0:
413,70,43731,2,0,P|447:172|428:293,1,157.500006008148,8|2,0:0|0:0,0:0:0:0:
500,289,44118,1,0,0:0:0:0:
378,376,44248,6,0,P|342:347|305:323,1,78.7500030040742,2|8,1:2|0:0,0:0:0:0:
283,141,44506,2,0,P|275:186|273:230,1,78.7500030040742,2|0,1:2|0:0,0:0:0:0:
126,340,44765,2,0,P|169:323|208:303,1,78.7500030040742,10|0,0:0|0:0,0:0:0:0:
367,239,45024,1,2,0:0:0:0:
380,147,45153,1,10,0:0:0:0:
298,48,45282,6,0,P|245:56|206:77,1,78.7500030040742,2|8,1:2|0:0,0:0:0:0:
54,23,45541,2,0,P|86:62|105:99,1,78.7500030040742,2|0,1:2|0:0,0:0:0:0:
186,192,45800,2,0,P|151:292|-10:292,1,236.250009012223,10|8,0:0|0:0,0:0:0:0:
0,153,46317,5,6,1:2:0:0:
80,232,46446,1,2,0:0:0:0:
80,232,46575,2,0,P|96:173|108:142,1,78.7500030040742,2|0,1:2|0:0,0:0:0:0:
214,118,46834,2,0,P|193:165|184:198,1,78.7500030040742,10|0,0:0|0:0,0:0:0:0:
298,174,47093,1,2,0:0:0:0:
163,37,47222,2,0,P|227:73|319:88,1,157.500006008148,10|8,0:0|0:0,0:0:0:0:
327,3,47610,2,0,P|371:15|409:42,1,78.7500030040742,0|2,1:2|0:0,0:0:0:0:
505,9,47868,2,0,P|426:61|426:147,1,157.500006008148,10|2,0:0|0:0,0:0:0:0:
431,278,48386,5,6,1:2:0:0:
483,207,48515,1,10,0:0:0:0:
342,163,48644,1,2,1:2:0:0:
341,295,48774,2,0,P|286:354|177:354,1,157.500006008148,2|10,1:2|0:0,0:0:0:0:
220,215,49162,1,6,1:2:0:0:
149,304,49291,1,8,0:0:0:0:
70,176,49420,1,10,0:0:0:0:
220,215,49550,2,0,P|237:125|265:45,1,157.500006008148,10|8,0:3|0:0,0:0:0:0:
145,106,49937,6,0,P|110:90|66:77,1,78.7500030040742,6|0,0:3|0:0,0:0:0:0:
4,272,50196,1,8,0:0:0:0:
28,352,50325,1,10,0:0:0:0:
119,346,50455,6,0,P|220:305|389:314,1,236.250009012223,6|0,1:2|0:0,0:0:0:0:
430,383,50972,2,0,P|452:295|432:200,1,157.500006008148,10|0,0:0|0:0,0:0:0:0:
481,142,51360,1,10,0:0:0:0:
363,221,51489,2,0,L|263:188,1,78.7500030040742,2|8,1:2|0:0,0:0:0:0:
414,81,51748,2,0,L|316:102,1,78.7500030040742,0|0,1:2|0:0,0:0:0:0:
253,23,52006,2,0,B|149:39|217:83|62:103,1,157.500006008148,8|2,0:0|0:0,0:0:0:0:
30,63,52394,1,8,0:0:0:0:
197,155,52524,6,0,P|190:200|171:244,1,78.7500030040742,2|0,1:2|0:0,0:0:0:0:
20,245,52782,2,0,P|36:288|60:315,1,78.7500030040742,2|0,0:0|0:0,0:0:0:0:
155,359,53041,1,10,0:0:0:0:
369,263,53300,2,0,P|325:238|300:202,1,78.7500030040742,2|8,0:0|0:0,0:0:0:0:
289,61,53558,1,2,1:2:0:0:
392,175,53687,1,8,0:0:0:0:
466,15,53817,2,0,P|417:51|386:64,1,78.7500030040742,2|0,0:0|0:0,0:0:0:0:
198,19,54075,2,0,P|199:84|279:153,1,157.500006008148,10|0,0:0|1:2,0:0:0:0:
479,271,54593,6,0,P|407:279|346:297,1,78.7500030040742,6|0,1:2|0:0,0:0:0:0:
321,375,54851,2,0,P|313:315|303:283,1,78.7500030040742,2|0,0:0|0:0,0:0:0:0:
181,242,55110,2,0,P|236:226|277:208,1,78.7500030040742,10|0,0:0|0:0,0:0:0:0:
346,112,55368,2,0,P|349:176|361:219,1,78.7500030040742,2|8,0:0|0:0,0:0:0:0:
508,21,55627,1,2,1:2:0:0:
447,83,55756,1,8,0:0:0:0:
335,21,55886,2,0,P|261:44|235:76,1,78.7500030040742,4|2,0:0|0:0,0:0:0:0:
178,142,56144,2,0,P|118:102|77:0,1,157.500006008148,14|14,0:0|0:0,0:0:0:0:
195,54,56532,1,10,0:0:0:0:
29,140,56662,6,0,P|13:177|-3:216,1,78.7500030040742,6|10,1:2|0:0,0:0:0:0:
107,218,56920,2,0,P|102:261|97:303,1,78.7500030040742,10|0,0:0|1:2,0:0:0:0:
216,256,57179,2,0,P|224:296|234:338,1,78.7500030040742,12|0,0:0|1:2,0:0:0:0:
349,248,57437,2,0,P|375:291|400:319,1,78.7500030040742,2|10,1:2|0:0,0:0:0:0:
178,142,57696,5,2,1:2:0:0:
326,100,57825,1,10,0:0:0:0:
195,54,57955,2,0,P|145:63|91:83,1,78.7500030040742,2|10,1:2|0:3,0:0:0:0:
326,100,58213,2,0,P|363:106|411:107,1,78.7500030040742,10|10,0:3|0:3,0:0:0:0:
268,198,58472,2,0,P|325:205|365:220,1,78.7500030040742,6|6,0:3|0:3,0:0:0:0:
506,198,58731,6,0,P|490:239|436:263,1,78.7500030040742,6|2,1:2|0:0,0:0:0:0:
472,380,58989,1,2,0:0:0:0:
373,304,59118,2,0,P|309:348|209:370,1,157.500006008148,10|0,0:0|0:0,0:0:0:0:
139,321,59506,1,6,1:2:0:0:
252,275,59636,2,0,P|260:232|270:187,1,78.7500030040742,2|0,0:0|0:0,0:0:0:0:
151,231,59894,2,0,P|164:141|192:52,1,157.500006008148,10|2,0:0|0:3,0:0:0:0:
182,77,60218,1,2,0:3:0:0:
182,77,60282,5,6,1:2:0:0:
94,30,60412,2,0,P|77:88|77:130,1,78.7500030040742,2|2,0:0|0:0,0:0:0:0:
64,199,60670,2,0,B|128:202|179:159|122:151|221:60|319:125,1,236.250009012223,10|6,0:0|1:2,0:0:0:0:
256,192,61123,12,2,62868,0:3:0:0:
185,93,63903,5,6,0:0:0:0:
94,164,64162,2,0,P|86:120|66:51,1,105,2|2,0:0|0:0,0:0:0:0:
228,195,64679,2,0,P|236:267|266:362,1,157.5,2|0,0:0|0:0,0:0:0:0:
260,348,65196,1,2,0:0:0:0:
324,207,65455,2,0,P|334:158|366:98,1,105,2|2,0:0|0:0,0:0:0:0:
324,7,65972,2,0,P|379:82|456:63,1,157.5,2|0,0:0|0:0,0:0:0:0:
503,20,66489,2,0,P|435:33|377:61,1,105,2|0,0:0|0:0,0:0:0:0:
211,24,67006,5,2,0:0:0:0:
211,24,67265,1,2,0:0:0:0:
294,108,67524,1,2,0:0:0:0:
294,108,67782,1,2,0:0:0:0:
133,68,68041,2,0,P|82:84|13:176,1,157.5,2|0,0:0|0:0,0:0:0:0:
16,161,68558,1,2,0:0:0:0:
212,281,69075,5,2,0:0:0:0:
181,185,69334,1,2,0:0:0:0:
86,224,69593,1,2,0:0:0:0:
119,316,69851,1,2,0:0:0:0:
212,281,70110,6,0,P|280:289|344:326,1,105,2|2,0:0|0:0,0:0:0:0:
368,241,70498,2,0,P|400:294|385:351,1,105,2|0,0:0|0:0,0:0:0:0:
329,384,70886,1,2,0:0:0:0:
475,246,71144,2,0,P|489:180|514:85,1,157.5,2|0,0:0|0:0,0:0:0:0:
512,93,71662,2,0,P|471:125|436:125,1,52.5,2|2,0:0|0:0,0:0:0:0:
406,81,71920,1,2,0:0:0:0:
280,11,72179,6,0,P|230:44|154:61,1,105,6|0,1:2|1:2,0:0:0:0:
51,15,72567,1,0,0:0:0:0:
51,15,72696,2,0,P|89:54|109:101,1,105,2|0,1:2|1:2,0:0:0:0:
30,241,73084,1,0,0:0:0:0:
30,241,73213,2,0,P|87:195|194:177,1,157.5,2|0,1:2|0:0,0:0:0:0:
227,111,73731,6,0,P|261:143|274:178,1,52.5,2|0,1:2|0:0,0:0:0:0:
346,193,73989,2,0,P|311:217|289:246,1,52.5,2|8,1:2|0:0,0:0:0:0:
202,273,74248,2,0,P|228:331|293:353,1,78.7500030040742,2|8,1:2|0:0,0:0:0:0:
321,377,74506,1,2,1:2:0:0:
373,293,74635,2,0,P|426:274|459:269,1,78.7500030040742,10|0,0:0|1:2,0:0:0:0:
512,195,74894,2,0,P|463:183|429:166,1,78.7500030040742,10|0,0:0|1:2,0:0:0:0:
413,50,75153,2,0,B|307:64|361:114|234:128,1,157.500006008148,10|10,0:0|0:0,0:0:0:0:
213,177,75541,2,0,P|171:159|136:121,1,78.7500030040742,0|8,1:2|0:0,0:0:0:0:
315,258,75800,2,0,P|248:294|152:295,1,157.500006008148,2|10,1:2|1:2,0:0:0:0:
112,238,76187,1,8,0:0:0:0:
24,324,76317,6,0,P|6:266|3:223,1,78.7500030040742,0|8,1:2|0:0,0:0:0:0:
112,238,76575,2,0,P|99:179|101:54,1,175.349994514961,2|0,1:2|1:2,0:0:0:0:
179,110,76963,2,0,P|223:95|270:85,1,87.6749972574807,10|0,0:0|1:2,0:0:0:0:
210,194,77222,2,0,P|256:190|304:193,1,87.6749972574807,10|0,0:0|1:2,0:0:0:0:
376,98,77481,2,0,P|458:141|490:237,1,175.349994514961,10|10,0:0|0:0,0:0:0:0:
400,297,77868,2,0,P|390:235|389:190,1,87.6749972574807,2|8,1:2|0:0,0:0:0:0:
446,27,78127,1,2,1:2:0:0:
376,98,78256,1,10,0:0:0:0:
256,26,78386,6,0,P|227:69|214:114,1,87.6749972574807,2|8,1:2|0:0,0:0:0:0:
307,162,78644,1,2,1:2:0:0:
136,179,78774,2,0,P|158:249|181:277,1,87.6749972574807,10|0,0:0|1:2,0:0:0:0:
400,297,79032,1,8,0:0:0:0:
308,309,79162,2,0,P|279:342|228:366,1,87.6749972574807,2|8,1:2|0:0,0:0:0:0:
103,328,79420,6,0,P|89:311|69:293,3,43.8374986287404,2|0|10|0,1:2|1:2|1:2|1:2,0:0:0:0:
24,223,79679,2,0,P|33:193|47:168,3,43.8374986287404,2|0|10|0,1:2|1:2|1:2|1:2,0:0:0:0:
24,92,79937,5,10,1:2:0:0:
136,179,80067,1,10,0:0:0:0:
206,116,80196,2,0,P|250:143|305:157,1,87.6749972574807,10|10,1:2|0:0,0:0:0:0:
443,223,80455,6,0,B|425:195|392:188|392:188|358:59,1,175.349994514961,6|2,1:2|0:0,0:0:0:0:
442,63,80843,2,0,P|431:124|398:152,1,87.6749972574807,10|0,0:3|0:0,0:0:0:0:
253,224,81101,2,0,P|285:272|329:296,1,87.6749972574807,2|4,1:2|1:2,0:0:0:0:
403,384,81360,2,0,P|476:329|492:279,1,131.512495886221,2|0,0:0|0:0,0:0:0:0:
489,294,81618,2,0,P|423:265|388:255,1,87.6749972574807,10|0,0:0|1:2,0:0:0:0:
335,138,81877,1,2,1:2:0:0:
261,231,82006,2,0,P|246:167|260:59,1,175.349994514961,8|8,0:0|0:3,0:0:0:0:
350,44,82394,1,8,0:3:0:0:
259,59,82524,6,0,P|172:52|119:100,1,131.512495886221,4|0,0:3|0:0,0:0:0:0:
137,74,82782,2,0,P|103:63|50:38,1,87.6749972574807,6|0,1:2|0:0,0:0:0:0:
254,222,83041,1,2,1:2:0:0:
147,180,83170,2,0,P|88:188|48:200,1,87.6749972574807,2|8,0:0|0:0,0:0:0:0:
163,318,83429,1,6,1:2:0:0:
163,318,83558,2,0,B|232:325|284:248|241:258|279:163|382:204,1,263.024991772442
379,353,84075,2,0,P|347:304|347:257,1,87.6749972574807,6|10,1:2|0:3,0:0:0:0:
452,108,84334,1,10,0:0:0:0:
371,200,84463,1,6,0:3:0:0:
280,126,84593,6,0,P|223:152|99:172,1,175.349994514961,6|8,1:2|0:3,0:0:0:0:
142,80,84981,1,10,0:0:0:0:
13,165,85110,2,0,P|18:225|109:303,1,175.349994514961,6|0,1:2|1:2,0:0:0:0:
271,276,85498,1,2,1:2:0:0:
202,376,85627,2,0,P|191:314|184:233,1,131.512495886221,14|0,0:0|0:0,0:0:0:0:
184,245,85886,2,0,P|245:222|260:186,1,87.6749972574807,0|0,1:2|1:2,0:0:0:0:
279,29,86144,6,0,P|365:56|405:128,1,175.349994514961,14|0,0:0|1:2,0:0:0:0:
499,172,86532,1,14,0:0:0:0:
404,126,86662,2,0,P|363:153|322:188,1,87.6749972574807,6|0,1:2|1:2,0:0:0:0:
280,363,86920,2,0,P|277:313|267:260,1,87.6749972574807,8|14,0:0|0:2,0:0:0:0:
280,112,87179,1,6,1:2:0:0:
147,144,87308,2,0,P|190:166|241:184,1,87.6749972574807,0|8,0:0|0:0,0:0:0:0:
361,260,87567,6,0,P|269:281|179:337,1,175.349994514961,6|2,1:2|1:2,0:0:0:0:
101,261,87955,2,0,P|103:327|118:376,1,87.6749972574807,2|10,1:2|0:0,0:0:0:0:
147,144,88213,1,6,1:2:0:0:
101,261,88343,1,10,0:0:0:0:
38,139,88472,1,14,0:0:0:0:
200,219,88601,1,8,0:0:0:0:
