osu file format v14

[General]
AudioFilename: audio.ogg
AudioLeadIn: 0
PreviewTime: 33095
Countdown: 0
SampleSet: Soft
StackLeniency: 0.9
Mode: 0
LetterboxInBreaks: 0
WidescreenStoryboard: 1

[Editor]
DistanceSpacing: 1
BeatDivisor: 4
GridSize: 4
TimelineZoom: 1.2

[Metadata]
Title:Hate no Nai Tabi (TV Size)
TitleUnicode:果てのない旅 (TV Size)
Artist:Suzuki Aina
ArtistUnicode:鈴木愛奈
Creator:Lancien
Version:Hard
Source:最弱テイマーはゴミ拾いの旅を始めました。
Tags:femicia ivy アイビー saijaku tamer wa gomi hiroi no tabi wo hajimemashita the weakest tamer began a journey to pick up trash picking begins japanese pop jpop j-pop female vocalist anime opening op
BeatmapID:4533943
BeatmapSetID:2151863

[Difficulty]
HPDrainRate:4
CircleSize:3.5
OverallDifficulty:6
ApproachRate:8
SliderMultiplier:1.8
SliderTickRate:1

[Events]
//Background and Video events
Video,0,"video.mp4"
0,0,"bg.jpg",0,0
//Break Periods
//Storyboard Layer 0 (Background)
//Storyboard Layer 1 (Fail)
//Storyboard Layer 2 (Pass)
//Storyboard Layer 3 (Foreground)
//Storyboard Layer 4 (Overlay)
//Storyboard Sound Samples

[TimingPoints]
800,517.241379310345,4,2,1,30,1,0
13213,-66.6666666666667,4,2,1,40,0,0
15282,-66.6666666666667,4,2,1,50,0,0
17351,-76.9230769230769,4,2,1,50,0,0
25627,-133.333333333333,4,2,1,45,0,0
28472,-100,4,2,1,45,0,0
29765,-83.3333333333333,4,2,1,50,0,0
31834,-66.6666666666667,4,2,1,60,0,0
32610,-100,4,2,1,50,0,0
33127,-100,4,2,1,60,0,0
33644,-66.6666666666667,4,2,1,60,0,0
33903,-66.6666666666667,4,2,1,70,0,1
50455,-66.6666666666667,4,2,1,60,0,0
61123,-66.6666666666667,4,2,1,50,0,0
62868,-66.6666666666667,4,2,1,40,0,0
63903,-100,4,2,1,40,0,0
72179,-100,4,2,1,50,0,0
74248,-76.9230769230769,4,2,1,50,0,0
76575,-71.4285714285714,4,2,1,50,0,0
79420,-59.8802395209581,4,2,1,60,0,0
80455,-59.8802395209581,4,2,1,70,0,1
88601,-59.8802395209581,4,2,1,40,0,0

[Colours]
Combo1 : 255,102,102
Combo2 : 211,115,249
Combo3 : 75,196,241
Combo4 : 66,234,150

[HitObjects]
81,333,800,6,0,P|154:303|171:248,1,135,2|0,0:0|0:0,0:0:0:0:
235,241,1317,2,0,P|173:230|134:164,1,135,2|0,0:0|0:0,0:0:0:0:
176,128,1834,1,2,0:0:0:0:
370,13,2610,2,0,L|418:21,1,45,2|2,0:0|0:0,0:0:0:0:
469,0,2868,6,0,P|492:72|473:141,1,135,2|0,0:0|0:0,0:0:0:0:
487,187,3386,2,0,P|442:160|383:208,1,135,2|0,0:0|0:0,0:0:0:0:
404,258,3903,1,2,0:0:0:0:
240,292,4679,2,0,L|182:313,1,45,2|0,0:0|0:0,0:0:0:0:
163,341,4937,5,2,0:0:0:0:
67,318,5196,2,0,P|60:263|105:148,1,180
69,29,5972,2,0,P|112:66|161:54,1,90,2|0,0:0|0:0,0:0:0:0:
216,20,6489,1,2,0:0:0:0:
292,67,6748,1,0,0:0:0:0:
369,10,7006,6,0,P|406:55|367:169,1,180,2|2,0:0|0:0,0:0:0:0:
317,223,7782,1,0,0:0:0:0:
235,208,8041,2,0,P|260:295|350:320,1,180,2|0,0:0|0:0,0:0:0:0:
338,322,9075,6,0,P|410:296|485:287,1,135,2|0,0:0|0:0,0:0:0:0:
503,251,9593,1,2,0:0:0:0:
420,182,9851,2,0,P|404:151|400:131,2,45,0|0|2,0:0|0:0|0:0,0:0:0:0:
486,57,10886,2,0,P|464:67|441:72,1,45
394,47,11144,6,0,P|362:25|298:28,1,90,2|2,0:0|0:0,0:0:0:0:
271,49,11532,1,2,0:0:0:0:
213,21,11662,2,0,P|178:21|80:78,1,135,2|0,0:0|0:0,0:0:0:0:
40,44,12179,1,2,0:0:0:0:
0,236,12825,5,0,0:0:0:0:
0,236,12955,2,0,L|15:290,1,45,2|2,0:0|0:0,0:0:0:0:
41,318,13213,1,2,0:0:0:0:
118,274,13472,1,2,0:0:0:0:
197,332,13731,2,0,P|233:280|237:202,1,135.000005149842,2|2,0:0|0:0,0:0:0:0:
106,176,14248,2,0,P|115:115|166:60,1,135.000005149842,2|0,0:0|0:0,0:0:0:0:
266,3,14765,1,10,0:0:0:0:
320,66,14894,1,8,0:0:0:0:
381,20,15024,2,0,P|399:31|434:79,1,67.5000025749208,10|8,0:0|0:0,0:0:0:0:
490,68,15282,6,0,P|463:149|345:178,1,202.500007724762,6|10,1:2|0:0,0:0:0:0:
163,147,16058,2,0,P|190:228|308:257,1,202.500007724762,6|10,1:2|0:0,0:0:0:0:
488,326,16834,2,0,P|419:334|348:381,1,135.000005149842,14|10,0:0|0:0,0:0:0:0:
308,339,17222,1,8,0:0:0:0:
239,373,17351,6,0,P|164:345|115:340,1,116.999994644165,6|0,1:2|0:0,0:0:0:0:
1,287,17868,2,0,P|70:268|122:237,1,116.999994644165,2|0,1:2|0:0,0:0:0:0:
152,219,18256,1,2,0:0:0:0:
167,164,18386,2,0,P|106:150|27:130,1,116.999994644165,2|2,1:2|0:0,0:0:0:0:
0,35,18903,2,0,P|67:26|189:36,1,175.499991966248,2|0,1:2|0:0,0:0:0:0:
248,5,19420,6,0,P|230:45|311:142,1,175.499991966248,0|0,1:2|0:0,0:0:0:0:
351,120,19937,1,2,1:2:0:0:
178,209,20325,1,2,0:0:0:0:
178,209,20455,2,0,P|170:244|186:324,1,116.999994644165,2|2,1:2|0:0,0:0:0:0:
312,384,20972,2,0,P|345:338|356:264,1,116.999994644165,2|0,1:2|0:0,0:0:0:0:
512,254,21489,6,0,P|432:219|421:191,1,116.999994644165,6|2,1:2|0:0,0:0:0:0:
402,146,21877,1,2,0:0:0:0:
450,112,22006,1,2,1:2:0:0:
382,32,22265,2,0,L|316:47,1,58.4999973220826,2|0,0:0|0:0,0:0:0:0:
280,84,22524,2,0,B|231:76|231:76|205:12|114:-4,1,175.499991966248,2|0,1:2|0:0,0:0:0:0:
93,20,23041,1,2,1:2:0:0:
15,105,23300,1,2,0:0:0:0:
104,177,23558,6,0,P|165:198|200:261,1,116.999994644165,2|2,1:2|0:0,0:0:0:0:
202,296,23946,2,0,P|145:303|95:349,1,116.999994644165,2|0,0:0|0:0,0:0:0:0:
48,337,24334,1,2,0:0:0:0:
3,232,24593,2,0,P|61:211|108:171,1,116.999994644165,2|2,1:2|0:0,0:0:0:0:
161,174,24981,1,8,0:3:0:0:
161,174,25110,2,0,P|170:128|178:106,2,58.4999973220826,2|0|6,1:2|1:2|0:3,3:0:0:0:
224,293,25627,6,0,B|326:322|330:228|495:281,2,270.000010299683,6|2|2,1:2|0:0|0:0,0:0:0:0:
270,199,28213,1,0,0:0:0:0:
321,120,28472,1,2,0:0:0:0:
256,53,28731,2,0,P|215:67|161:75,1,90,2|0,0:0|0:0,0:0:0:0:
107,20,29248,1,2,0:0:0:0:
56,137,29765,6,0,P|53:196|95:313,1,161.999995056153,6|8,1:2|0:0,0:0:0:0:
119,325,30282,1,2,0:0:0:0:
206,271,30541,1,10,0:0:0:0:
157,193,30800,2,0,P|139:136|154:69,1,107.999996704102,2|0,1:2|0:0,0:0:0:0:
190,60,31187,1,8,0:3:0:0:
308,136,31446,1,8,0:3:0:0:
308,136,31575,2,0,P|345:127|375:126,1,53.9999983520508,6|8,0:3|0:2,0:0:0:0:
403,83,31834,6,0,P|470:102|497:177,1,135.000005149842,6|8,1:2|0:0,0:0:0:0:
502,230,32222,2,0,P|433:237|359:271,1,135.000005149842,6|0,1:2|1:2,0:0:0:0:
299,229,32610,2,0,P|275:270|348:380,1,180,6|10,1:2|0:0,0:0:0:0:
479,356,33386,2,0,P|484:330|491:298,1,45,10|8,0:0|0:0,0:0:0:0:
413,271,33644,2,0,P|424:229|428:203,1,67.5000025749208,10|4,0:3|0:3,0:0:0:0:
443,118,33903,6,0,B|319:127|384:182|254:199,1,202.500007724762,6|0,1:2|0:0,0:0:0:0:
248,281,34420,2,0,P|214:220|153:164,1,135.000005149842,10|0,0:0|0:0,0:0:0:0:
133,103,34808,1,2,0:0:0:0:
59,143,34937,2,0,P|62:173|79:211,2,67.5000025749208,2|8|0,1:2|0:0|1:2,0:0:0:0:
106,12,35455,2,0,P|149:52|243:76,1,135.000005149842,8|2,0:0|0:0,0:0:0:0:
285,24,35843,1,2,1:2:0:0:
360,61,35972,6,0,P|374:100|374:139,1,67.5000025749208,2|0,1:2|0:0,0:0:0:0:
301,157,36231,2,0,P|277:192|276:231,1,67.5000025749208,2|0,0:0|0:0,0:0:0:0:
197,244,36489,2,0,P|216:309|295:345,1,135.000005149842,10|2,0:0|0:0,0:0:0:0:
321,317,36877,1,0,0:0:0:0:
321,317,37006,2,0,P|365:299|399:293,2,67.5000025749208,2|8|2,1:2|0:0|1:2,0:0:0:0:
166,372,37524,2,0,P|102:362|65:287,1,135.000005149842,10|0,0:0|1:2,0:0:0:0:
20,288,37912,1,8,0:0:0:0:
20,288,38041,6,0,P|44:220|58:133,1,135.000005149842,2|2,1:2|0:0,0:0:0:0:
28,113,38429,1,2,0:0:0:0:
28,113,38558,1,10,0:0:0:0:
136,30,38817,1,2,0:0:0:0:
136,30,38946,2,0,P|171:45|270:61,1,135.000005149842,10|10,0:0|0:0,0:0:0:0:
338,19,39334,2,0,P|348:62|339:97,1,67.5000025749208,0|2,1:2|0:0,0:0:0:0:
439,80,39593,2,0,P|426:128|352:182,1,135.000005149842,14|2,0:0|0:0,0:0:0:0:
477,290,40110,5,6,1:2:0:0:
421,268,40239,2,0,P|380:276|350:300,1,67.5000025749208,10|8,0:0|0:3,0:0:0:0:
316,357,40498,1,6,0:3:0:0:
264,329,40627,2,0,P|243:305|229:263,1,67.5000025749208,2|8,1:2|0:0,0:0:0:0:
138,284,40886,1,10,0:3:0:0:
112,231,41015,2,0,P|146:176|175:91,1,135.000005149842,6|6,1:2|0:0,0:0:0:0:
305,138,41532,1,10,0:0:0:0:
297,83,41662,2,0,P|262:65|227:59,1,67.5000025749208,2|10,1:2|0:3,0:0:0:0:
174,0,41920,2,0,P|128:10|97:31,1,67.5000025749208,10|4,0:3|0:3,0:0:0:0:
12,0,42179,6,0,P|36:58|47:145,1,135.000005149842,6|0,1:2|0:0,0:0:0:0:
4,203,42567,1,2,0:0:0:0:
65,259,42696,2,0,P|118:277|196:217,1,135.000005149842,10|0,0:0|0:0,0:0:0:0:
230,169,43084,1,10,0:0:0:0:
283,234,43213,2,0,B|409:249|330:294|488:335,1,202.500007724762,2|0,1:2|0:0,0:0:0:0:
467,238,43731,1,8,0:0:0:0:
348,319,43989,2,0,P|318:336|270:354,1,67.5000025749208,2|0,0:0|0:0,0:0:0:0:
205,380,44248,6,0,P|156:347|159:254,1,135.000005149842,2|2,1:2|1:2,0:0:0:0:
197,253,44636,1,0,0:0:0:0:
211,192,44765,2,0,P|260:180|281:168,2,67.5000025749208,10|0|2,0:0|0:0|0:0,0:0:0:0:
148,141,45153,1,10,0:0:0:0:
78,185,45282,2,0,P|57:127|54:94,1,67.5000025749208,2|8,1:2|0:0,0:0:0:0:
148,141,45541,2,0,P|134:83|136:56,1,67.5000025749208,2|0,1:2|0:0,0:0:0:0:
70,9,45800,2,0,P|125:42|274:43,1,202.500007724762,10|8,0:0|0:0,0:0:0:0:
337,1,46317,5,6,1:2:0:0:
408,42,46446,1,2,0:0:0:0:
346,104,46575,2,0,P|315:150|306:252,2,135.000005149842,2|10|2,1:2|0:0|0:0,0:0:0:0:
408,42,47222,2,0,P|465:70|498:161,1,135.000005149842,10|8,0:0|0:0,0:0:0:0:
481,207,47610,1,0,1:2:0:0:
491,332,47868,2,0,P|454:319|417:328,1,67.5000025749208,10|0,0:0|0:0,0:0:0:0:
361,274,48127,2,0,P|336:313|309:327,1,67.5000025749208,2|8,0:0|0:0,0:0:0:0:
244,358,48386,5,6,1:2:0:0:
226,298,48515,1,10,0:0:0:0:
169,297,48644,1,2,1:2:0:0:
169,297,48774,2,0,P|161:258|171:221,1,67.5000025749208,2|8,1:2|0:0,0:0:0:0:
251,193,49032,1,10,0:0:0:0:
277,141,49162,2,0,P|255:108|225:96,1,67.5000025749208,6|8,1:2|0:0,0:0:0:0:
166,23,49420,1,10,0:0:0:0:
109,24,49550,2,0,P|74:50|64:92,1,67.5000025749208,10|8,0:3|0:3,0:0:0:0:
0,141,49808,1,8,0:0:0:0:
46,171,49937,2,0,P|64:206|80:244,1,67.5000025749208,6|0,0:3|0:0,0:0:0:0:
149,274,50196,2,0,P|162:236|181:201,1,67.5000025749208,8|10,0:0|0:0,0:0:0:0:
251,193,50455,6,0,P|319:199|412:370,2,270.000010299683,6|10|2,1:2|0:0|1:2,0:0:0:0:
273,282,51618,1,8,0:0:0:0:
350,257,51748,2,0,P|394:238|437:233,1,67.5000025749208,0|0,1:2|0:0,0:0:0:0:
498,225,52006,2,0,P|444:204|393:134,1,135.000005149842,8|2,0:0|0:0,0:0:0:0:
460,1,52524,6,0,P|385:8|314:53,1,135.000005149842,2|2,1:2|0:0,0:0:0:0:
238,140,53041,1,10,0:0:0:0:
195,6,53299,1,2,0:0:0:0:
83,54,53558,2,0,P|74:84|74:127,1,67.5000025749208,2|8,1:2|0:0,0:0:0:0:
21,140,53817,1,2,0:0:0:0:
109,224,54075,2,0,B|207:202|169:156|302:137,1,202.500007724762,10|0,0:0|0:0,0:0:0:0:
373,157,54593,6,0,P|367:196|348:227,1,67.5000025749208,6|0,1:2|0:0,0:0:0:0:
270,245,54851,2,0,P|289:288|329:312,1,67.5000025749208,2|0,0:0|0:0,0:0:0:0:
390,322,55110,2,0,P|309:341|255:392,1,135.000005149842,10|2,0:0|0:0,0:0:0:0:
193,337,55498,1,8,0:0:0:0:
124,380,55627,2,0,P|108:328|132:182,1,202.500007724762,2|2,1:2|0:0,0:0:0:0:
176,160,56144,1,14,0:0:0:0:
52,93,56403,5,14,0:0:0:0:
64,32,56532,1,10,0:0:0:0:
127,37,56662,2,0,P|170:43|206:62,1,67.5000025749208,6|10,1:2|0:0,0:0:0:0:
270,16,56920,2,0,P|299:42|312:88,1,67.5000025749208,10|0,0:0|1:2,0:0:0:0:
397,72,57179,2,0,P|345:106|277:239,1,202.500007724762,12|10,0:0|0:0,0:0:0:0:
311,300,57696,1,2,1:2:0:0:
372,319,57825,1,10,0:0:0:0:
423,294,57955,2,0,P|432:268|434:224,1,67.5000025749208,2|10,1:2|0:3,0:0:0:0:
484,202,58213,1,10,0:3:0:0:
397,72,58472,2,0,P|358:89|317:97,1,67.5000025749208,6|6,0:3|0:3,0:0:0:0:
268,54,58731,5,6,1:2:0:0:
222,90,58860,2,0,P|219:130|235:170,1,67.5000025749208,2|2,0:0|0:0,0:0:0:0:
297,200,59118,1,10,0:0:0:0:
234,335,59506,5,6,1:2:0:0:
186,288,59636,2,0,P|139:295|117:314,1,67.5000025749208,2|0,0:0|0:0,0:0:0:0:
66,362,59894,2,0,P|33:305|41:170,1,202.500007724762,10|6,0:0|1:2,0:0:0:0:
127,186,60412,1,2,0:0:0:0:
127,186,60541,1,2,0:0:0:0:
127,186,60670,2,0,P|210:166|331:159,1,202.500007724762,10|6,0:0|1:2,0:0:0:0:
256,192,61123,12,2,62868,0:3:0:0:
70,91,63903,6,0,P|66:137|95:193,1,90,6|2,0:0|0:0,0:0:0:0:
11,213,64420,2,0,P|39:248|99:257,1,90,2|2,0:0|0:0,0:0:0:0:
36,337,64937,2,0,P|84:310|220:292,1,180,0|2,0:0|0:0,0:0:0:0:
362,141,65972,5,2,0:0:0:0:
362,141,66489,1,2,0:0:0:0:
443,270,67006,2,0,P|461:214|462:168,1,90,2|2,0:0|0:0,0:0:0:0:
355,253,67524,2,0,P|359:297|381:353,1,90,2|2,0:0|0:0,0:0:0:0:
287,376,68041,5,2,0:0:0:0:
256,221,68558,2,0,P|213:223|166:244,1,90,2|0,0:0|0:0,0:0:0:0:
135,324,69075,1,2,0:0:0:0:
70,244,69334,1,2,0:0:0:0:
170,241,69593,2,0,P|182:176|195:139,1,90,2|2,0:0|0:0,0:0:0:0:
83,109,70110,6,0,P|113:53|177:28,1,135,2|2,0:0|0:0,0:0:0:0:
327,50,70886,1,2,0:0:0:0:
270,120,71144,2,0,P|279:173|329:257,1,135,2|0,0:0|0:0,0:0:0:0:
373,253,71662,2,0,P|407:229|427:222,1,45,2|2,0:0|0:0,0:0:0:0:
470,233,71920,1,2,0:0:0:0:
510,102,72179,6,0,P|448:89|379:48,1,135,6|0,1:2|0:0,0:0:0:0:
404,6,72696,1,2,1:2:0:0:
257,59,73084,1,0,0:0:0:0:
257,59,73213,2,0,P|198:77|167:157,1,135,2|0,1:2|0:0,0:0:0:0:
127,161,73731,2,0,P|138:200|143:224,2,45,2|0|2,1:2|0:0|1:2,0:0:0:0:
10,217,74248,6,0,P|22:259|96:298,1,116.999994644165,2|8,1:2|0:0,0:0:0:0:
96,351,74636,1,10,0:0:0:0:
193,278,74894,2,0,P|232:298|251:318,1,58.4999973220826,10|0,0:0|1:2,0:0:0:0:
265,358,75153,2,0,P|311:382|381:370,1,116.999994644165,10|10,0:0|0:0,0:0:0:0:
512,277,75800,2,0,P|478:210|479:152,1,116.999994644165,2|10,1:2|1:2,0:0:0:0:
501,124,76187,1,8,0:0:0:0:
501,124,76317,1,0,1:2:0:0:
420,34,76575,6,0,P|383:51|280:65,1,125.999996154785,2|0,1:2|1:2,0:0:0:0:
257,31,76963,1,10,0:0:0:0:
160,92,77222,2,0,P|164:140|247:192,1,125.999996154785,10|10,0:0|0:0,0:0:0:0:
270,217,77610,2,0,P|256:255|231:281,1,62.9999980773926,0|10,1:2|0:0,0:0:0:0:
196,306,77868,1,2,1:2:0:0:
63,277,78127,5,2,1:2:0:0:
63,277,78256,1,10,0:0:0:0:
63,277,78386,2,0,P|36:205|39:137,1,125.999996154785,2|2,1:2|1:2,0:0:0:0:
120,180,78774,2,0,P|131:130|186:71,1,125.999996154785,10|8,0:0|0:0,0:0:0:0:
220,122,79162,1,2,1:2:0:0:
259,0,79420,5,2,1:2:0:0:
259,0,79550,2,0,P|319:28|408:50,1,150.299995298538,10|10,1:2|1:2,0:0:0:0:
480,49,79937,2,0,P|502:102|500:137,1,75.1499976492692,10|10,1:2|0:0,0:0:0:0:
419,154,80196,2,0,P|426:210|439:239,1,75.1499976492692,10|10,1:2|0:0,0:0:0:0:
507,276,80455,6,0,B|376:283|431:343|288:359,1,225.449992947808,6|10,1:2|0:3,0:0:0:0:
259,218,81101,2,0,P|239:249|228:291,1,75.1499976492692,2|4,1:2|1:2,0:0:0:0:
218,335,81360,1,2,0:0:0:0:
127,262,81618,1,10,0:0:0:0:
127,262,81748,2,0,P|100:232|66:217,1,75.1499976492692,0|2,1:2|1:2,0:0:0:0:
6,165,82006,2,0,P|67:160|156:110,1,150.299995298538,8|8,0:0|0:3,0:0:0:0:
144,62,82394,1,8,0:3:0:0:
144,62,82524,1,4,0:3:0:0:
237,136,82782,6,0,P|290:146|338:162,1,75.1499976492692,6|0,1:2|0:0,0:0:0:0:
356,221,83041,1,2,1:2:0:0:
441,199,83170,2,0,P|460:153|453:108,1,75.1499976492692,2|8,0:0|0:0,0:0:0:0:
510,61,83429,2,0,P|459:21|300:31,1,225.449992947808,6|0,1:2|1:2,0:0:0:0:
180,11,84075,1,6,1:2:0:0:
127,69,84205,1,10,0:3:0:0:
186,126,84334,2,0,P|217:152|229:194,1,75.1499976492692,10|6,0:0|0:3,0:0:0:0:
309,212,84593,6,0,P|236:228|186:300,1,150.299995298538,6|8,1:2|0:3,0:0:0:0:
241,353,84981,1,10,0:0:0:0:
190,284,85110,2,0,B|116:264|161:233|40:209,1,150.299995298538,6|0,1:2|1:2,0:0:0:0:
62,301,85498,1,2,1:2:0:0:
62,301,85627,2,0,P|97:239|115:135,1,150.299995298538,14|0,0:0|1:2,0:0:0:0:
26,87,86144,6,0,P|85:47|185:46,1,150.299995298538,14|0,0:0|1:2,0:0:0:0:
247,21,86532,1,14,0:0:0:0:
286,103,86662,2,0,B|361:90|335:50|440:37,1,150.299995298538,6|8,1:2|0:0,0:0:0:0:
472,114,87050,1,14,0:2:0:0:
472,114,87179,2,0,P|470:167|361:214,1,150.299995298538,6|8,1:2|0:0,0:0:0:0:
307,198,87567,2,0,P|356:236|389:318,1,150.299995298538,6|2,1:2|1:2,0:0:0:0:
472,295,87955,2,0,P|471:348|453:375,1,75.1499976492692,2|10,1:2|0:0,0:0:0:0:
388,315,88213,5,6,1:2:0:0:
322,308,88343,1,10,0:0:0:0:
284,359,88472,1,14,0:0:0:0:
246,350,88601,1,8,0:0:0:0:
