osu file format v14

[General]
AudioFilename: audio.ogg
AudioLeadIn: 0
PreviewTime: 33095
Countdown: 0
SampleSet: Soft
StackLeniency: 0.9
Mode: 0
LetterboxInBreaks: 0
WidescreenStoryboard: 0

[Editor]
DistanceSpacing: 1
BeatDivisor: 4
GridSize: 4
TimelineZoom: 2.6

[Metadata]
Title:Hate no Nai Tabi (TV Size)
TitleUnicode:果てのない旅 (TV Size)
Artist:Suzuki Aina
ArtistUnicode:鈴木愛奈
Creator:Lancien
Version:Extra
Source:最弱テイマーはゴミ拾いの旅を始めました。
Tags:femicia ivy アイビー saijaku tamer wa gomi hiroi no tabi wo hajimemashita the weakest tamer began a journey to pick up trash picking begins japanese pop jpop j-pop female vocalist anime opening op
BeatmapID:4533942
BeatmapSetID:2151863

[Difficulty]
HPDrainRate:5
CircleSize:3.8
OverallDifficulty:8.4
ApproachRate:9.4
SliderMultiplier:2.4
SliderTickRate:1

[Events]
//Background and Video events
Video,0,"video.mp4"
0,0,"bg.jpg",0,0
//Break Periods
//Storyboard Layer 0 (Background)
//Storyboard Layer 1 (Fail)
//Storyboard Layer 2 (Pass)
//Storyboard Layer 3 (Foreground)
//Storyboard Layer 4 (Overlay)
//Storyboard Sound Samples

[TimingPoints]
800,517.241379310345,4,2,1,30,1,0
1317,-80,4,2,1,30,0,0
1834,-133.333333333333,4,2,1,30,0,0
2868,-100,4,2,1,30,0,0
3386,-80,4,2,1,30,0,0
4937,-66.6666666666667,4,2,1,30,0,0
5972,-100,4,2,1,30,0,0
7265,-66.6666666666667,4,2,1,30,0,0
7782,-50,4,2,1,30,0,0
8041,-66.6666666666667,4,2,1,30,0,0
13213,-66.6666666666667,4,2,1,40,0,0
15282,-66.6666666666667,4,2,1,50,0,0
16834,-50,4,2,1,50,0,0
17351,-66.6666666666667,4,2,1,50,0,0
19679,-76.9230769230769,4,2,1,50,0,0
25627,-133.333333333333,4,2,1,45,0,0
28472,-100,4,2,1,45,0,0
29765,-83.3333333333333,4,2,1,50,0,0
31834,-66.6666666666667,4,2,1,60,0,0
32610,-200,4,2,1,50,0,0
33127,-100,4,2,1,60,0,0
33903,-66.6666666666667,4,2,1,70,0,1
35196,-50,4,2,1,70,0,1
35455,-66.6666666666667,4,2,1,70,0,1
46575,-50,4,2,1,70,0,1
46834,-66.6666666666667,4,2,1,70,0,1
50455,-50,4,2,1,60,0,0
51231,-66.6666666666667,4,2,1,60,0,0
61123,-66.6666666666667,4,2,1,50,0,0
62868,-66.6666666666667,4,2,1,40,0,0
63903,-100,4,2,1,40,0,0
72179,-100,4,2,1,50,0,0
74248,-66.6666666666667,4,2,1,50,0,0
76575,-59.8802395209581,4,2,1,50,0,0
79420,-59.8802395209581,4,2,1,60,0,0
80455,-59.8802395209581,4,2,1,70,0,1
88601,-59.8802395209581,4,2,1,40,0,0

[Colours]
Combo1 : 255,102,102
Combo2 : 211,115,249
Combo3 : 75,196,241
Combo4 : 66,234,150

[HitObjects]
401,287,541,5,2,0:0:0:0:
401,287,670,1,2,0:0:0:0:
401,287,800,2,0,L|478:268,3,60,2|0|0|0,0:0|0:0|0:0|0:0,0:0:0:0:
337,359,1317,2,0,P|298:325|192:331,1,150,2|0,0:0|0:0,0:0:0:0:
50,163,1834,6,0,L|32:226,1,45.0000017166138,2|0,0:0|0:0,0:0:0:0:
139,99,2093,2,0,L|193:107,1,45.0000017166138,2|0,0:0|0:0,0:0:0:0:
44,59,2351,1,2,0:0:0:0:
289,49,2610,5,2,0:0:0:0:
289,49,2739,1,2,0:0:0:0:
289,49,2868,2,0,P|306:68|326:120,1,60,2|0,0:0|0:0,0:0:0:0:
402,90,3127,2,0,P|394:133|378:158,1,60
474,182,3386,2,0,P|413:184|335:247,1,150,2|0,0:0|0:0,0:0:0:0:
449,301,3903,5,2,0:0:0:0:
449,301,4162,1,0,0:0:0:0:
449,301,4420,1,0,0:0:0:0:
319,378,4679,2,0,L|245:354,1,75,2|0,0:0|0:0,0:0:0:0:
118,382,4937,6,0,P|165:333|172:280,3,90.0000034332277,2|0|0|0,0:0|0:0|0:0|0:0,0:0:0:0:
343,236,5455,2,0,P|300:270|258:248,3,90.0000034332277,2|0|0|0,0:0|0:0|0:0|0:0,0:0:0:0:
191,198,5972,6,0,P|184:152|172:122,1,60,2|0,0:0|0:0,0:0:0:0:
240,71,6231,2,0,P|253:35|276:6,1,60
81,33,6489,6,0,P|74:79|62:109,1,60,2|0,0:0|0:0,0:0:0:0:
0,172,6748,2,0,P|13:208|36:237,1,60
64,299,7006,5,2,0:0:0:0:
4,359,7136,1,0,0:0:0:0:
4,359,7265,2,0,P|61:377|109:371,1,90.0000034332277
184,346,7524,1,2,0:0:0:0:
235,384,7653,1,0,0:0:0:0:
235,384,7782,2,0,P|276:346|287:275,1,120
395,274,8041,6,0,P|288:239|247:155,1,180.000006866455,2|0,0:0|0:0,0:0:0:0:
346,166,8429,1,0,0:0:0:0:
512,175,8687,1,2,0:0:0:0:
512,175,8817,2,0,P|467:196|416:200,1,90.0000034332277,2|0,0:0|0:0,0:0:0:0:
445,106,9075,5,2,0:0:0:0:
420,49,9334,1,0,0:0:0:0:
336,45,9593,1,2,0:0:0:0:
285,100,9851,1,0,0:0:0:0:
239,95,9981,1,0,0:0:0:0:
230,80,10110,5,2,0:0:0:0:
194,39,10886,1,0,0:0:0:0:
132,31,11015,1,0,0:0:0:0:
72,79,11144,1,2,0:0:0:0:
81,153,11403,2,0,P|106:173|116:199,2,45.0000017166138,2|2|2,0:0|0:0|0:0,0:0:0:0:
115,378,11662,6,0,B|62:319|-5:343|-5:343|63:302|38:217,1,270.000010299683,2|0,0:0|0:0,0:0:0:0:
127,281,12179,1,2,0:0:0:0:
342,253,12826,1,0,0:0:0:0:
258,384,12955,2,0,P|270:332|267:286,1,90.0000034332277,2|2,0:0|0:0,0:0:0:0:
176,106,13213,6,0,P|167:176|228:237,1,135.000005149841,2|0,0:0|0:0,0:0:0:0:
203,226,13472,2,0,P|258:202|299:184,1,90.0000034332277,2|0,0:0|0:0,0:0:0:0:
380,83,13731,2,0,P|372:143|367:187,1,90.0000034332277,2|0,0:0|0:0,0:0:0:0:
415,307,13989,2,0,P|366:270|330:244,1,90.0000034332277,2|0,0:0|0:0,0:0:0:0:
167,324,14248,6,0,P|111:340|18:382,1,135.000005149841,2|0,0:0|0:0,0:0:0:0:
40,369,14506,1,0,0:0:0:0:
15,211,14636,5,10,0:0:0:0:
95,234,14765,1,10,0:0:0:0:
194,179,14894,5,8,0:0:0:0:
286,138,15024,1,10,0:0:0:0:
377,215,15153,5,8,0:0:0:0:
461,289,15282,2,0,P|475:188|437:95,1,180.000006866455,6|0,1:2|0:0,0:0:0:0:
486,22,15670,2,0,P|453:94|377:41,1,180.000006866455,10|0,0:0|1:2,0:0:0:0:
291,230,16058,6,0,B|244:221|222:190|222:190|67:233,1,225.000008583069,6|0,1:2|0:0,0:0:0:0:
83,228,16446,1,10,0:0:0:0:
137,300,16575,2,0,P|173:243|166:205,1,90.0000034332277,0|0,0:0|1:2,0:0:0:0:
232,7,16834,6,0,B|174:15|129:81|129:81|115:45|101:20,1,180,14|0,0:0|0:0,0:0:0:0:
109,35,17093,1,10,0:0:0:0:
32,119,17222,1,8,0:0:0:0:
232,104,17351,6,0,P|306:121|401:190,1,180.000006866455,6|0,1:2|0:0,0:0:0:0:
452,97,17868,2,0,P|493:185|440:261,1,180.000006866455,2|0,1:2|0:0,0:0:0:0:
486,368,18256,1,2,0:0:0:0:
486,368,18386,2,0,P|427:338|380:340,1,90.0000034332277,2|0,1:2|0:0,0:0:0:0:
347,248,18644,2,0,P|299:277|291:321,1,90.0000034332277,2|0,0:0|0:0,0:0:0:0:
230,384,18903,2,0,P|212:301|216:102,1,270.000010299683,2|0,1:2|0:0,0:0:0:0:
242,32,19420,5,0,1:2:0:0:
213,116,19550,1,0,0:0:0:0:
307,101,19679,2,0,L|388:130,1,77.9999964294435
149,23,19937,2,0,L|49:62,1,77.9999964294435,2|0,1:2|0:0,0:0:0:0:
127,175,20196,1,0,0:0:0:0:
34,134,20325,1,2,0:0:0:0:
30,242,20455,6,0,B|88:193|88:193|180:224,1,155.999992858887,2|2,1:2|0:0,0:0:0:0:
277,184,20972,2,0,B|364:268|364:268|482:204,1,233.999989288331,2|0,1:2|0:0,0:0:0:0:
464,328,21489,6,0,P|438:275|436:235,1,77.9999964294435,6|0,1:2|0:0,0:0:0:0:
352,328,21748,1,2,0:0:0:0:
308,365,21877,1,2,0:0:0:0:
241,312,22006,2,0,L|150:333,1,77.9999964294435,2|0,1:2|0:0,0:0:0:0:
107,379,22265,2,0,L|17:368,1,77.9999964294435,2|0,0:0|0:0,0:0:0:0:
0,260,22524,6,0,B|84:238|84:238|115:178|115:178|213:155,1,233.999989288331,2|0,1:2|0:0,0:0:0:0:
283,127,23041,1,2,1:2:0:0:
364,175,23170,1,0,0:0:0:0:
283,127,23300,2,0,L|276:40,1,77.9999964294435,2|0,0:0|0:0,0:0:0:0:
57,20,23558,6,0,P|94:64|192:87,1,155.999992858887,2|2,1:2|0:0,0:0:0:0:
276,49,23946,2,0,B|343:58|348:12|452:41,1,155.999992858887,2|0,0:0|0:0,0:0:0:0:
507,116,24334,2,0,P|496:155|482:200,1,77.9999964294435,2|0,0:0|0:0,0:0:0:0:
397,240,24593,5,2,1:2:0:0:
479,327,24722,1,0,0:0:0:0:
397,240,24851,2,0,P|351:254|312:280,1,77.9999964294435,2|8,0:0|0:3,0:0:0:0:
223,368,25110,2,0,P|233:321|230:274,1,77.9999964294435,2|0,1:2|1:2,3:0:0:0:
199,153,25368,2,0,P|234:185|276:206,1,77.9999964294435,6|4,0:3|0:3,0:0:0:0:
389,149,25627,6,0,B|306:132|230:217|320:206|251:279|198:293|114:278,1,315.000012016297,6|0,1:2|0:0,0:0:0:0:
88,343,26662,2,0,P|71:283|59:245,1,90.0000034332277,2|2,0:0|0:0,0:0:0:0:
198,244,27179,2,0,P|203:190|210:140,1,90.0000034332277,2|2,0:0|0:0,0:0:0:0:
207,154,27567,1,2,0:0:0:0:
112,12,27696,6,0,P|98:66|112:190,1,180.000006866455,2|0,0:0|0:0,0:0:0:0:
256,33,28472,2,0,P|226:35|199:47,1,60,2|2,0:0|0:0,0:0:0:0:
285,231,28731,2,0,P|299:177|290:90,1,120,2|0,0:0|0:0,0:0:0:0:
192,185,29118,1,0,0:0:0:0:
192,185,29248,2,0,P|191:216|201:251,1,60,2|0,0:0|0:0,0:0:0:0:
143,352,29506,5,10,0:0:0:0:
146,359,29571,5,8,0:0:0:0:
154,363,29636,5,10,0:0:0:0:
262,310,29765,6,0,P|322:337|425:354,1,143.999995605469,6|2,1:2|0:0,0:0:0:0:
490,342,30153,1,8,0:0:0:0:
415,266,30282,2,0,P|403:221|388:177,1,71.9999978027344,2|0,0:0|1:2,0:0:0:0:
512,70,30541,2,0,P|479:102|448:137,1,71.9999978027344,10|0,0:0|0:0,0:0:0:0:
293,83,30800,2,0,P|337:95|383:104,1,71.9999978027344,2|8,1:2|0:0,0:0:0:0:
271,171,31058,2,0,P|216:160|107:168,1,143.999995605469,0|0,0:0|1:2,0:0:0:0:
172,241,31446,1,8,0:3:0:0:
73,80,31575,2,0,P|48:112|30:167,1,71.9999978027344,6|8,0:3|0:2,0:0:0:0:
12,237,31834,6,0,P|41:309|157:325,1,180.000006866455,6|8,1:2|0:0,0:0:0:0:
382,167,32222,2,0,P|353:239|237:255,1,180.000006866455,6|0,1:2|1:2,0:0:0:0:
167,12,32610,6,0,P|180:71|215:88,1,90,6|0,1:2|0:0,0:0:0:0:
275,36,33127,5,10,0:0:0:0:
281,37,33192,5,8,0:0:0:0:
286,44,33256,5,8,0:0:0:0:
430,69,33386,5,10,0:0:0:0:
289,137,33515,1,8,0:0:0:0:
208,213,33644,5,10,0:3:0:0:
127,178,33774,1,4,0:3:0:0:
59,286,33903,6,0,P|25:193|40:97,1,180.000006866455,6|2,1:2|0:0,0:0:0:0:
124,76,34291,1,0,0:0:0:0:
127,178,34420,2,0,P|125:219|143:276,1,90.0000034332277,10|0,0:0|0:0,0:0:0:0:
271,353,34679,2,0,P|296:286|295:236,1,90.0000034332277,0|2,0:0|0:0,0:0:0:0:
354,85,34937,5,2,1:2:0:0:
269,160,35067,1,8,0:0:0:0:
354,85,35196,2,0,B|436:88|479:156|479:156|465:215,1,180.000006866455,0|0,1:2|0:0,0:0:0:0:
477,184,35455,2,0,L|391:210,1,90.0000034332277,8|0,0:0|0:0,0:0:0:0:
180,17,35713,5,2,0:0:0:0:
172,127,35843,1,2,1:2:0:0:
82,77,35972,2,0,P|34:120|12:206,1,135.000005149841,2|0,1:2|0:0,0:0:0:0:
12,186,36231,2,0,P|67:211|98:229,1,90.0000034332277,2|0,0:0|0:0,0:0:0:0:
208,325,36489,2,0,P|202:264|202:228,1,90.0000034332277,10|0,0:0|0:0,0:0:0:0:
247,77,36748,2,0,P|197:111|165:129,1,90.0000034332277,2|0,0:0|0:0,0:0:0:0:
126,384,37006,5,2,1:2:0:0:
0,384,37136,1,8,0:0:0:0:
0,384,37265,2,0,P|48:339|63:298,1,90.0000034332277,2|0,1:2|0:0,0:0:0:0:
282,378,37524,2,0,P|306:306|294:232,1,135.000005149841,10|0,0:0|0:0,0:0:0:0:
299,248,37782,1,0,1:2:0:0:
208,325,37912,1,8,0:0:0:0:
208,180,38041,6,0,P|267:167|301:147,1,90.0000034332277,2|0,1:2|0:0,0:0:0:0:
470,239,38300,1,2,0:0:0:0:
512,153,38429,1,2,0:0:0:0:
470,239,38558,2,0,P|421:233|379:211,1,90.0000034332277,10|0,0:0|0:0,0:0:0:0:
512,43,38817,5,2,0:0:0:0:
430,122,38946,2,0,P|382:110|292:12,1,180.000006866455,10|10,0:0|0:0,0:0:0:0:
218,65,39334,2,0,P|186:58|116:73,1,90.0000034332277,0|2,1:2|0:0,0:0:0:0:
39,16,39593,2,0,P|-3:85|13:166,1,135.000005149841,14|0,0:0|0:0,0:0:0:0:
0,137,39851,1,2,0:0:0:0:
308,140,40110,5,6,1:2:0:0:
211,241,40239,1,10,0:0:0:0:
308,140,40368,1,8,0:3:0:0:
180,122,40498,5,6,0:3:0:0:
328,263,40627,1,2,1:2:0:0:
180,122,40756,1,8,0:0:0:0:
96,211,40886,5,10,0:3:0:0:
426,160,41015,1,6,1:2:0:0:
149,308,41274,5,6,0:0:0:0:
347,56,41532,1,10,0:0:0:0:
180,122,41662,5,2,1:2:0:0:
308,140,41791,1,10,0:3:0:0:
424,243,41920,5,10,0:3:0:0:
506,226,42050,1,4,0:3:0:0:
362,364,42179,6,0,P|287:354|221:248,1,180.000006866455,6|0,1:2|0:0,0:0:0:0:
297,226,42567,1,2,0:0:0:0:
105,325,42696,2,0,P|177:289|209:192,1,180.000006866455,10|0,0:0|0:0,0:0:0:0:
135,64,43084,1,10,0:0:0:0:
244,80,43213,5,2,1:2:0:0:
132,176,43343,1,8,0:0:0:0:
132,176,43472,2,0,P|84:155|38:140,1,90.0000034332277,0|0,1:2|0:0,0:0:0:0:
135,64,43731,2,0,P|196:51|306:3,1,180.000006866455,8|2,0:0|0:0,0:0:0:0:
303,4,44248,6,0,P|333:42|361:97,1,90.0000034332277,2|8,1:2|0:0,0:0:0:0:
414,177,44506,1,2,1:2:0:0:
452,47,44636,1,0,0:0:0:0:
310,167,44765,2,0,P|330:217|367:263,1,90.0000034332277,10|0,0:0|0:0,0:0:0:0:
489,262,45024,2,0,P|465:318|434:351,1,90.0000034332277,2|10,0:0|0:0,0:0:0:0:
325,348,45282,5,2,1:2:0:0:
235,261,45412,1,8,0:0:0:0:
56,278,45541,1,2,1:2:0:0:
306,69,45800,6,0,L|205:42,1,90.0000034332277,10|0,0:0|0:0,0:0:0:0:
150,93,46058,2,0,L|57:115,1,90.0000034332277,0|8,1:2|0:0,0:0:0:0:
128,333,46317,5,6,1:2:0:0:
49,366,46446,1,2,0:0:0:0:
56,278,46575,2,0,P|122:298|239:353,1,180.000006866455,2|0,1:2|0:0,0:0:0:0:
222,343,46834,2,0,P|268:327|315:318,1,90.0000034332277,10|0,0:0|0:0,0:0:0:0:
398,355,47093,1,2,0:0:0:0:
311,147,47222,5,10,0:0:0:0:
254,239,47351,2,0,P|231:180|230:126,1,90.0000034332277,0|8,1:2|0:0,0:0:0:0:
395,21,47610,2,0,P|387:84|375:118,1,90.0000034332277,0|2,1:2|0:0,0:0:0:0:
300,52,47868,2,0,P|245:30|103:36,1,180.000006866455,10|2,0:0|0:0,0:0:0:0:
0,169,48256,1,8,0:0:0:0:
81,109,48386,6,0,P|105:152|114:212,1,90.0000034332277,6|10,1:2|0:0,0:0:0:0:
98,383,48644,1,2,1:2:0:0:
39,242,48774,1,2,1:2:0:0:
178,335,48903,2,0,P|241:352|281:368,1,90.0000034332277,8|10,0:0|0:0,0:0:0:0:
486,243,49162,5,6,1:2:0:0:
362,375,49291,1,8,0:0:0:0:
438,118,49420,1,10,0:0:0:0:
349,289,49550,2,0,P|323:243|315:183,1,90.0000034332277,10|8,0:3|0:3,0:0:0:0:
392,31,49808,1,8,0:0:0:0:
237,172,49937,2,0,P|175:154|131:74,1,135.000005149841,6|0,0:3|0:0,0:0:0:0:
135,98,50196,2,0,P|195:78|239:69,1,90.0000034332277,8|10,0:0|0:0,0:0:0:0:
187,265,50455,6,0,B|117:257|56:317|56:317|7:279|33:222,1,240,6|0,1:2|1:2,0:0:0:0:
372,355,50972,2,0,P|424:301|450:145,1,180,10|0,0:0|0:0,0:0:0:0:
455,202,51231,2,0,P|400:237|365:241,1,90.0000034332277,0|10,0:0|0:0,0:0:0:0:
500,16,51489,1,2,1:2:0:0:
382,144,51618,1,8,0:0:0:0:
324,9,51748,2,0,P|268:2|185:37,1,135.000005149841,0|0,1:2|0:0,0:0:0:0:
195,28,52006,2,0,P|221:84|225:130,1,90.0000034332277,8|0,0:0|0:0,0:0:0:0:
189,260,52265,1,2,0:0:0:0:
299,179,52394,1,8,0:0:0:0:
122,200,52524,6,0,P|59:180|3:100,1,135.000005149841,2|0,1:2|0:0,0:0:0:0:
13,130,52782,2,0,P|66:106|102:93,1,90.0000034332277,2|0,0:0|0:0,0:0:0:0:
260,314,53041,2,0,P|213:280|183:256,1,90.0000034332277,10|0,0:0|0:0,0:0:0:0:
296,8,53300,2,0,P|290:65|283:102,1,90.0000034332277,2|8,0:0|0:0,0:0:0:0:
352,280,53558,5,2,1:2:0:0:
200,169,53687,1,8,0:0:0:0:
419,222,53817,2,0,P|465:182|496:103,1,135.000005149841,2|0,0:0|0:0,0:0:0:0:
494,115,54075,1,10,0:0:0:0:
338,181,54205,1,0,1:2:0:0:
450,36,54334,1,0,1:2:0:0:
200,169,54593,6,0,P|214:234|274:306,1,135.000005149841,6|0,1:2|0:0,0:0:0:0:
352,280,54851,2,0,P|326:341|288:370,1,90.0000034332277,2|0,0:0|0:0,0:0:0:0:
43,345,55110,1,10,0:0:0:0:
204,374,55239,1,0,0:0:0:0:
102,284,55368,2,0,P|83:220|83:168,1,90.0000034332277,2|8,0:0|0:0,0:0:0:0:
197,7,55627,5,2,1:2:0:0:
153,109,55756,1,8,0:0:0:0:
86,44,55886,2,0,P|41:59|-14:68,1,90.0000034332277,4|2,0:0|0:0,0:0:0:0:
274,50,56144,2,0,P|330:68|413:131,1,135.000005149841,14|0,0:0|0:0,0:0:0:0:
392,110,56403,1,14,0:0:0:0:
263,135,56532,1,10,0:0:0:0:
367,212,56662,5,6,1:2:0:0:
298,271,56791,1,10,0:0:0:0:
382,306,56920,1,10,0:0:0:0:
210,214,57050,5,0,1:2:0:0:
162,349,57179,1,12,0:0:0:0:
60,249,57308,1,0,1:2:0:0:
15,322,57437,5,2,1:2:0:0:
15,322,57567,1,10,0:0:0:0:
79,115,57696,5,2,1:2:0:0:
143,255,57825,1,10,0:0:0:0:
185,39,57955,5,2,1:2:0:0:
141,175,58084,1,10,0:3:0:0:
306,23,58213,5,10,0:3:0:0:
198,115,58343,1,10,0:3:0:0:
386,100,58472,5,6,0:3:0:0:
274,93,58601,1,6,0:3:0:0:
352,191,58731,6,0,P|373:248|390:288,1,90.0000034332277,6|2,1:2|0:0,0:0:0:0:
458,191,58989,1,2,0:0:0:0:
311,311,59118,1,10,0:0:0:0:
311,311,59506,6,0,P|286:268|269:223,1,90.0000034332277,6|2,1:2|0:0,0:0:0:0:
274,93,59765,1,0,0:0:0:0:
473,278,59894,1,10,0:0:0:0:
473,278,60282,6,0,P|445:329|415:359,1,90.0000034332277,6|2,1:2|0:0,0:0:0:0:
383,159,60541,1,2,0:0:0:0:
311,311,60670,2,0,P|248:343|110:338,1,180.000006866455,10|2,0:0|0:3,0:0:0:0:
140,347,60993,1,2,0:3:0:0:
140,347,61058,5,6,1:2:0:0:
256,192,61123,12,2,62868,0:3:0:0:
131,206,63903,6,0,P|159:254|223:299,2,120,6|2|2,0:0|0:0|0:0,0:0:0:0:
224,70,64679,2,0,P|211:138|222:193,1,120,2|0,0:0|0:0,0:0:0:0:
414,135,65196,1,2,0:0:0:0:
307,137,65455,2,0,P|340:66|383:34,1,120,2|2,0:0|0:0,0:0:0:0:
224,70,65972,6,0,P|165:52|99:55,3,120,2|2|2|0,0:0|0:0|0:0|0:0,0:0:0:0:
115,132,67006,2,0,P|67:166|41:227,1,120,2|2,0:0|0:0,0:0:0:0:
123,241,67524,2,0,P|116:303|134:361,1,120,2|2,0:0|0:0,0:0:0:0:
34,332,68041,5,2,0:0:0:0:
228,349,68300,1,2,0:0:0:0:
228,349,68558,2,0,P|273:291|297:186,1,180,2|0,0:0|0:0,0:0:0:0:
297,188,69075,1,2,0:0:0:0:
206,209,69334,1,2,0:0:0:0:
206,209,69593,2,0,P|183:153|179:88,1,120,2|2,0:0|0:0,0:0:0:0:
271,101,70110,6,0,P|316:64|398:74,1,120,2|2,0:0|0:0,0:0:0:0:
414,0,70498,2,0,P|466:31|494:106,1,120,2|0,0:0|0:0,0:0:0:0:
428,119,70886,2,0,P|412:151|408:203,1,60,2|0,0:0|0:0,0:0:0:0:
336,207,71144,2,0,P|377:268|444:274,1,120,2|0,0:0|0:0,0:0:0:0:
504,372,71662,2,0,P|440:357|406:367,1,60,2|2,0:0|0:0,0:0:0:0:
272,378,71920,5,2,0:0:0:0:
272,378,72179,2,0,P|207:345|128:298,1,120,6|0,1:2|1:2,0:0:0:0:
251,265,72567,1,2,0:0:0:0:
251,265,72696,2,0,L|170:148,1,120,2|0,1:2|1:2,0:0:0:0:
299,178,73084,1,2,0:0:0:0:
299,178,73213,2,0,L|287:45,1,120,2|0,1:2|1:2,0:0:0:0:
115,26,73731,6,0,L|77:105,1,60,2|0,1:2|0:0,0:0:0:0:
5,90,73989,2,0,L|32:171,1,60,2|8,1:2|0:0,0:0:0:0:
0,307,74248,6,0,P|33:260|81:230,1,90.0000034332277,2|8,1:2|0:0,0:0:0:0:
258,315,74506,1,2,1:2:0:0:
149,383,74636,2,0,P|161:328|159:274,1,90.0000034332277,10|0,0:0|1:2,0:0:0:0:
23,146,74894,2,0,P|102:140|146:151,1,90.0000034332277,10|0,0:0|1:2,0:0:0:0:
258,315,75153,2,0,P|242:245|217:214,1,90.0000034332277,10|0,0:0|1:2,0:0:0:0:
148,211,75412,1,10,0:0:0:0:
146,54,75541,2,0,P|204:105|223:165,1,90.0000034332277,0|8,1:2|0:0,0:0:0:0:
332,48,75800,6,0,P|370:109|376:195,1,135.000005149841,2|0,1:2|0:0,0:0:0:0:
379,171,76058,1,10,1:2:0:0:
451,223,76187,1,8,0:0:0:0:
457,337,76317,6,0,P|408:363|356:372,1,90.0000034332277,0|8,1:2|0:0,0:0:0:0:
280,380,76575,2,0,P|225:341|204:300,1,100.199996865692,2|8,1:2|0:0,0:0:0:0:
257,154,76834,1,0,1:2:0:0:
298,290,76963,1,10,0:0:0:0:
321,87,77093,1,0,1:2:0:0:
222,236,77222,1,10,0:0:0:0:
209,58,77351,2,0,P|153:31|90:24,1,100.199996865692,0|10,1:2|0:0,0:0:0:0:
398,145,77610,2,0,P|409:81|394:25,1,100.199996865692,0|10,1:2|0:0,0:0:0:0:
257,154,77868,5,2,1:2:0:0:
382,244,77998,1,8,0:0:0:0:
174,175,78127,5,2,1:2:0:0:
298,290,78256,1,10,0:0:0:0:
115,246,78386,6,0,P|69:264|11:310,1,100.199996865692,2|8,1:2|0:0,0:0:0:0:
5,384,78644,1,2,1:2:0:0:
175,323,78774,2,0,P|226:342|276:381,1,100.199996865692,10|0,0:0|1:2,0:0:0:0:
391,377,79032,1,8,0:0:0:0:
298,290,79162,2,0,P|295:244|310:166,1,100.199996865692,2|8,1:2|0:0,0:0:0:0:
194,220,79420,6,0,P|169:227|141:229,1,50.0999984328461,2|0,1:2|1:2,0:0:0:0:
365,136,79550,2,0,P|393:147|411:159,1,50.0999984328461,2|0,1:2|1:2,0:0:0:0:
153,108,79679,2,0,P|174:120|199:127,1,50.0999984328461,10|0,1:2|1:2,0:0:0:0:
321,38,79808,2,0,P|289:45|253:76,1,50.0999984328461,2|0,1:2|1:2,0:0:0:0:
3,68,79937,5,10,1:2:0:0:
75,296,80067,1,10,0:0:0:0:
95,2,80196,5,10,1:2:0:0:
9,234,80325,1,10,0:0:0:0:
207,34,80455,6,0,P|271:68|280:196,1,200.399993731384,6|2,1:2|0:0,0:0:0:0:
157,288,80843,2,0,P|198:347|304:353,1,150.299995298538,10|0,0:3|0:0,0:0:0:0:
271,363,81101,2,0,P|317:331|328:260,1,100.199996865692,2|4,1:2|1:2,0:0:0:0:
359,135,81360,1,2,0:0:0:0:
426,317,81489,1,0,1:2:0:0:
278,152,81618,1,10,0:0:0:0:
443,236,81748,2,0,P|467:182|472:137,1,100.199996865692,0|2,1:2|1:2,0:0:0:0:
447,26,82006,2,0,P|368:1|240:37,1,200.399993731384,8|8,0:0|0:3,0:0:0:0:
278,152,82394,1,8,0:3:0:0:
189,124,82524,6,0,P|143:86|118:38,1,100.199996865692,4|4,0:3|0:2,0:0:0:0:
359,178,82782,2,0,P|349:247|279:324,1,150.299995298538,6|0,1:2|0:0,0:0:0:0:
302,309,83041,1,2,1:2:0:0:
237,242,83170,2,0,P|191:263|150:300,1,100.199996865692,2|8,0:0|0:0,0:0:0:0:
0,384,83429,2,0,P|50:313|81:193,1,200.399993731384,6|0,1:2|1:2,0:0:0:0:
5,43,83817,2,0,P|30:94|70:135,1,100.199996865692,0|0,1:2|0:0,0:0:0:0:
231,54,84075,1,6,1:2:0:0:
124,211,84205,5,10,0:3:0:0:
111,31,84334,1,10,0:0:0:0:
277,182,84463,1,6,0:3:0:0:
278,307,84593,6,0,P|233:266|206:204,1,100.199996865692,6|0,1:2|0:0,0:0:0:0:
231,54,84851,1,8,0:3:0:0:
349,250,84981,1,10,0:0:0:0:
350,14,85110,6,0,P|315:74|304:132,1,100.199996865692,6|0,1:2|0:0,0:0:0:0:
459,36,85368,1,0,1:2:0:0:
277,182,85498,1,2,1:2:0:0:
190,127,85627,2,0,P|131:149|40:241,1,150.299995298538,14|0,0:0|0:0,0:0:0:0:
64,204,85886,1,0,1:2:0:0:
39,330,86015,1,0,1:2:0:0:
135,373,86144,6,0,P|118:309|125:247,1,100.199996865692,14|0,0:0|0:0,0:0:0:0:
276,99,86403,1,0,1:2:0:0:
198,298,86532,1,14,0:0:0:0:
314,183,86662,2,0,P|379:167|443:171,1,100.199996865692,6|0,1:2|1:2,0:0:0:0:
512,363,86920,1,8,0:0:0:0:
293,277,87050,1,14,0:2:0:0:
406,384,87179,2,0,P|451:316|487:183,1,200.399993731384,6|8,1:2|0:0,0:0:0:0:
509,77,87567,6,0,P|494:174|397:145,1,200.399993731384,6|2,1:2|1:2,0:0:0:0:
438,18,87955,1,2,1:2:0:0:
314,183,88084,1,10,0:0:0:0:
110,38,88213,5,6,1:2:0:0:
293,277,88343,1,10,0:0:0:0:
268,75,88472,1,14,0:0:0:0:
80,360,88601,1,8,0:0:0:0:
