osu file format v14

[General]
AudioFilename: audio.ogg
AudioLeadIn: 0
PreviewTime: 33095
Countdown: 0
SampleSet: Soft
StackLeniency: 0.9
Mode: 0
LetterboxInBreaks: 0
WidescreenStoryboard: 1

[Editor]
DistanceSpacing: 1
BeatDivisor: 4
GridSize: 4
TimelineZoom: 1.2

[Metadata]
Title:Hate no Nai Tabi (TV Size)
TitleUnicode:果てのない旅 (TV Size)
Artist:Suzuki Aina
ArtistUnicode:鈴木愛奈
Creator:Lancien
Version:Easy
Source:最弱テイマーはゴミ拾いの旅を始めました。
Tags:femicia ivy アイビー saijaku tamer wa gomi hiroi no tabi wo hajimemashita the weakest tamer began a journey to pick up trash picking begins japanese pop jpop j-pop female vocalist anime opening op
BeatmapID:4533941
BeatmapSetID:2151863

[Difficulty]
HPDrainRate:2.5
CircleSize:2
OverallDifficulty:3
ApproachRate:4
SliderMultiplier:1.2
SliderTickRate:1

[Events]
//Background and Video events
Video,0,"video.mp4"
0,0,"bg.jpg",0,0
//Break Periods
2,64103,70342
//Storyboard Layer 0 (Background)
//Storyboard Layer 1 (Fail)
//Storyboard Layer 2 (Pass)
//Storyboard Layer 3 (Foreground)
//Storyboard Layer 4 (Overlay)
//Storyboard Sound Samples

[TimingPoints]
800,517.241379310345,4,2,1,30,1,0
13213,-100,4,2,1,40,0,0
15282,-100,4,2,1,50,0,0
17351,-100,4,2,1,50,0,0
25627,-100,4,2,1,45,0,0
29765,-100,4,2,1,50,0,0
31834,-100,4,2,1,60,0,0
32610,-100,4,2,1,50,0,0
33127,-100,4,2,1,60,0,0
33903,-100,4,2,1,70,0,1
50455,-100,4,2,1,60,0,0
61123,-100,4,2,1,50,0,0
62868,-100,4,2,1,40,0,0
72179,-100,4,2,1,50,0,0
79420,-100,4,2,1,60,0,0
80455,-100,4,2,1,70,0,1
88601,-100,4,2,1,40,0,0

[Colours]
Combo1 : 255,102,102
Combo2 : 211,115,249
Combo3 : 75,196,241
Combo4 : 66,234,150

[HitObjects]
122,304,800,6,0,P|76:338|17:382,2,120,2|2|2,0:0|0:0|0:0,0:0:0:0:
358,261,2868,2,0,P|413:291|470:326,2,120,2|2|2,0:0|0:0|0:0,0:0:0:0:
123,211,4937,6,0,P|100:167|129:87,1,120,2|2,0:0|0:0,0:0:0:0:
217,36,5972,1,2,0:0:0:0:
326,84,6489,1,2,0:0:0:0:
436,37,7006,2,0,P|461:75|470:175,1,120,2|2,0:0|0:0,0:0:0:0:
500,264,8041,2,0,B|377:289|419:200|263:239,1,240,2|2,0:0|0:0,0:0:0:0:
178,316,9593,5,2,0:0:0:0:
65,356,10110,1,2,0:0:0:0:
32,118,11144,2,0,B|140:91|107:151|208:133,1,180,2|0,0:0|0:0,0:0:0:0:
254,96,12179,1,2,0:0:0:0:
186,262,12955,1,2,0:0:0:0:
221,309,13213,6,0,P|262:322|304:321,1,60,2|2,0:0|0:0,0:0:0:0:
331,352,13731,1,2,0:0:0:0:
447,324,14248,2,0,P|475:264|477:198,1,120,2|10,0:0|0:0,0:0:0:0:
431,173,15024,1,10,0:0:0:0:
427,113,15282,6,0,B|411:87|353:84|353:84|334:98,1,90,6|10,1:2|0:0,0:0:0:0:
293,16,16058,2,0,B|263:9|221:47|221:47|217:71,1,90,6|10,1:2|0:0,0:0:0:0:
140,98,16834,2,0,P|170:139|198:228,1,120,14|6,0:0|1:2,0:0:0:0:
83,248,17868,5,2,1:2:0:0:
142,352,18386,2,0,P|213:364|269:332,1,120,2|2,1:2|1:2,0:0:0:0:
373,364,19420,1,0,1:2:0:0:
438,263,19937,2,0,P|447:210|456:181,1,60,2|0,1:2|0:0,0:0:0:0:
479,152,20455,2,0,P|483:66|447:35,1,120,2|2,1:2|1:2,0:0:0:0:
344,57,21489,5,6,1:2:0:0:
228,89,22006,1,2,1:2:0:0:
193,39,22265,1,2,0:0:0:0:
133,32,22524,2,0,P|88:52|42:117,1,120,2|2,1:2|1:2,0:0:0:0:
21,161,23300,1,2,0:0:0:0:
48,214,23558,5,2,1:2:0:0:
115,273,23946,2,0,P|161:251|213:243,1,90,2|2,0:0|0:0,0:0:0:0:
241,286,24593,2,0,P|271:321|299:329,2,60,2|2|2,1:2|0:0|1:2,0:0:0:0:
173,187,25627,6,0,B|252:125|360:174|313:201|421:273|512:211,1,360,6|2,1:2|0:0,0:0:0:0:
495,94,27696,1,2,0:0:0:0:
333,14,28472,1,2,0:0:0:0:
289,55,28731,2,0,P|251:69|151:67,1,120,2|2,0:0|0:0,0:0:0:0:
114,56,29506,1,10,0:0:0:0:
93,112,29765,6,0,P|134:167|196:184,1,120,6|2,1:2|0:0,0:0:0:0:
291,136,30800,2,0,P|311:201|301:272,1,120,2|0,1:2|1:2,0:0:0:0:
297,311,31575,1,6,0:3:0:0:
242,335,31834,2,0,P|195:323|132:331,1,90,6|6,1:2|1:2,0:0:0:0:
66,347,32610,1,6,1:2:0:0:
28,233,33127,1,10,0:0:0:0:
87,242,33386,2,0,P|126:226|158:221,1,60,10|10,0:0|0:3,0:0:0:0:
180,175,33903,6,0,P|240:188|284:235,1,120,6|10,1:2|0:0,0:0:0:0:
262,285,34679,1,0,0:0:0:0:
292,336,34937,2,0,P|346:331|421:335,1,120,2|8,1:2|0:0,0:0:0:0:
470,321,35713,1,2,0:0:0:0:
497,267,35972,2,0,P|481:229|478:195,1,60,2|2,1:2|0:0,0:0:0:0:
423,185,36489,1,10,0:0:0:0:
304,206,37006,2,0,P|251:209|221:200,1,60,2|2,1:2|1:2,0:0:0:0:
184,212,37524,1,10,0:0:0:0:
126,106,38041,5,2,1:2:0:0:
153,52,38300,1,2,0:0:0:0:
212,60,38558,2,0,P|259:82|315:80,2,90,10|10|0,0:0|0:0|1:2,0:0:0:0:
153,52,39593,2,0,P|113:24|76:16,1,60,14|2,0:0|0:0,0:0:0:0:
42,17,40110,2,0,P|14:68|13:154,1,120,6|2,1:2|1:2,0:0:0:0:
69,194,41015,1,6,1:2:0:0:
117,158,41274,2,0,P|169:173|216:200,1,90,6|2,0:0|1:2,0:0:0:0:
243,232,41920,1,10,0:3:0:0:
288,193,42179,5,6,1:2:0:0:
265,75,42696,2,0,P|322:56|395:72,1,120,10|2,0:0|1:2,0:0:0:0:
440,63,43472,1,0,1:2:0:0:
474,112,43731,2,0,P|467:152|461:188,1,60,8|2,0:0|0:0,0:0:0:0:
413,203,44248,2,0,P|444:257|461:326,1,120,2|10,1:2|0:0,0:0:0:0:
418,356,45024,1,2,0:0:0:0:
360,340,45282,2,0,P|318:346|287:362,1,60,2|2,1:2|1:2,0:0:0:0:
241,349,45800,1,10,0:0:0:0:
219,230,46317,6,0,P|239:178|253:87,1,120,6|10,1:2|0:0,0:0:0:0:
201,39,47222,1,10,0:0:0:0:
144,17,47481,2,0,P|98:27|37:63,1,90,8|10,0:0|0:0,0:0:0:0:
9,78,48127,1,2,0:0:0:0:
31,133,48386,2,0,P|51:179|65:235,1,90,6|2,1:2|1:2,0:0:0:0:
53,307,49162,2,0,P|84:341|145:365,1,90,6|10,1:2|0:3,0:0:0:0:
201,316,49937,1,6,0:3:0:0:
252,347,50196,1,8,0:0:0:0:
302,314,50455,6,0,P|314:260|327:176,1,120,6|10,1:2|0:0,0:0:0:0:
230,121,51489,2,0,P|261:83|345:63,1,120,2|8,1:2|0:0,0:0:0:0:
378,31,52265,1,2,0:0:0:0:
427,65,52524,2,0,P|473:97|487:111,1,60,2|2,1:2|0:0,0:0:0:0:
485,158,53041,2,0,P|459:171|432:197,1,60,10|2,0:0|0:0,0:0:0:0:
416,248,53558,1,2,1:2:0:0:
454,294,53817,1,2,0:0:0:0:
432,349,54075,1,10,0:0:0:0:
323,296,54593,6,0,P|281:322|248:338,1,60,6|2,1:2|0:0,0:0:0:0:
212,336,55110,2,0,P|173:319|141:313,1,60,10|2,0:0|0:0,0:0:0:0:
98,331,55627,2,0,P|71:284|56:207,1,120,2|14,1:2|0:0,0:0:0:0:
90,170,56403,1,14,0:0:0:0:
142,198,56662,2,0,P|186:186|275:183,1,120,6|12,1:2|0:0,0:0:0:0:
376,208,57696,1,2,1:2:0:0:
410,159,57955,1,2,1:2:0:0:
386,103,58213,1,10,0:3:0:0:
282,41,58731,6,0,P|231:55|186:80,1,90,6|10,1:2|0:0,0:0:0:0:
108,72,59506,2,0,P|115:125|109:180,1,90,6|10,1:2|0:0,0:0:0:0:
113,251,60282,2,0,P|61:280|34:311,2,90,6|10|6,1:2|0:0|1:2,0:0:0:0:
256,192,61187,12,6,63903,0:0:0:0:
339,291,71662,6,0,P|345:242|353:217,1,60,2|2,0:0|0:0,0:0:0:0:
399,201,72179,2,0,P|384:154|321:111,2,120,6|2|2,1:2|1:2|1:2,0:0:0:0:
466,300,73731,1,2,1:2:0:0:
361,349,74248,2,0,P|313:362|251:375,1,90,2|10,1:2|0:0,0:0:0:0:
219,345,74894,1,10,0:0:0:0:
176,302,75153,2,0,P|200:242|207:227,1,60,10|10,0:0|0:0,0:0:0:0:
287,236,75800,2,0,P|294:182|289:137,1,90,2|8,1:2|0:0,0:0:0:0:
270,59,76575,6,0,P|209:45|167:55,1,90,2|2,1:2|0:0,0:0:0:0:
131,81,77222,1,2,0:0:0:0:
71,71,77481,1,2,1:2:0:0:
40,155,77868,2,0,P|58:203|66:234,1,60,2|2,1:2|1:2,0:0:0:0:
42,268,78386,2,0,P|110:299|138:350,1,120,2|0,1:2|1:2,0:0:0:0:
186,365,79162,1,2,1:2:0:0:
241,342,79420,1,2,1:2:0:0:
203,228,79937,1,10,1:2:0:0:
217,169,80196,1,10,1:2:0:0:
275,151,80455,6,0,P|335:175|400:242,1,150,6|2,1:2|1:2,0:0:0:0:
452,253,81360,2,0,P|493:197|497:188,1,60,2|10,0:0|0:0,0:0:0:0:
503,147,81877,2,0,P|479:87|447:49,1,90,2|8,1:2|0:3,0:0:0:0:
354,17,82782,1,6,1:2:0:0:
299,42,83041,1,2,1:2:0:0:
211,48,83429,2,0,P|155:44|113:62,1,90,6|8,1:2|0:0,0:0:0:0:
76,92,84075,6,0,P|92:126|104:157,1,60,6|10,1:2|0:0,0:0:0:0:
149,182,84593,1,6,1:2:0:0:
206,165,84851,1,8,0:3:0:0:
260,189,85110,2,0,P|260:230|248:270,1,60,6|0,1:2|1:2,0:0:0:0:
276,304,85627,2,0,P|229:336|142:336,1,120,14|14,0:0|0:0,0:0:0:0:
108,353,86403,5,0,1:2:0:0:
64,311,86662,2,0,P|49:262|43:238,1,60,6|8,1:2|0:0,0:0:0:0:
49,193,87179,2,0,P|99:173|137:134,1,90,6|6,1:2|1:2,0:0:0:0:
185,81,87955,1,2,1:2:0:0:
232,117,88213,2,0,P|287:139|330:152,1,90,6|8,1:2|0:0,0:0:0:0:
