osu file format v14

[General]
AudioFilename: audio.ogg
AudioLeadIn: 0
PreviewTime: 48474
Countdown: 0
SampleSet: Normal
StackLeniency: 0.7
Mode: 1
LetterboxInBreaks: 0
WidescreenStoryboard: 0

[Editor]
DistanceSpacing: 1.1
BeatDivisor: 4
GridSize: 32
TimelineZoom: 1.1

[Metadata]
Title:Etonyanran (TV Size)
TitleUnicode:えとにゃんらん (TV Size)
Artist:Suzuki Aina
ArtistUnicode:鈴木愛奈
Creator:Garden
Version:Muzukashii
Source:えとたま ~猫客万来~
Tags:etotama nyankyaku banrai eto tamashii opening japanese pop jpop j-pop anime
BeatmapID:3542551
BeatmapSetID:1732903

[Difficulty]
HPDrainRate:6
CircleSize:3
OverallDifficulty:4.5
ApproachRate:9
SliderMultiplier:1.4
SliderTickRate:1

[Events]
//Background and Video events
0,0,"nya.jpg",0,40
//Break Periods
//Storyboard Layer 0 (Background)
//Storyboard Layer 1 (Fail)
//Storyboard Layer 2 (Pass)
//Storyboard Layer 3 (Foreground)
//Storyboard Layer 4 (Overlay)
//Storyboard Sound Samples

[TimingPoints]
275,419.58041958042,4,1,0,50,1,0
5309,-100,4,1,0,65,0,0
48946,-100,4,1,0,80,0,1
74121,-100,4,1,0,65,0,0

[HitObjects]
256,192,275,5,0,0:0:0:0:
256,192,484,1,8,0:0:0:0:
256,192,694,1,8,0:0:0:0:
256,192,1114,1,8,0:0:0:0:
256,192,1323,1,0,0:0:0:0:
256,192,1533,1,8,0:0:0:0:
256,192,1953,1,0,0:0:0:0:
256,192,2163,1,8,0:0:0:0:
256,192,2372,1,8,0:0:0:0:
256,192,2582,1,0,0:0:0:0:
256,192,2687,1,0,0:0:0:0:
256,192,2792,1,0,0:0:0:0:
256,192,3002,1,8,0:0:0:0:
256,192,3212,1,8,0:0:0:0:
256,192,3421,1,8,0:0:0:0:
256,192,3631,1,4,0:0:0:0:
256,192,4470,1,8,0:0:0:0:
256,192,4680,1,0,0:0:0:0:
256,192,4890,1,8,0:0:0:0:
256,192,5100,1,8,0:0:0:0:
256,192,5205,1,8,0:0:0:0:
256,192,5309,1,8,0:0:0:0:
256,192,5624,1,0,0:0:0:0:
256,192,5939,1,8,0:0:0:0:
256,192,6358,1,8,0:0:0:0:
256,192,6988,1,4,0:0:0:0:
256,192,7198,1,8,0:0:0:0:
256,192,7407,1,8,0:0:0:0:
256,192,7827,1,8,0:0:0:0:
256,192,8142,1,8,0:0:0:0:
256,192,8456,1,0,0:0:0:0:
256,192,8666,1,0,0:0:0:0:
256,192,8876,1,8,0:0:0:0:
256,192,9086,1,8,0:0:0:0:
256,192,9505,1,8,0:0:0:0:
256,192,9820,1,0,0:0:0:0:
256,192,10135,1,8,0:0:0:0:
256,192,10344,1,0,0:0:0:0:
256,192,10554,1,8,0:0:0:0:
256,192,10764,1,8,0:0:0:0:
256,192,11184,1,8,0:0:0:0:
256,192,11498,1,8,0:0:0:0:
256,192,11813,1,0,0:0:0:0:
256,192,12023,1,8,0:0:0:0:
256,192,12233,1,8,0:0:0:0:
256,192,12337,1,8,0:0:0:0:
256,192,12442,1,8,0:0:0:0:
256,192,12652,1,0,0:0:0:0:
256,192,12862,1,8,0:0:0:0:
256,192,13701,1,4,0:0:0:0:
256,192,13911,1,8,0:0:0:0:
256,192,14121,1,8,0:0:0:0:
256,192,14540,1,8,0:0:0:0:
256,192,14855,1,8,0:0:0:0:
256,192,15170,1,0,0:0:0:0:
256,192,15379,1,0,0:0:0:0:
256,192,15589,1,8,0:0:0:0:
256,192,15799,1,8,0:0:0:0:
256,192,16219,1,8,0:0:0:0:
256,192,16533,1,0,0:0:0:0:
256,192,16848,1,8,0:0:0:0:
256,192,17058,1,0,0:0:0:0:
256,192,17268,1,8,0:0:0:0:
256,192,17477,1,8,0:0:0:0:
256,192,17897,1,8,0:0:0:0:
256,192,18107,1,0,0:0:0:0:
256,192,18212,1,0,0:0:0:0:
256,192,18316,1,0,0:0:0:0:
256,192,18526,1,0,0:0:0:0:
256,192,18736,1,8,0:0:0:0:
256,192,19051,1,0,0:0:0:0:
256,192,19365,1,8,0:0:0:0:
256,192,19575,1,0,0:0:0:0:
256,192,19785,1,12,0:0:0:0:
256,192,20414,1,0,0:0:0:0:
256,192,20624,1,0,0:0:0:0:
256,192,20834,1,8,0:0:0:0:
256,192,21044,1,0,0:0:0:0:
256,192,21254,1,8,0:0:0:0:
256,192,21568,1,8,0:0:0:0:
256,192,21883,1,0,0:0:0:0:
256,192,22093,1,8,0:0:0:0:
256,192,22407,1,8,0:0:0:0:
256,192,22722,1,0,0:0:0:0:
256,192,22932,1,8,0:0:0:0:
256,192,23142,1,0,0:0:0:0:
256,192,23351,1,8,0:0:0:0:
256,192,23561,1,0,0:0:0:0:
256,192,23666,1,0,0:0:0:0:
256,192,23771,1,0,0:0:0:0:
256,192,23981,1,8,0:0:0:0:
256,192,24191,1,8,0:0:0:0:
256,192,24610,1,8,0:0:0:0:
256,192,24925,1,0,0:0:0:0:
256,192,25240,1,8,0:0:0:0:
256,192,25449,1,8,0:0:0:0:
256,192,25869,1,8,0:0:0:0:
256,192,26184,1,8,0:0:0:0:
256,192,27128,1,0,0:0:0:0:
256,192,27547,1,8,0:0:0:0:
256,192,27757,1,8,0:0:0:0:
256,192,27967,1,0,0:0:0:0:
256,192,28177,1,8,0:0:0:0:
256,192,28281,1,8,0:0:0:0:
256,192,28386,1,8,0:0:0:0:
256,192,28596,1,8,0:0:0:0:
256,192,28806,1,0,0:0:0:0:
256,192,29121,1,8,0:0:0:0:
256,192,29435,1,0,0:0:0:0:
256,192,29645,1,8,0:0:0:0:
256,192,29855,1,0,0:0:0:0:
256,192,29960,1,0,0:0:0:0:
256,192,30065,1,0,0:0:0:0:
256,192,30484,1,0,0:0:0:0:
256,192,30694,1,8,0:0:0:0:
256,192,30904,1,8,0:0:0:0:
256,192,31323,1,8,0:0:0:0:
256,192,31638,1,8,0:0:0:0:
256,192,31953,1,0,0:0:0:0:
256,192,32058,1,0,0:0:0:0:
256,192,32163,1,0,0:0:0:0:
256,192,32477,1,8,0:0:0:0:
256,192,32792,1,8,0:0:0:0:
256,192,33002,1,0,0:0:0:0:
256,192,33212,1,12,0:0:0:0:
256,192,33841,1,0,0:0:0:0:
256,192,34156,1,0,0:0:0:0:
256,192,34470,1,0,0:0:0:0:
256,192,34680,1,8,0:0:0:0:
256,192,35309,1,0,0:0:0:0:
256,192,35519,1,8,0:0:0:0:
256,192,35834,1,0,0:0:0:0:
256,192,36149,1,0,0:0:0:0:
256,192,36358,1,8,0:0:0:0:
256,192,36778,1,8,0:0:0:0:
256,192,36988,1,0,0:0:0:0:
256,192,37198,1,8,0:0:0:0:
256,192,37512,1,0,0:0:0:0:
256,192,37827,1,0,0:0:0:0:
256,192,38037,1,8,0:0:0:0:
256,192,38456,1,8,0:0:0:0:
256,192,38666,1,0,0:0:0:0:
256,192,38876,1,8,0:0:0:0:
256,192,39295,1,8,0:0:0:0:
256,192,39505,1,8,0:0:0:0:
256,192,39715,1,0,0:0:0:0:
256,192,40344,1,0,0:0:0:0:
256,192,40554,1,8,0:0:0:0:
256,192,40869,1,8,0:0:0:0:
256,192,40974,1,8,0:0:0:0:
256,192,41184,1,0,0:0:0:0:
256,192,41393,1,8,0:0:0:0:
256,192,41813,1,8,0:0:0:0:
256,192,42023,1,0,0:0:0:0:
256,192,42233,1,8,0:0:0:0:
256,192,42547,1,8,0:0:0:0:
256,192,42652,1,8,0:0:0:0:
256,192,42862,1,0,0:0:0:0:
256,192,43072,1,8,0:0:0:0:
256,192,43491,1,8,0:0:0:0:
256,192,43701,1,0,0:0:0:0:
256,192,43911,1,12,0:0:0:0:
256,192,44226,1,0,0:0:0:0:
256,192,44540,1,0,0:0:0:0:
256,192,44750,1,12,0:0:0:0:
256,192,45065,1,0,0:0:0:0:
256,192,45379,1,0,0:0:0:0:
256,192,45589,1,12,0:0:0:0:
256,192,46009,1,0,0:0:0:0:
256,192,46219,1,8,0:0:0:0:
256,192,46323,1,8,0:0:0:0:
256,192,46428,1,8,0:0:0:0:
256,192,46638,1,0,0:0:0:0:
256,192,46848,1,8,0:0:0:0:
256,192,47058,1,8,0:0:0:0:
256,192,48526,1,12,0:0:0:0:
256,192,48946,1,4,0:0:0:0:
256,192,49575,1,0,0:0:0:0:
256,192,49785,1,8,0:0:0:0:
256,192,49995,1,8,0:0:0:0:
256,192,50100,1,8,0:0:0:0:
256,192,50205,1,8,0:0:0:0:
256,192,50414,1,0,0:0:0:0:
256,192,50519,1,0,0:0:0:0:
256,192,50624,1,0,0:0:0:0:
256,192,51044,1,8,0:0:0:0:
256,192,51254,1,8,0:0:0:0:
256,192,51673,1,8,0:0:0:0:
256,192,51883,1,8,0:0:0:0:
256,192,52093,1,0,0:0:0:0:
256,192,52198,1,0,0:0:0:0:
256,192,52302,1,0,0:0:0:0:
256,192,52617,1,8,0:0:0:0:
256,192,52932,1,8,0:0:0:0:
256,192,53142,1,0,0:0:0:0:
256,192,53771,1,0,0:0:0:0:
256,192,53876,1,0,0:0:0:0:
256,192,53981,1,0,0:0:0:0:
256,192,54400,1,8,0:0:0:0:
256,192,54820,1,0,0:0:0:0:
256,192,55135,1,8,0:0:0:0:
256,192,55240,1,8,0:0:0:0:
256,192,55449,1,8,0:0:0:0:
256,192,55869,1,0,0:0:0:0:
256,192,56079,1,8,0:0:0:0:
256,192,56288,1,0,0:0:0:0:
256,192,56498,1,8,0:0:0:0:
256,192,56603,1,8,0:0:0:0:
256,192,56708,1,8,0:0:0:0:
256,192,56918,1,0,0:0:0:0:
256,192,57128,1,8,0:0:0:0:
256,192,57547,1,8,0:0:0:0:
256,192,57652,1,8,0:0:0:0:
256,192,57757,1,8,0:0:0:0:
256,192,57967,1,0,0:0:0:0:
256,192,58177,1,8,0:0:0:0:
256,192,58491,1,8,0:0:0:0:
256,192,58806,1,8,0:0:0:0:
256,192,59016,1,0,0:0:0:0:
256,192,59226,1,8,0:0:0:0:
256,192,59330,1,8,0:0:0:0:
256,192,59435,1,8,0:0:0:0:
256,192,59645,1,0,0:0:0:0:
256,192,59855,1,8,0:0:0:0:
256,192,60170,1,0,0:0:0:0:
256,192,60484,1,8,0:0:0:0:
256,192,60694,1,8,0:0:0:0:
256,192,61323,1,0,0:0:0:0:
256,192,61533,1,8,0:0:0:0:
256,192,61743,1,8,0:0:0:0:
256,192,61848,1,8,0:0:0:0:
256,192,61953,1,8,0:0:0:0:
256,192,62163,1,0,0:0:0:0:
256,192,62268,1,0,0:0:0:0:
256,192,62372,1,0,0:0:0:0:
256,192,63002,1,0,0:0:0:0:
256,192,63212,1,8,0:0:0:0:
256,192,63526,1,8,0:0:0:0:
256,192,63631,1,8,0:0:0:0:
256,192,63841,1,0,0:0:0:0:
256,192,63946,1,0,0:0:0:0:
256,192,64051,1,0,0:0:0:0:
256,192,64261,1,8,0:0:0:0:
256,192,64470,1,8,0:0:0:0:
256,192,64680,1,0,0:0:0:0:
256,192,65100,1,8,0:0:0:0:
256,192,65309,1,8,0:0:0:0:
256,192,65519,1,0,0:0:0:0:
256,192,65624,1,0,0:0:0:0:
256,192,65729,1,0,0:0:0:0:
256,192,66044,1,8,0:0:0:0:
256,192,66358,1,8,0:0:0:0:
256,192,66568,1,0,0:0:0:0:
256,192,66988,1,8,0:0:0:0:
256,192,67198,1,4,0:0:0:0:
256,192,67827,1,8,0:0:0:0:
256,192,68037,1,0,0:0:0:0:
256,192,68247,1,8,0:0:0:0:
256,192,68561,1,8,0:0:0:0:
256,192,68876,1,0,0:0:0:0:
256,192,69295,1,8,0:0:0:0:
256,192,69400,1,8,0:0:0:0:
256,192,69505,1,8,0:0:0:0:
256,192,69715,1,0,0:0:0:0:
256,192,69925,1,8,0:0:0:0:
256,192,70030,1,8,0:0:0:0:
256,192,70135,1,8,0:0:0:0:
256,192,70554,1,0,0:0:0:0:
256,192,70764,1,8,0:0:0:0:
256,192,71079,1,8,0:0:0:0:
256,192,71393,1,0,0:0:0:0:
256,192,71603,1,0,0:0:0:0:
256,192,71813,1,8,0:0:0:0:
256,192,72023,1,8,0:0:0:0:
256,192,72233,1,0,0:0:0:0:
256,192,72442,1,8,0:0:0:0:
256,192,72862,1,0,0:0:0:0:
256,192,73072,1,0,0:0:0:0:
256,192,73281,1,0,0:0:0:0:
256,192,73491,1,0,0:0:0:0:
256,192,73701,1,0,0:0:0:0:
256,192,73911,1,0,0:0:0:0:
256,192,74121,1,12,0:0:0:0:
256,192,75799,1,4,0:0:0:0:
256,192,76009,1,8,0:0:0:0:
256,192,76219,1,8,0:0:0:0:
256,192,76638,1,8,0:0:0:0:
256,192,76953,1,8,0:0:0:0:
256,192,77268,1,0,0:0:0:0:
256,192,77477,1,0,0:0:0:0:
256,192,77687,1,8,0:0:0:0:
256,192,77897,1,8,0:0:0:0:
256,192,78316,1,8,0:0:0:0:
256,192,78631,1,0,0:0:0:0:
256,192,78946,1,8,0:0:0:0:
256,192,79156,1,0,0:0:0:0:
256,192,79365,1,8,0:0:0:0:
256,192,79575,1,8,0:0:0:0:
256,192,79995,1,8,0:0:0:0:
256,192,80309,1,8,0:0:0:0:
256,192,80624,1,0,0:0:0:0:
256,192,80834,1,8,0:0:0:0:
256,192,81044,1,8,0:0:0:0:
256,192,81149,1,8,0:0:0:0:
256,192,81254,1,8,0:0:0:0:
256,192,81463,1,0,0:0:0:0:
256,192,81673,1,8,0:0:0:0:
256,192,82512,1,4,0:0:0:0:
256,192,82722,1,8,0:0:0:0:
256,192,82932,1,8,0:0:0:0:
256,192,83351,1,8,0:0:0:0:
256,192,83666,1,8,0:0:0:0:
256,192,83981,1,0,0:0:0:0:
256,192,84191,1,0,0:0:0:0:
256,192,84400,1,8,0:0:0:0:
256,192,84610,1,8,0:0:0:0:
256,192,85030,1,8,0:0:0:0:
256,192,85344,1,0,0:0:0:0:
256,192,85659,1,8,0:0:0:0:
256,192,85869,1,0,0:0:0:0:
256,192,86079,1,8,0:0:0:0:
256,192,86288,1,8,0:0:0:0:
256,192,86708,1,8,0:0:0:0:
256,192,86918,1,4,0:0:0:0:
256,192,87128,1,12,0:0:0:0:
256,192,87337,1,0,0:0:0:0:
256,192,87442,1,0,0:0:0:0:
256,192,87547,1,0,0:0:0:0:
256,192,87862,1,8,0:0:0:0:
256,192,88177,1,8,0:0:0:0:
256,192,88386,1,0,0:0:0:0:
256,192,88596,1,12,0:0:0:0:
