osu file format v14

[General]
AudioFilename: audio.ogg
AudioLeadIn: 0
PreviewTime: 48474
Countdown: 0
SampleSet: Normal
StackLeniency: 0.7
Mode: 1
LetterboxInBreaks: 0
WidescreenStoryboard: 0

[Editor]
DistanceSpacing: 1.1
BeatDivisor: 2
GridSize: 32
TimelineZoom: 0.6999998

[Metadata]
Title:Etonyanran (TV Size)
TitleUnicode:えとにゃんらん (TV Size)
Artist:Suzuki Aina
ArtistUnicode:鈴木愛奈
Creator:Garden
Version:Kantan
Source:えとたま ~猫客万来~
Tags:etotama nyankyaku banrai eto tamashii opening japanese pop jpop j-pop anime
BeatmapID:3542680
BeatmapSetID:1732903

[Difficulty]
HPDrainRate:8
CircleSize:3
OverallDifficulty:3
ApproachRate:9
SliderMultiplier:1.4
SliderTickRate:1

[Events]
//Background and Video events
0,0,"nya.jpg",0,40
//Break Periods
//Storyboard Layer 0 (Background)
//Storyboard Layer 1 (Fail)
//Storyboard Layer 2 (Pass)
//Storyboard Layer 3 (Foreground)
//Storyboard Layer 4 (Overlay)
//Storyboard Sound Samples

[TimingPoints]
275,419.58041958042,4,1,0,50,1,0
5309,-100,4,1,0,65,0,0
48946,-100,4,1,0,80,0,1
74121,-100,4,1,0,65,0,0

[HitObjects]
256,192,275,5,0,0:0:0:0:
256,192,694,1,8,0:0:0:0:
256,192,1533,1,8,0:0:0:0:
256,192,1953,1,0,0:0:0:0:
256,192,2372,1,8,0:0:0:0:
256,192,3212,1,8,0:0:0:0:
256,192,3631,1,4,0:0:0:0:
256,192,4890,1,8,0:0:0:0:
256,192,5309,1,0,0:0:0:0:
256,192,6358,1,8,0:0:0:0:
256,192,6988,1,4,0:0:0:0:
256,192,7407,1,8,0:0:0:0:
256,192,8247,1,8,0:0:0:0:
256,192,8666,1,0,0:0:0:0:
256,192,9086,1,8,0:0:0:0:
256,192,9925,1,8,0:0:0:0:
256,192,10344,1,0,0:0:0:0:
256,192,10764,1,8,0:0:0:0:
256,192,11603,1,8,0:0:0:0:
256,192,12023,1,0,0:0:0:0:
256,192,13281,1,8,0:0:0:0:
256,192,14121,1,8,0:0:0:0:
256,192,14540,1,0,0:0:0:0:
256,192,14960,1,8,0:0:0:0:
256,192,15799,1,8,0:0:0:0:
256,192,16219,1,0,0:0:0:0:
256,192,16638,1,8,0:0:0:0:
256,192,17477,1,8,0:0:0:0:
256,192,17897,1,0,0:0:0:0:
256,192,18316,1,8,0:0:0:0:
256,192,18736,1,0,0:0:0:0:
256,192,19785,1,12,0:0:0:0:
256,192,20414,1,0,0:0:0:0:
256,192,20834,1,8,0:0:0:0:
256,192,21673,1,8,0:0:0:0:
256,192,22093,1,0,0:0:0:0:
256,192,22932,1,8,0:0:0:0:
256,192,23351,1,8,0:0:0:0:
256,192,23771,1,0,0:0:0:0:
256,192,25030,1,8,0:0:0:0:
256,192,25449,1,0,0:0:0:0:
256,192,25869,1,8,0:0:0:0:
256,192,26288,1,0,0:0:0:0:
256,192,27128,1,0,0:0:0:0:
256,192,27967,1,8,0:0:0:0:
256,192,28386,1,8,0:0:0:0:
256,192,28806,1,0,0:0:0:0:
256,192,29645,1,0,0:0:0:0:
256,192,30065,1,8,0:0:0:0:
256,192,30484,1,0,0:0:0:0:
256,192,31743,1,8,0:0:0:0:
256,192,32163,1,0,0:0:0:0:
256,192,33212,1,12,0:0:0:0:
256,192,33841,1,0,0:0:0:0:
256,192,34680,1,8,0:0:0:0:
256,192,35519,1,8,0:0:0:0:
256,192,36358,1,0,0:0:0:0:
256,192,36778,1,0,0:0:0:0:
256,192,37198,1,8,0:0:0:0:
256,192,38456,1,8,0:0:0:0:
256,192,38876,1,0,0:0:0:0:
256,192,39295,1,8,0:0:0:0:
256,192,39715,1,8,0:0:0:0:
256,192,40554,1,0,0:0:0:0:
256,192,40974,1,0,0:0:0:0:
256,192,41393,1,8,0:0:0:0:
256,192,42233,1,8,0:0:0:0:
256,192,42652,1,8,0:0:0:0:
256,192,43072,1,0,0:0:0:0:
256,192,43911,1,12,0:0:0:0:
256,192,44750,1,12,0:0:0:0:
256,192,45589,1,12,0:0:0:0:
256,192,46428,1,0,0:0:0:0:
256,192,46848,1,8,0:0:0:0:
256,192,48946,1,4,0:0:0:0:
256,192,49785,1,8,0:0:0:0:
256,192,50205,1,8,0:0:0:0:
256,192,50624,1,0,0:0:0:0:
256,192,51044,1,8,0:0:0:0:
256,192,51883,1,8,0:0:0:0:
256,192,52302,1,0,0:0:0:0:
256,192,52722,1,8,0:0:0:0:
256,192,53981,1,0,0:0:0:0:
256,192,54400,1,8,0:0:0:0:
256,192,54820,1,0,0:0:0:0:
256,192,55240,1,8,0:0:0:0:
256,192,56079,1,8,0:0:0:0:
256,192,56498,1,0,0:0:0:0:
256,192,56918,1,8,0:0:0:0:
256,192,57757,1,0,0:0:0:0:
256,192,58177,1,8,0:0:0:0:
256,192,58596,1,8,0:0:0:0:
256,192,59435,1,8,0:0:0:0:
256,192,59855,1,0,0:0:0:0:
256,192,60275,1,8,0:0:0:0:
256,192,60694,1,0,0:0:0:0:
256,192,61533,1,8,0:0:0:0:
256,192,62372,1,4,0:0:0:0:
256,192,63212,1,8,0:0:0:0:
256,192,63631,1,8,0:0:0:0:
256,192,64051,1,0,0:0:0:0:
256,192,64890,1,8,0:0:0:0:
256,192,65309,1,8,0:0:0:0:
256,192,65729,1,0,0:0:0:0:
256,192,66149,1,8,0:0:0:0:
256,192,67198,1,4,0:0:0:0:
256,192,67827,1,8,0:0:0:0:
256,192,68247,1,0,0:0:0:0:
256,192,68876,1,8,0:0:0:0:
256,192,69505,1,8,0:0:0:0:
256,192,69925,1,0,0:0:0:0:
256,192,70764,1,8,0:0:0:0:
256,192,72023,1,0,0:0:0:0:
256,192,72442,1,8,0:0:0:0:
256,192,73281,1,0,0:0:0:0:
256,192,73701,1,0,0:0:0:0:
256,192,74121,1,12,0:0:0:0:
256,192,75799,1,4,0:0:0:0:
256,192,76219,1,8,0:0:0:0:
256,192,77058,1,8,0:0:0:0:
256,192,77477,1,0,0:0:0:0:
256,192,77897,1,8,0:0:0:0:
256,192,78736,1,8,0:0:0:0:
256,192,79156,1,0,0:0:0:0:
256,192,79575,1,8,0:0:0:0:
256,192,80414,1,8,0:0:0:0:
256,192,80834,1,0,0:0:0:0:
256,192,82093,1,8,0:0:0:0:
256,192,82932,1,8,0:0:0:0:
256,192,83351,1,0,0:0:0:0:
256,192,83771,1,8,0:0:0:0:
256,192,84610,1,8,0:0:0:0:
256,192,85030,1,0,0:0:0:0:
256,192,85449,1,8,0:0:0:0:
256,192,86288,1,8,0:0:0:0:
256,192,86708,1,0,0:0:0:0:
256,192,87128,1,8,0:0:0:0:
256,192,87547,1,0,0:0:0:0:
256,192,88596,1,12,0:0:0:0:
