osu file format v14

[General]
AudioFilename: audio.ogg
AudioLeadIn: 0
PreviewTime: 75589
Countdown: 0
SampleSet: Soft
StackLeniency: 0.2
Mode: 0
LetterboxInBreaks: 0
WidescreenStoryboard: 1

[Editor]
Bookmarks: 6962,20388,23745,27101,30458,33815,40554,48919,61533,75773,89094
DistanceSpacing: 0.4
BeatDivisor: 8
GridSize: 4
TimelineZoom: 3.499999

[Metadata]
Title:Etonyanran (TV Size)
TitleUnicode:えとにゃんらん (TV Size)
Artist:Suzuki Aina
ArtistUnicode:鈴木愛奈
Creator:Enepoyo
Version:Another
Source:えとたま ~猫客万来~
Tags:etotama nyankyaku banrai eto tamashii opening japanese pop jpop j-pop anime milr_ 239
BeatmapID:3831470
BeatmapSetID:1743860

[Difficulty]
HPDrainRate:5
CircleSize:3.3
OverallDifficulty:8.5
ApproachRate:9.3
SliderMultiplier:2.5
SliderTickRate:1

[Events]
//Background and Video events
0,0,"nya.jpg",0,0
//Break Periods
//Storyboard Layer 0 (Background)
//Storyboard Layer 1 (Fail)
//Storyboard Layer 2 (Pass)
//Storyboard Layer 3 (Foreground)
//Storyboard Layer 4 (Overlay)
//Storyboard Sound Samples

[TimingPoints]
275,419.58041958042,4,2,1,50,1,0
3631,-133.333333333333,4,2,2,40,0,0
4575,-100,4,2,1,40,0,0
5309,-52.6315789473684,4,2,1,75,0,0
5624,-58.8235294117647,4,2,1,75,0,0
5886,-58.8235294117647,4,2,1,5,0,0
5939,-100,4,2,1,75,0,0
7617,-76.9230769230769,4,2,1,75,0,1
7827,-58.8235294117647,4,2,1,75,0,1
8247,-71.4285714285714,4,2,1,75,0,1
9295,-100,4,2,1,75,0,1
9925,-100,4,2,1,75,0,1
10135,-62.5,4,2,1,75,0,1
11393,-83.3333333333333,4,2,1,75,0,1
11813,-62.5,4,2,1,75,0,1
12023,-76.9230769230769,4,2,1,65,0,1
12442,-58.8235294117647,4,2,1,65,0,1
12652,-43.4782608695652,4,2,1,65,0,1
12862,-76.9230769230769,4,2,1,65,0,1
13281,-39.2156862745098,4,2,1,65,0,1
13701,-37.037037037037,4,2,1,75,0,1
14330,-66.6666666666667,4,2,1,75,0,1
14540,-58.8235294117647,4,2,1,75,0,1
14855,-71.4285714285714,4,2,1,75,0,1
16009,-66.6666666666667,4,2,1,75,0,1
16638,-100,4,2,1,75,0,1
16848,-58.8235294117647,4,2,1,75,0,1
17477,-66.6666666666667,4,2,1,75,0,1
18736,-66.6666666666667,4,2,1,75,0,1
19051,-62.5,4,2,1,75,0,1
19313,-58.8235294117647,4,2,1,5,0,1
19365,-66.6666666666667,4,2,1,75,0,1
20414,-66.6666666666667,4,2,1,58,0,1
20624,-100,4,2,1,40,0,0
21358,-166.666666666667,4,2,1,40,0,0
21883,-111.111111111111,4,2,1,40,0,0
22407,-111.111111111111,4,2,1,40,0,0
22722,-83.3333333333333,4,2,1,40,0,0
23142,-76.9230769230769,4,2,1,55,0,0
23771,-76.9230769230769,4,2,1,70,0,1
24610,-47.6190476190476,4,2,1,70,0,1
25030,-90.9090909090909,4,2,1,70,0,1
25659,-76.9230769230769,4,2,1,70,0,1
25869,-47.6190476190476,4,2,1,70,0,1
26184,-100,4,2,1,70,0,1
27128,-37.037037037037,4,2,1,40,0,0
27757,-125,4,2,1,40,0,0
28386,-83.3333333333333,4,2,1,40,0,0
28544,-83.3333333333333,4,2,1,5,0,0
28596,-83.3333333333333,4,2,1,40,0,0
29435,-66.6666666666667,4,2,1,40,0,0
29645,-83.3333333333333,4,2,1,55,0,0
30484,-83.3333333333333,4,2,1,70,0,1
31114,-76.9230769230769,4,2,1,70,0,1
31323,-47.6190476190476,4,2,3,70,0,1
31533,-47.6190476190476,4,2,1,70,0,1
31743,-90.9090909090909,4,2,1,70,0,1
32163,-52.6315789473684,4,2,1,70,0,1
32477,-50,4,2,1,70,0,1
32740,-50,4,2,1,5,0,1
32792,-50,4,2,1,70,0,1
33212,-95.2380952380952,4,2,1,70,0,1
33841,-83.3333333333333,4,2,1,55,0,0
34680,-153.846153846153,4,2,1,55,0,0
35519,-75.187969924812,4,2,1,55,0,0
38247,-47.6190476190476,4,2,1,55,0,0
38456,-66.6666666666667,4,2,1,63,0,0
39400,-58.8235294117647,4,2,1,63,0,0
40344,-58.8235294117647,4,2,1,70,0,0
41603,-250,4,2,1,70,0,0
43491,-100,4,2,1,70,0,0
43911,-133.333333333333,4,2,1,50,0,0
45589,-333.333333333333,4,2,1,55,0,0
46428,-66.6666666666667,4,2,1,60,0,0
47268,-55.5555555555556,4,2,1,70,0,0
48526,-55.5555555555556,4,2,1,50,0,0
48946,-62.5,4,2,1,75,0,0
49575,-62.5,4,2,1,75,0,0
49995,-71.4285714285714,4,2,1,75,0,0
50624,-62.5,4,2,1,70,0,0
51044,-55.5555555555556,4,2,1,70,0,0
51673,-50,4,2,1,70,0,0
52040,-50,4,2,1,5,0,0
52093,-50,4,2,1,70,0,0
52722,-100,4,2,1,70,0,0
53142,-133.333333333333,4,2,1,70,0,0
53561,-58.8235294117647,4,2,1,70,0,0
53981,-200,4,2,1,70,0,0
54400,-50,4,2,1,70,0,0
55030,-100,4,2,1,70,0,0
57337,-83.3333333333333,4,2,1,70,0,0
57967,-58.8235294117647,4,2,1,70,0,0
59435,-55.5555555555556,4,2,1,70,0,0
59593,-66.6666666666667,4,2,1,5,0,0
59645,-66.6666666666667,4,2,1,70,0,0
59855,-50,4,2,1,70,0,0
60275,-50,4,2,1,70,0,0
60484,-66.6666666666667,4,2,1,70,0,0
60694,-55.5555555555556,4,2,1,70,0,0
62372,-55.5555555555556,4,2,1,70,0,0
63002,-71.4285714285714,4,2,1,70,0,0
63421,-83.3333333333333,4,2,1,70,0,0
63631,-55.5555555555556,4,2,1,70,0,0
64051,-58.8235294117647,4,2,1,70,0,0
64470,-83.3333333333333,4,2,1,70,0,0
64680,-50,4,2,1,70,0,0
65100,-52.6315789473684,4,2,1,70,0,0
65257,-45.4545454545455,4,2,1,5,0,0
65309,-55.5555555555556,4,2,1,70,0,0
65467,-45.4545454545455,4,2,1,5,0,0
65519,-52.6315789473684,4,2,1,70,0,0
66149,-76.9230769230769,4,2,1,70,0,0
66358,-100,4,2,1,70,0,0
66568,-133.333333333333,4,2,1,70,0,0
66988,-41.6666666666667,4,2,1,80,0,0
67198,-200,4,2,1,80,0,0
68037,-50,4,2,1,80,0,0
68247,-38.4615384615385,4,2,1,80,0,0
68404,-33.3333333333333,4,2,1,5,0,0
68456,-33.3333333333333,4,2,1,80,0,0
68561,-83.3333333333333,4,2,1,80,0,0
68876,-55.5555555555556,4,2,1,80,0,0
69505,-38.4615384615385,4,2,1,70,0,0
69715,-133.333333333333,4,2,1,70,0,0
70554,-66.6666666666667,4,2,1,70,0,0
70764,-55.5555555555556,4,2,1,80,0,0
71079,-83.3333333333333,4,2,1,75,0,0
71393,-333.333333333334,4,2,1,70,0,0
71813,-200,4,2,1,60,0,0
72442,-250,4,2,1,55,0,0
72862,-62.5,4,2,1,55,0,0
73281,-58.8235294117647,4,2,1,65,0,0
73701,-33.3333333333333,4,2,1,75,0,0
74121,-33.3333333333333,4,2,1,80,0,0
75799,-100,4,2,1,70,0,1
76428,-66.6666666666667,4,2,1,70,0,1
76638,-52.6315789473684,4,2,1,70,0,1
76953,-71.4285714285714,4,2,1,70,0,1
78736,-100,4,2,1,70,0,1
78946,-62.5,4,2,1,75,0,1
80205,-71.4285714285714,4,2,1,75,0,1
80624,-100,4,2,1,75,0,1
80834,-76.9230769230769,4,2,1,65,0,1
81254,-58.8235294117647,4,2,1,65,0,1
81463,-43.4782608695652,4,2,1,65,0,1
81673,-76.9230769230769,4,2,1,65,0,1
82093,-39.2156862745098,4,2,1,65,0,1
82512,-37.037037037037,4,2,1,75,0,1
83142,-66.6666666666667,4,2,1,75,0,1
83351,-50,4,2,1,75,0,1
83666,-71.4285714285714,4,2,1,75,0,1
84820,-71.4285714285714,4,2,1,75,0,1
85449,-100,4,2,1,75,0,1
85659,-58.8235294117647,4,2,1,75,0,1
86288,-55.5555555555556,4,2,1,75,0,1
87547,-66.6666666666667,4,2,1,75,0,1
87862,-62.5,4,2,1,70,0,1
88124,-62.5,4,2,1,5,0,1
88177,-31.25,4,2,1,70,0,1
88596,-27.7777777777778,4,2,1,70,0,1
89121,-33.3333333333333,4,2,1,70,0,0

[Colours]
Combo1 : 183,209,249
Combo2 : 211,203,241
Combo3 : 253,166,162
Combo4 : 250,193,152

[HitObjects]
174,164,275,5,0,1:0:0:0:
162,162,484,1,2,0:0:0:0:
262,186,694,1,10,0:0:0:0:
252,183,799,1,0,0:0:0:0:
351,208,1009,1,2,0:0:0:0:
340,205,1114,2,0,L|414:183,1,62.5,0|0,1:0|0:0,0:0:0:0:
445,120,1323,5,2,0:0:0:0:
457,41,1428,1,0,0:0:0:0:
445,120,1533,1,10,0:0:0:0:
87,101,1848,5,2,0:0:0:0:
84,142,1954,5,0,1:0:0:0:
72,140,2163,1,2,0:0:0:0:
174,164,2372,5,8,0:0:0:0:
162,160,2477,1,0,0:0:0:0:
262,186,2582,5,8,3:0:0:0:
251,183,2687,1,4,3:0:0:0:
340,205,2792,6,0,L|403:187,1,62.5,4|0,1:3|3:0,0:0:0:0:
445,120,3002,1,10,0:0:0:0:
457,41,3106,1,4,3:0:0:0:
445,120,3212,1,10,0:0:0:0:
417,278,3421,5,10,0:0:0:0:
417,278,3526,1,10,0:0:0:0:
435,361,3631,38,0,B|498:377|422:425|351:392|428:331|523:253|256:151|264:269|268:361|201:328|193:246|244:278,1,375.000014305115,6|0,1:3|1:0,2:0:0:0:
238,275,4575,2,0,P|258:244|263:205,2,62.5,0|0|8,3:0|1:0|0:0,0:0:0:0:
267,137,4890,5,0,1:0:0:0:
245,56,4995,1,4,3:0:0:0:
156,69,5100,2,0,P|172:101|185:133,1,62.5,8|12,0:0|3:0,0:0:0:0:
162,327,5309,6,0,B|79:320|110:176|180:213|180:213|154:233|157:263,1,237.499993658066,6|0,0:0|1:0,2:0:0:0:
162,327,5624,2,0,P|143:257|53:70,1,265.625005066395,4|0,1:0|2:0,2:0:0:0:
5,11,5939,1,12,0:0:0:0:
5,11,6358,5,2,0:3:0:0:
86,2,6463,1,2,0:3:0:0:
166,23,6568,1,8,0:0:0:0:
242,56,6673,1,0,3:0:0:0:
172,11,6778,5,2,0:3:0:0:
254,46,6883,1,0,3:0:0:0:
296,113,6988,1,6,1:2:0:0:
44,256,7198,5,2,0:1:0:0:
54,337,7302,1,2,0:0:0:0:
132,365,7407,1,8,0:0:0:0:
199,316,7512,1,0,3:0:0:0:
178,236,7617,2,0,P|181:189|224:148,1,81.2499962806703,2|2,0:1|0:0,0:0:0:0:
413,277,7827,6,0,B|367:301|316:285|302:234|295:144|394:183|346:204,1,212.500004053116,0|2,1:0|0:1,0:0:0:0:
442,197,8142,1,2,0:0:0:0:
346,203,8247,2,0,L|195:241,1,87.499997329712,8|0,0:0|3:0,0:0:0:0:
255,376,8456,1,2,3:0:0:0:
321,371,8561,1,2,3:2:0:0:
327,304,8666,1,4,1:0:0:0:
179,39,8876,5,2,0:1:0:0:
96,39,8981,1,2,0:0:0:0:
134,113,9086,1,8,0:0:0:0:
122,194,9190,1,0,3:0:0:0:
200,162,9295,2,0,P|229:141|288:144,1,62.5,2|2,0:1|0:0,0:0:0:0:
512,212,9505,1,0,1:0:0:0:
306,207,9715,5,2,0:1:0:0:
360,274,9820,1,2,0:3:0:0:
427,220,9925,2,0,P|434:176|468:143,1,62.5,8|0,0:0|0:0,3:0:0:0:
337,35,10135,6,0,L|368:194,1,100,2|2,0:3|0:0,3:0:0:0:
420,384,10344,1,6,1:2:0:0:
193,299,10554,5,2,0:1:0:0:
140,233,10659,1,2,0:0:0:0:
167,156,10764,1,8,0:0:0:0:
248,145,10869,1,0,3:0:0:0:
157,137,10974,5,2,0:1:0:0:
255,126,11079,1,2,0:0:0:0:
306,207,11184,1,0,1:0:0:0:
221,223,11393,6,0,B|266:214|283:262|274:267|265:272|280:312|329:308,1,149.999995422363,2|8,3:0|0:0,0:0:0:0:
323,308,11708,1,0,3:0:0:0:
267,379,11813,2,0,P|225:339|251:296,1,100,2|0,3:1|0:0,0:0:0:0:
483,370,12023,6,0,P|459:290|441:148,1,162.499992561341,4|2,1:0|0:1,0:0:0:0:
449,204,12337,1,2,0:0:0:0:
353,215,12442,2,0,P|426:190|454:118,1,159.375003039837,8|0,0:0|0:0,0:0:0:0:
456,105,12652,2,0,P|400:69|360:121,1,143.750002741814,2|2,0:1|0:0,0:0:0:0:
483,370,12862,6,0,P|459:290|441:148,1,162.499992561341,0|2,1:0|0:1,0:0:0:0:
360,121,13177,1,2,0:3:0:0:
353,215,13281,2,0,P|426:190|454:118,1,159.375003039837,14|0,3:2|0:0,0:0:0:0:
367,27,13491,2,0,P|293:51|265:123,1,159.375003039837,2|2,3:0|0:0,0:0:0:0:
370,313,13701,1,4,1:0:0:0:
209,384,13911,5,2,0:1:0:0:
128,359,14016,1,2,0:0:0:0:
92,284,14121,1,8,0:0:0:0:
120,207,14225,1,0,3:0:0:0:
190,165,14330,2,0,P|227:202|293:203,1,93.7500035762788,2|2,0:1|0:0,0:0:0:0:
39,52,14540,6,0,B|87:21|-14:-9|0:79|18:129|70:141|114:113,1,212.500004053116,0|2,1:0|0:1,0:0:0:0:
124,104,14855,2,0,P|131:54|155:22,1,87.499997329712,2|8,0:0|0:0,0:0:0:0:
318,25,15065,1,0,3:0:0:0:
323,91,15170,1,2,3:0:0:0:
264,122,15275,1,2,3:2:0:0:
214,85,15380,1,4,1:0:0:0:
512,0,15589,5,2,0:1:0:0:
450,52,15694,1,2,0:0:0:0:
410,121,15799,1,8,0:0:0:0:
379,194,15903,1,0,3:0:0:0:
367,274,16009,2,0,P|426:269|447:225,1,93.7500035762788,2|2,0:1|0:0,0:0:0:0:
323,91,16218,1,0,1:0:0:0:
147,70,16428,5,2,0:1:0:0:
220,108,16533,1,2,0:3:0:0:
189,186,16638,2,0,P|201:223|265:247,1,62.5,8|0,0:0|0:0,3:0:0:0:
379,194,16848,6,0,L|273:173,1,106.250002026558,2|2,0:3|0:0,3:0:0:0:
28,123,17057,1,6,1:2:0:0:
140,264,17268,5,2,0:1:0:0:
140,264,17372,1,2,0:0:0:0:
91,188,17477,2,0,B|50:176|66:111|127:81|183:82|311:97|123:127|190:188,1,281.250010728836,12|0,0:0|0:0,0:0:0:0:
254,315,17897,1,0,1:0:0:0:
512,198,18107,5,2,3:1:0:0:
500,186,18212,5,4,3:0:0:0:
467,180,18316,5,8,0:0:0:0:
411,194,18421,5,8,0:0:0:0:
358,245,18526,5,8,0:3:0:0:
345,321,18631,5,4,0:3:0:0:
405,384,18736,6,0,B|445:341|421:270|379:187|302:337|424:299,1,187.500007152558,12|0,0:0|1:0,0:0:0:0:
405,384,19051,2,0,P|394:312|330:123,1,250,4|0,1:0|2:0,2:0:0:0:
283,75,19366,1,12,0:0:0:0:
283,75,19785,5,2,0:3:0:0:
357,103,19890,1,2,0:3:0:0:
417,159,19995,1,8,0:0:0:0:
468,225,20100,1,0,3:0:0:0:
428,153,20205,5,2,0:3:0:0:
483,222,20310,1,0,3:0:0:0:
489,301,20415,1,6,1:2:0:0:
293,357,20624,5,0,0:0:0:0:
380,330,20834,1,8,0:0:0:0:
293,357,21044,1,2,0:0:0:0:
316,274,21254,5,2,0:0:0:0:
316,274,21358,2,0,P|327:218|339:163,1,112.499996566773,8|8,0:0|0:0,0:0:0:0:
349,168,21883,2,0,L|291:190,1,56.2499982833863,2|0,0:0|0:0,0:0:0:0:
235,247,22093,1,0,1:0:0:0:
168,170,22302,5,0,1:2:0:0:
168,170,22407,2,0,P|193:247|144:283,1,140.624995708466,2|0,0:0|0:0,0:0:0:0:
144,294,22722,2,0,P|110:287|101:245,1,74.9999977111817,2|0,0:0|1:0,0:0:0:0:
14,70,22932,1,4,0:3:0:0:
31,160,23142,2,0,L|12:224,3,40.6249981403352,8|0|4|0,0:3|0:0|0:3|0:0,0:0:0:0:
54,168,23351,5,0,1:0:0:0:
103,167,23456,1,2,0:0:0:0:
148,145,23561,1,8,0:0:0:0:
182,109,23666,1,4,0:3:0:0:
191,60,23771,1,4,1:0:0:0:
247,330,23981,5,2,3:1:0:0:
308,298,24085,1,2,0:0:0:0:
290,232,24190,1,8,0:0:0:0:
228,265,24295,1,0,3:0:0:0:
317,309,24400,6,0,L|408:291,1,81.2499962806703,2|2,0:1|0:0,0:0:0:0:
428,64,24610,6,0,B|371:47|356:87|356:87|400:48|429:68|495:86|459:174,1,262.499991989136,2|2,1:3|1:3,0:0:0:0:
395,206,24925,1,2,0:3:0:0:
323,157,25030,2,0,P|312:135|348:87,1,68.7500020980836,8|0,0:0|0:0,0:0:0:0:
228,265,25240,5,2,0:1:0:0:
308,298,25344,1,2,3:0:0:0:
290,232,25449,5,0,1:0:0:0:
247,330,25554,1,2,0:0:0:0:
317,309,25659,6,0,L|408:291,1,81.2499962806703,2|2,1:0|0:0,0:0:0:0:
428,64,25869,6,0,B|371:47|356:87|356:87|400:48|429:68|495:86|459:174,1,262.499991989136,10|2,0:0|0:1,0:0:0:0:
395,206,26184,2,0,P|324:194|328:95,1,187.5,2|2,0:0|1:0,0:0:0:0:
335,86,26603,1,0,3:0:0:0:
282,18,26708,1,8,0:0:0:0:
210,48,26813,1,4,3:0:0:0:
221,73,26918,5,8,0:3:0:0:
189,151,27023,1,4,0:3:0:0:
109,129,27128,1,4,1:2:0:0:
47,30,27442,5,2,0:0:0:0:
47,30,27547,1,8,0:0:0:0:
136,0,27757,2,0,L|127:66,1,50,0|0,3:0|0:0,0:0:0:0:
41,213,27967,1,2,0:1:0:0:
138,238,28177,5,0,1:0:0:0:
127,240,28281,1,0,3:0:0:0:
127,229,28386,2,0,P|116:167|72:131,1,112.499996566773,8|0,0:0|0:0,3:0:0:0:
73,123,28596,2,0,L|145:142,1,74.9999977111817,0|0,3:0|0:0,0:0:0:0:
222,204,28806,1,0,1:0:0:0:
222,204,29016,2,0,L|323:159,2,74.9999977111817,0|2|8,1:0|0:1|0:0,0:0:0:0:
50,301,29435,2,0,P|70:349|137:355,1,93.7500035762788,0|0,1:0|3:0,0:0:0:0:
118,360,29645,2,0,L|134:318,6,37.4999988555909,8|0|8|0|8|0|8,0:0|0:0|0:0|0:0|0:3|0:0|0:3,0:0:0:0:
137,306,30065,5,0,1:0:0:0:
183,282,30170,1,4,0:3:0:0:
235,289,30275,1,8,0:0:0:0:
267,329,30379,1,4,0:3:0:0:
269,381,30484,1,4,1:2:0:0:
512,284,30694,5,2,3:1:0:0:
480,223,30798,1,2,0:0:0:0:
414,241,30903,1,8,0:0:0:0:
447,303,31008,1,0,3:0:0:0:
491,214,31114,6,0,L|473:123,1,81.2499962806703,2|2,0:1|0:0,0:0:0:0:
237,41,31323,6,0,B|220:98|260:113|260:113|221:69|241:40|259:-26|347:10,1,262.499991989136,6|2,2:3|1:3,0:0:0:0:
379,74,31638,1,2,0:3:0:0:
330,146,31743,2,0,P|308:157|260:121,1,68.7500020980836,8|0,0:0|0:0,0:0:0:0:
475,134,31953,5,2,0:1:0:0:
480,223,32058,1,2,0:0:0:0:
409,269,32163,2,0,B|326:262|357:118|427:155|427:155|401:175|404:205,1,237.499993658066,6|0,0:0|1:0,2:0:0:0:
480,223,32478,2,0,P|342:204|381:73,1,312.5,4|0,1:0|2:0,2:0:0:0:
326,3,32793,1,12,0:0:0:0:
317,0,33212,6,0,P|280:123|326:3,1,393.749987983704,4|4,1:2|0:1,0:0:0:0:
88,29,34470,5,0,1:0:0:0:
88,29,34680,2,0,B|106:45|106:45|64:196,1,162.499992561341,2|8,0:0|0:0,0:0:0:0:
131,111,35309,1,4,3:0:0:0:
69,179,35519,2,0,B|44:170|4:207|93:242|117:163|117:163|141:92|88:29|5:38|1:85,2,332.499986301423,4|2|4,1:2|0:0|0:3,0:0:0:0:
226,311,36778,1,8,0:0:0:0:
241,226,36988,5,2,3:0:0:0:
193,213,37093,1,4,3:0:0:0:
163,251,37198,1,4,1:0:0:0:
349,322,37512,1,0,1:0:0:0:
504,197,37827,1,0,1:0:0:0:
473,0,38037,1,2,0:0:0:0:
504,81,38247,6,0,B|492:112|492:112|429:112|415:184,1,131.249995994568,0|0,1:0|0:0,0:0:0:0:
402,163,38456,2,0,B|348:155|247:74|341:-44|480:-14|337:87|439:75,1,281.250010728836,8|0,0:0|0:0,0:0:0:0:
424,83,38876,1,4,1:0:0:0:
306,212,39086,5,0,3:0:0:0:
256,184,39191,1,0,1:0:0:0:
273,127,39295,1,8,0:0:0:0:
218,57,39400,6,0,L|251:301,1,212.500004053116,2|2,0:0|0:0,0:0:0:0:
165,302,39716,5,8,0:3:0:0:
103,300,39821,1,8,0:3:0:0:
89,222,39925,5,4,0:3:0:0:
119,276,40030,1,4,0:3:0:0:
59,326,40135,5,12,0:0:0:0:
91,273,40240,1,12,0:3:0:0:
103,284,40344,5,2,3:0:0:0:
127,384,40449,1,4,3:0:0:0:
177,214,40554,5,10,0:0:0:0:
6,256,40659,1,8,0:0:0:0:
127,384,40869,5,10,0:0:0:0:
177,214,40974,1,8,0:0:0:0:
6,256,41184,5,10,0:0:0:0:
127,384,41394,1,10,0:0:0:0:
338,249,41603,2,0,L|356:313,2,50,8|8|2,0:1|0:1|0:0,0:0:0:0:
238,305,42233,5,10,0:0:0:0:
381,153,42338,1,8,0:0:0:0:
439,353,42548,5,10,0:0:0:0:
238,305,42653,1,8,0:0:0:0:
382,152,42863,5,10,0:0:0:0:
439,353,43073,1,8,0:0:0:0:
512,263,43281,5,2,3:0:0:0:
512,263,43386,1,2,3:0:0:0:
512,178,43491,2,0,P|476:178|449:211,1,62.5,2|0,3:2|0:0,0:0:0:0:
424,271,43701,2,0,P|384:244|312:232,1,93.75,2|0,3:0|0:0,0:0:0:0:
340,232,43911,6,0,B|316:74,2,140.625005364418,4|0|0,1:0|1:0|1:0,0:0:0:0:
340,232,44750,2,0,B|361:371,2,140.625005364418,12|0|0,0:0|1:0|1:0,0:0:0:0:
340,232,45589,6,0,B|221:249,1,112.499996566773,4|0,1:2|1:0,0:0:0:0:
179,318,46323,1,0,0:0:0:0:
122,259,46428,6,0,P|115:207|77:171,1,93.7500035762788,0|0,1:0|0:0,0:0:0:0:
0,165,46638,1,8,0:0:0:0:
175,188,46743,1,4,0:3:0:0:
54,95,46848,6,0,P|61:147|99:183,1,93.7500035762788,0|0,1:0|0:0,0:0:0:0:
36,246,47058,1,8,0:0:0:0:
140,108,47162,1,4,0:3:0:0:
256,192,47268,12,0,48317,0:0:0:0:
281,367,48526,6,0,L|340:356,6,56.2499982833863,2|2|2|2|2|2|2,0:0|0:0|0:0|0:0|0:0|0:0|0:0,0:0:0:0:
296,353,48946,6,0,P|268:170|158:284,1,400,4|8,1:2|0:0,0:0:0:0:
172,261,49575,2,0,P|211:290|253:244,1,100,2|0,0:0|0:0,0:0:0:0:
158,65,49785,1,0,1:0:0:0:
222,153,49995,2,0,P|247:118|243:75,2,87.499997329712,2|0|8,0:0|1:0|0:0,0:0:0:0:
292,9,50414,5,2,0:0:0:0:
339,42,50519,1,4,0:3:0:0:
325,99,50624,2,0,P|201:122|84:172,1,200,0|2,1:0|0:0,0:0:0:0:
131,165,50939,1,0,1:0:0:0:
143,180,51045,2,0,P|119:247|51:241,1,112.499996566773,8|0,0:0|0:0,0:0:0:0:
26,26,51254,6,0,P|128:64|280:73,1,224.999993133545,2|0,0:0|1:0,0:0:0:0:
242,75,51673,2,0,P|187:90|171:5,1,125,2|0,0:0|0:0,0:0:0:0:
457,31,51883,6,0,P|428:80|404:240,1,187.5,8|0,0:0|0:0,0:0:0:0:
411,210,52093,2,0,P|456:177|440:98,1,125,2|0,0:0|0:0,0:0:0:0:
313,22,52302,1,0,1:0:0:0:
315,199,52512,5,2,0:0:0:0:
315,199,52617,1,0,1:0:0:0:
315,199,52722,2,0,P|284:185|206:170,1,62.5,8|0,0:0|0:0,0:0:0:0:
376,126,52932,2,0,P|345:112|308:103,1,62.5,2|0,0:0|0:0,0:0:0:0:
75,166,53142,2,0,P|82:190|90:230,3,46.8750017881394,0|0|2|0,1:0|0:0|0:0|1:0,0:0:0:0:
170,225,53561,6,0,B|190:190|174:157|132:131|123:149|117:166|70:144|55:112|74:76,1,212.500004053116,8|2,0:0|0:0,0:0:0:0:
109,0,53876,1,0,0:0:0:0:
181,49,53981,2,0,P|156:116|155:140,1,93.75,0|0,1:0|0:0,0:0:0:0:
299,10,54400,6,0,B|362:17|410:83|360:176|356:223|188:205|176:82|293:63|276:140,1,375,8|0,0:0|0:0,0:0:0:0:
280,88,54820,1,0,1:0:0:0:
402,266,55030,6,0,L|464:277,1,62.5,8|0,0:1|0:0,0:0:0:0:
389,94,55240,2,0,L|451:105,1,62.5,8|0,0:1|0:0,0:0:0:0:
512,163,55449,5,8,0:0:0:0:
425,186,55554,1,4,0:3:0:0:
338,209,55659,1,4,1:0:0:0:
56,256,55869,5,2,0:0:0:0:
126,271,55973,1,0,1:0:0:0:
86,283,56078,1,12,0:0:0:0:
106,189,56288,5,2,0:0:0:0:
145,353,56498,5,0,1:0:0:0:
4,323,56603,1,0,0:3:0:0:
67,373,56708,1,2,0:0:0:0:
106,189,56918,5,8,0:0:0:0:
276,384,57128,1,2,0:0:0:0:
432,316,57337,2,0,P|419:253|413:145,1,149.999995422363,0|2,1:0|0:0,0:0:0:0:
416,159,57652,1,0,1:0:0:0:
476,228,57757,2,0,P|508:188|488:144,1,74.9999977111817,8|0,0:0|0:0,0:0:0:0:
296,56,57967,2,0,L|399:32,1,106.250002026558,2|0,0:0|0:0,0:0:0:0:
406,41,58177,6,0,B|425:93|401:124|369:127|366:122|364:117|324:130|307:170|321:207,1,212.500004053116,0|2,1:0|0:0,0:0:0:0:
393,246,58491,1,0,1:0:0:0:
329,305,58596,2,0,P|281:280|232:260,1,106.250002026558,8|0,0:0|0:0,0:0:0:0:
156,191,58806,5,2,0:0:0:0:
192,112,58911,1,4,0:3:0:0:
274,137,59016,1,0,1:0:0:0:
108,21,59226,5,2,0:0:0:0:
44,9,59330,1,4,0:3:0:0:
11,55,59435,2,0,P|27:149|16:263,1,168.749994850159,8|0,0:0|0:0,0:0:0:0:
23,221,59645,2,0,P|77:190|72:145,1,93.7500035762788,2|0,0:0|0:0,0:0:0:0:
237,209,59855,2,0,B|184:208|51:177|196:170|44:138|0:140,1,250,0|2,1:0|0:0,0:0:0:0:
3,306,60170,5,4,0:3:0:0:
72,321,60275,1,8,0:0:0:0:
101,258,60379,1,8,0:3:0:0:
81,332,60484,2,0,L|200:363,1,93.7500035762788,4|0,0:3|1:0,0:0:0:0:
464,326,60694,6,0,P|444:263|380:242,1,112.499996566773,4|0,1:2|0:0,0:0:0:0:
237,209,60904,1,8,0:0:0:0:
242,299,61008,2,0,P|306:314|356:268,1,112.499996566773,4|0,1:0|0:0,0:0:0:0:
455,159,61219,1,0,1:0:0:0:
377,119,61323,2,0,P|332:166|346:233,1,112.499996566773,4|0,1:2|0:0,0:0:0:0:
390,374,61534,5,4,1:0:0:0:
301,363,61639,1,4,0:3:0:0:
242,299,61744,1,8,1:0:0:0:
237,209,61849,1,0,1:0:0:0:
290,139,61953,1,8,1:0:0:0:
377,119,62058,1,0,1:0:0:0:
455,159,62163,1,4,0:3:0:0:
490,241,62268,1,8,0:3:0:0:
464,326,62372,6,0,P|291:304|396:105,1,449.99998626709,4|8,1:2|0:0,0:0:0:0:
377,119,63002,2,0,P|425:152|364:181,1,87.499997329712,2|0,0:0|0:0,0:0:0:0:
375,333,63212,5,0,1:0:0:0:
310,271,63421,2,0,P|320:229|326:192,2,74.9999977111817,2|0|8,0:0|0:0|0:0,0:0:0:0:
213,384,63841,5,2,0:0:0:0:
254,347,63946,1,0,0:0:0:0:
225,300,64051,2,0,P|101:283|80:184,1,212.500004053116,0|2,1:0|0:0,0:0:0:0:
81,196,64366,1,0,1:0:0:0:
161,206,64470,2,0,P|152:242|146:290,1,74.9999977111817,8|0,0:0|0:0,0:0:0:0:
0,258,64680,2,0,L|247:214,1,250,2|0,0:0|1:0,0:0:0:0:
246,214,65100,2,0,P|245:147|317:132,1,118.749996829033,2|0,0:0|0:0,0:0:0:0:
306,282,65310,6,0,B|428:298|338:307|491:321,1,168.749994850159,8|0,0:0|0:0,0:0:0:0:
480,330,65520,2,0,L|341:350,1,118.749996829033,2|0,0:0|0:0,0:0:0:0:
330,200,65729,1,0,1:0:0:0:
500,229,65939,5,2,0:0:0:0:
512,228,66044,1,0,1:0:0:0:
505,224,66149,2,0,P|506:183|435:136,1,81.2499962806703,12|0,0:0|0:0,0:0:0:0:
394,258,66359,2,0,P|413:228|409:184,1,62.5,2|0,0:0|0:0,0:0:0:0:
388,45,66568,6,0,P|381:21|373:-19,2,46.8750017881394,0|4|2,1:0|0:3|0:0,0:0:0:0:
407,123,66883,1,4,0:3:0:0:
327,101,66988,1,8,0:0:0:0:
327,101,67198,2,2,P|239:93|236:7,1,187.5,4|8,1:0|0:0,0:1:0:0:
238,3,68037,6,0,P|301:19|307:99,1,125,0|0,1:0|0:0,0:0:0:0:
120,183,68247,6,0,B|138:164|129:128|75:138|73:150|73:150|58:149|58:149|11:183|-32:175|-8:119|-10:71|56:-1|111:45|78:96,1,324.999985122681,12|0,0:0|0:0,0:0:0:0:
142,99,68561,6,0,B|154:105|163:117|163:117|241:116|276:237,1,149.999995422363,4|0,1:0|1:0,0:0:0:0:
290,27,68876,6,0,P|227:122|301:37,1,337.499989700318,12|0,0:0|0:0,0:0:0:0:
118,18,69295,5,0,1:0:0:0:
190,31,69399,1,0,0:0:0:0:
158,5,69504,1,8,0:0:0:0:
126,184,69715,2,0,L|116:229,1,46.8750017881394,2|0,0:0|0:0,0:0:0:0:
203,153,69924,5,0,1:0:0:0:
66,126,70029,1,0,0:0:0:0:
142,99,70134,1,2,0:0:0:0:
113,249,70344,5,8,0:0:0:0:
249,229,70554,2,0,P|303:241|345:254,1,93.7500035762788,2|0,0:0|0:0,0:0:0:0:
319,368,70764,6,0,P|302:256|288:145,1,224.999993133545,12|0,0:0|1:0,0:0:0:0:
384,172,71079,6,0,P|392:246|403:320,1,149.999995422363,4|0,1:0|1:0,0:0:0:0:
489,272,71393,6,0,P|483:234|479:197,1,74.9999977111817,4|12,1:2|0:0,0:0:0:0:
482,187,71918,1,0,0:0:0:0:
496,176,72023,1,4,1:2:0:0:
509,148,72128,1,4,0:3:0:0:
500,99,72233,1,8,0:0:0:0:
437,47,72337,1,4,0:3:0:0:
351,55,72442,2,0,P|341:105|337:159,1,100,4|0,1:0|1:0,0:0:0:0:
327,164,73072,2,0,P|271:148|263:84,1,100,8|0,1:2|0:0,0:0:0:0:
34,112,73281,6,0,P|134:96|178:4,3,212.500004053116,0|8|0|8,1:0|0:0|1:0|0:0,0:0:0:0:
172,132,74121,5,4,1:2:0:0:
172,132,75799,5,4,1:2:0:0:
372,170,76009,5,2,0:1:0:0:
394,247,76113,1,2,0:0:0:0:
470,276,76218,1,8,0:0:0:0:
453,355,76323,1,0,3:0:0:0:
372,382,76428,2,0,P|335:359|354:291,1,93.7500035762788,2|2,0:1|0:0,0:0:0:0:
465,184,76638,6,0,B|494:189|540:177|607:73|479:24|467:26|507:106|461:111|453:100,1,237.499993658066,0|2,1:0|0:1,0:0:0:0:
419,30,76953,1,2,0:0:0:0:
442,110,77058,2,0,P|390:111|358:79,1,87.499997329712,8|0,0:0|3:0,0:0:0:0:
245,64,77268,1,2,3:0:0:0:
267,1,77373,1,2,3:2:0:0:
334,13,77478,1,4,1:0:0:0:
396,248,77687,5,2,0:1:0:0:
316,269,77792,1,2,0:0:0:0:
243,230,77897,1,8,0:0:0:0:
294,297,78001,1,0,3:0:0:0:
375,325,78106,2,0,P|404:308|481:254,1,87.499997329712,2|2,0:1|0:0,0:0:0:0:
419,30,78316,1,0,1:0:0:0:
324,183,78526,5,2,0:1:0:0:
250,143,78631,1,2,0:3:0:0:
326,99,78736,2,0,L|429:122,1,62.5,8|0,0:0|0:0,3:0:0:0:
492,94,78946,6,0,L|394:125,1,100,2|2,0:3|0:0,3:0:0:0:
151,188,79155,1,6,1:2:0:0:
41,8,79365,5,2,0:1:0:0:
16,76,79470,1,2,0:0:0:0:
68,126,79575,1,8,0:0:0:0:
105,56,79680,1,0,3:0:0:0:
62,137,79785,5,2,0:1:0:0:
3,79,79890,1,2,0:0:0:0:
30,0,79995,1,0,1:0:0:0:
105,56,80205,6,0,B|155:45|175:100|164:105|154:111|171:156|227:152,1,174.999994659424,2|8,3:0|0:0,0:0:0:0:
237,146,80520,1,0,3:0:0:0:
246,61,80624,2,0,P|210:67|167:80,1,62.5,2|0,3:1|0:0,0:0:0:0:
169,258,80834,6,0,P|249:234|391:216,1,162.499992561341,4|2,1:0|0:1,0:0:0:0:
335,224,81148,1,2,0:0:0:0:
324,128,81254,2,0,P|349:201|421:229,1,159.375003039837,8|0,0:0|0:0,0:0:0:0:
434,231,81463,2,0,P|470:175|418:135,1,143.750002741814,2|2,0:1|0:0,0:0:0:0:
169,258,81673,6,0,P|249:234|391:216,1,162.499992561341,0|2,1:0|0:1,0:0:0:0:
419,135,81988,1,2,0:3:0:0:
324,128,82093,2,0,P|349:201|421:229,1,159.375003039837,14|0,3:2|0:0,0:0:0:0:
512,142,82302,2,0,P|488:68|416:40,1,159.375003039837,2|2,3:0|0:0,0:0:0:0:
237,146,82512,1,4,1:0:0:0:
0,196,82723,5,2,0:1:0:0:
78,182,82828,1,2,0:0:0:0:
152,210,82933,1,8,0:0:0:0:
188,279,83037,1,0,3:0:0:0:
167,355,83142,2,0,P|212:366|267:390,1,93.7500035762788,2|2,0:1|0:0,0:0:0:0:
374,309,83351,6,0,B|373:245|310:199|310:199|319:194|321:189|321:189|358:252|468:235,1,250,0|2,1:0|0:1,0:0:0:0:
415,229,83666,2,0,P|465:202|462:153,1,87.499997329712,2|8,0:0|0:0,0:0:0:0:
450,41,83876,1,0,3:0:0:0:
384,36,83981,1,2,3:0:0:0:
353,95,84086,1,2,3:2:0:0:
390,145,84191,1,4,1:0:0:0:
166,48,84401,5,2,0:1:0:0:
244,43,84506,1,2,0:0:0:0:
269,117,84611,1,8,0:0:0:0:
208,166,84715,1,0,3:0:0:0:
137,122,84820,2,0,P|150:63|155:23,1,87.499997329712,2|2,0:1|0:0,0:0:0:0:
470,119,85030,1,0,1:0:0:0:
332,254,85239,5,2,0:1:0:0:
407,216,85344,1,2,0:3:0:0:
381,133,85449,2,0,P|351:145|333:202,1,62.5,8|0,0:0|0:0,3:0:0:0:
512,195,85659,6,0,L|357:227,1,106.250002026558,2|2,0:3|0:0,3:0:0:0:
186,271,85868,1,6,1:2:0:0:
332,254,86079,5,2,0:1:0:0:
332,254,86183,1,2,0:0:0:0:
393,304,86288,2,0,B|381:330|319:364|266:337|237:279|201:166|440:172|208:367,1,337.499989700318,12|0,0:0|0:0,0:0:0:0:
131,384,86708,1,0,1:0:0:0:
0,277,86918,5,2,3:1:0:0:
7,291,87023,5,4,3:0:0:0:
36,305,87127,5,8,0:0:0:0:
95,306,87232,5,8,0:0:0:0:
158,270,87337,5,8,0:3:0:0:
192,200,87442,5,4,0:3:0:0:
149,125,87547,6,0,B|99:156|104:230|123:322|236:197|108:202,1,187.500007152558,12|0,0:0|1:0,0:0:0:0:
70,225,87862,2,0,P|184:168|316:144,1,250,4|0,1:0|2:0,2:0:0:0:
388,152,88177,1,12,0:0:0:0:
388,152,88596,6,0,B|401:154|405:130|411:77|366:86|382:53|369:25|347:47|352:84|314:60|301:111|297:136|312:138,5,224.999993133545,2|0|2|2|2|2,0:1|1:0|0:1|1:0|0:3|0:3,0:0:0:0:
