osu file format v14

[General]
AudioFilename: audio.mp3
AudioLeadIn: 0
PreviewTime: 229735
Countdown: 0
SampleSet: Soft
StackLeniency: 0.6
Mode: 0
LetterboxInBreaks: 0
WidescreenStoryboard: 0

[Editor]
Bookmarks: 128485,187152,280485
DistanceSpacing: 0.6
BeatDivisor: 4
GridSize: 32
TimelineZoom: 2.9

[Metadata]
Title:Attouteki Sonzaikan
TitleUnicode:圧 倒 的 存 在 感
Artist:Suzuhara Lulu, Debidebi Debiru
ArtistUnicode:鈴原るる、でびでび・でびる
Creator:Yuuma
Version:Konlulu~
Source:
Tags:Devil overwhelming presence komasy yassu- まろん ARM IOSYS VTuber Virtual YouTuber バーチャルYouTuber ユーチューバー にじさんじ nijisanji いちから Ichikara 2434 SMASH the PAINT!! japanese pop jpop j-pop electronic
BeatmapID:2460720
BeatmapSetID:1180058

[Difficulty]
HPDrainRate:6
CircleSize:4
OverallDifficulty:9
ApproachRate:9.4
SliderMultiplier:1.8
SliderTickRate:1

[Events]
//Background and Video events
0,0,"lulul.jpg",0,0
//Break Periods
2,91352,98612
//Storyboard Layer 0 (Background)
//Storyboard Layer 1 (Fail)
//Storyboard Layer 2 (Pass)
//Storyboard Layer 3 (Foreground)
//Storyboard Layer 4 (Overlay)
//Storyboard Sound Samples

[TimingPoints]
486,333.333333333333,4,2,1,100,1,0
486,-166.666666666667,4,2,1,50,0,0
3152,-100,4,2,1,80,0,0
11152,-111.111111111111,4,2,1,70,0,0
13819,-142.857142857143,4,2,3,50,0,0
23485,-200,4,2,1,50,0,0
24485,-125,4,2,1,60,0,0
24819,-125,4,2,4,60,0,0
25235,-125,4,2,1,60,0,0
27485,-125,4,2,4,60,0,0
27902,-125,4,2,1,60,0,0
33819,-125,4,2,6,60,0,0
34652,-125,4,2,1,60,0,0
35152,-100,4,2,3,70,0,0
39819,-100,4,2,1,70,0,0
40485,-100,4,2,3,70,0,0
42819,-66.6666666666667,4,2,3,70,0,0
42902,-66.6666666666667,4,2,3,5,0,0
42985,-66.6666666666667,4,2,3,70,0,0
43069,-66.6666666666667,4,2,3,5,0,0
43152,-100,4,2,3,70,0,0
44485,-66.6666666666667,4,2,3,70,0,0
44569,-66.6666666666667,4,2,3,5,0,0
44652,-66.6666666666667,4,2,3,70,0,0
44735,-66.6666666666667,4,2,2,5,0,0
44819,-66.6666666666667,4,2,3,70,0,0
44902,-66.6666666666667,4,2,3,5,0,0
44985,-66.6666666666667,4,2,3,70,0,0
45069,-66.6666666666667,4,2,3,5,0,0
45152,-100,4,2,3,70,0,0
45819,-100,4,2,1,70,0,0
53819,-100,4,2,5,70,0,0
55152,-100,4,2,3,70,0,0
56485,-166.666666666667,4,2,1,50,0,0
59152,-100,4,2,1,80,0,1
79152,-200,4,2,1,60,0,1
80485,-100,4,2,1,80,0,0
88485,-111.111111111111,4,2,1,70,0,0
91152,-200,4,2,1,70,0,0
99152,-200,4,2,1,50,0,0
107152,-142.857142857143,4,2,5,60,0,0
116485,-142.857142857143,4,2,1,60,0,0
117819,-142.857142857143,4,2,5,60,0,0
122819,-142.857142857143,4,2,1,60,0,0
125819,-142.857142857143,4,2,5,60,0,0
127152,-142.857142857143,4,2,1,60,0,0
128485,-83.3333333333333,4,2,3,80,0,1
128985,-100,4,2,3,80,0,1
129569,-133.333333333333,4,2,3,80,0,1
129819,-100,4,2,3,80,0,1
130819,-66.6666666666667,4,2,3,80,0,1
130902,-66.6666666666667,4,2,3,5,0,1
130985,-66.6666666666667,4,2,3,80,0,1
131069,-66.6666666666667,4,2,3,5,0,1
131152,-83.3333333333333,4,2,3,80,0,1
131652,-100,4,2,3,80,0,1
132235,-133.333333333333,4,2,3,80,0,1
132485,-100,4,2,3,80,0,1
133319,-66.6666666666667,4,2,3,80,0,1
133402,-66.6666666666667,4,2,3,5,0,1
133485,-66.6666666666667,4,2,3,80,0,1
133569,-66.6666666666667,4,2,3,5,0,1
133652,-66.6666666666667,4,2,3,80,0,1
133735,-66.6666666666667,4,2,3,5,0,1
133819,-83.3333333333333,4,2,3,80,0,1
134652,-66.6666666666667,4,2,3,80,0,1
135152,-100,4,2,3,80,0,1
136152,-100,4,2,3,80,0,1
136194,-100,4,2,3,5,0,1
136235,-100,4,2,3,80,0,1
136277,-100,4,2,3,5,0,1
136319,-100,4,2,3,80,0,1
136360,-100,4,2,3,5,0,1
136402,-100,4,2,3,80,0,1
136444,-100,4,2,3,5,0,1
136485,-83.3333333333333,4,2,3,80,0,1
136819,-66.6666666666667,4,2,3,80,0,1
137152,-100,4,2,3,80,0,1
137819,-200,4,2,3,80,0,1
139152,-83.3333333333333,4,2,4,80,0,1
139235,-83.3333333333333,4,2,3,80,0,1
139819,-100,4,2,1,80,0,1
141152,-100,4,2,3,80,0,1
141819,-83.3333333333333,4,2,4,80,0,1
141902,-83.3333333333333,4,2,3,80,0,1
142485,-100,4,2,1,80,0,1
143819,-100,4,2,3,80,0,1
143985,-50,4,2,3,80,0,1
144069,-50,4,2,3,5,0,1
144152,-50,4,2,3,80,0,1
144235,-50,4,2,3,5,0,1
144319,-50,4,2,3,80,0,1
144402,-50,4,2,3,5,0,1
144485,-100,4,2,4,80,0,1
144569,-100,4,2,3,80,0,1
145652,-66.6666666666667,4,2,3,80,0,1
145819,-133.333333333333,4,2,3,80,0,1
146152,-66.6666666666667,4,2,3,80,0,1
146819,-200,4,2,3,80,0,1
147152,-100,4,2,3,80,0,1
149819,-100,4,2,1,60,0,0
155152,-100,4,2,1,70,0,0
156485,-100,4,2,1,80,0,0
157819,-200,4,2,1,50,0,0
159152,-200,4,2,3,60,0,0
160485,-100,4,2,1,80,0,1
168485,-166.666666666667,4,2,1,80,0,0
171152,-100,4,2,1,80,0,1
180485,-62.5,4,2,1,80,0,1
181152,-58.8235294117647,4,2,1,80,0,1
181819,-200,4,2,1,80,0,0
184485,-200,4,2,5,80,0,0
187152,-200,4,2,5,50,0,0
189819,-166.666666666667,4,2,1,50,0,0
203152,-200,4,2,1,50,0,0
205152,-200,4,2,6,50,0,0
205819,-200,4,2,1,50,0,0
207819,-200,4,2,6,50,0,0
208485,-200,4,2,1,50,0,0
210485,-200,4,2,6,50,0,0
211152,-200,4,2,1,50,0,0
213152,-200,4,2,6,50,0,0
213819,-125,4,2,1,60,0,0
227152,-100,4,2,1,70,0,0
232485,-100,4,2,1,80,0,1
240485,-83.3333333333333,4,2,1,80,0,1
241819,-100,4,2,1,80,0,1
252485,-200,4,2,1,80,0,1
253819,-100,4,2,1,80,0,1
255152,-200,4,2,1,80,0,1
256485,-100,4,2,1,80,0,1
263152,-71.4285714285714,4,2,1,80,0,1
263819,-62.5,4,2,1,50,0,1
264485,-416.666666666667,4,2,1,70,0,1
275152,-416.666666666667,4,2,5,70,0,0
278485,-416.666666666667,4,2,5,65,0,0
278652,-416.666666666667,4,2,5,60,0,0
278819,-416.666666666667,4,2,5,55,0,0
278985,-416.666666666667,4,2,5,50,0,0
279152,-416.666666666667,4,2,5,45,0,0
279319,-416.666666666667,4,2,5,40,0,0
279485,-416.666666666667,4,2,5,35,0,0
279652,-416.666666666667,4,2,5,30,0,0
279819,-416.666666666667,4,2,5,25,0,0
279985,-416.666666666667,4,2,5,20,0,0
280152,-416.666666666667,4,2,5,15,0,0
280319,-416.666666666667,4,2,5,10,0,0
280485,-416.666666666667,4,2,5,5,0,0

[Colours]
Combo1 : 0,94,187
Combo2 : 252,182,227
Combo3 : 103,148,252
Combo4 : 239,95,128

[HitObjects]
101,169,486,6,0,L|87:49,2,107.999996704102,2|2|2,0:0|0:0|0:0,0:0:0:0:
111,258,1319,1,2,0:0:0:0:
111,258,1652,2,0,P|166:237|229:244,1,107.999996704102,2|2,0:0|0:0,0:0:0:0:
349,280,2152,2,0,P|305:276|280:262,1,53.9999983520508,2|2,0:0|0:0,0:0:0:0:
251,159,2485,2,0,L|244:81,1,53.9999983520508,2|0,0:0|0:0,0:0:0:0:
214,239,2819,1,10,0:1:0:0:
477,41,3152,6,0,P|378:54|371:57,1,90,6|0,0:0|0:0,0:0:0:0:
217,110,3485,1,8,0:0:0:0:
451,209,3652,1,2,0:0:0:0:
451,209,3735,1,2,0:0:0:0:
451,209,3819,2,0,P|448:140|436:107,1,90,2|0,0:0|0:0,0:0:0:0:
277,24,4152,1,8,0:0:0:0:
326,264,4319,1,0,0:0:0:0:
113,123,4485,6,0,P|175:109|211:105,1,90,6|0,0:0|0:0,0:0:0:0:
371,171,4819,1,8,0:0:0:0:
161,271,4985,1,0,0:0:0:0:
395,342,5152,2,0,B|397:293|397:293|387:253,1,90,2|0,0:0|0:0,0:0:0:0:
201,105,5485,1,8,0:0:0:0:
272,325,5652,1,0,0:0:0:0:
357,78,5819,6,0,P|415:82|470:99,1,90,6|0,0:0|0:0,0:0:0:0:
375,262,6152,1,8,0:0:0:0:
201,105,6319,1,2,0:0:0:0:
201,105,6402,1,2,0:0:0:0:
201,105,6485,2,0,P|188:47|196:10,1,90,2|0,0:0|0:0,0:0:0:0:
333,172,6819,1,8,0:0:0:0:
134,220,6985,1,0,0:0:0:0:
310,51,7152,5,14,0:0:0:0:
267,297,7319,1,2,0:0:0:0:
75,136,7485,1,10,0:0:0:0:
310,51,7652,1,2,0:0:0:0:
119,269,7819,5,10,0:0:0:0:
162,23,7985,1,10,0:0:0:0:
162,23,8069,1,10,0:0:0:0:
162,23,8152,1,10,0:0:0:0:
354,184,8319,1,2,0:0:0:0:
119,269,8485,6,0,L|135:157,1,90,6|0,0:0|0:0,0:0:0:0:
162,23,8819,1,8,0:0:0:0:
253,247,8985,1,2,0:0:0:0:
253,247,9069,1,2,0:0:0:0:
253,247,9152,2,0,P|315:270|346:268,1,90,2|0,0:0|0:0,0:0:0:0:
490,180,9485,1,8,0:0:0:0:
265,104,9652,1,0,0:0:0:0:
420,322,9819,6,0,P|435:259|423:222,1,90,6|0,0:0|0:0,0:0:0:0:
394,56,10152,1,8,0:0:0:0:
337,269,10319,1,0,0:0:0:0:
148,110,10485,2,0,P|208:86|245:80,1,90,2|0,0:0|0:0,0:0:0:0:
412,144,10819,1,8,0:0:0:0:
202,254,10985,1,0,0:0:0:0:
316,18,11152,6,0,P|335:89|329:191,1,161.999995056153,6|8,0:0|0:0,0:0:0:0:
196,18,11652,2,0,P|177:89|183:191,1,161.999995056153,2|2,0:0|0:0,0:0:0:0:
256,278,12152,1,8,0:0:0:0:
256,109,12319,1,6,0:0:0:0:
256,109,12652,5,10,0:0:0:0:
137,334,12819,1,10,0:0:0:0:
418,206,12985,1,10,0:0:0:0:
133,96,13152,2,0,P|83:104|12:132,1,121.499996292114,10|8,0:0|0:0,0:0:0:0:
87,201,13486,2,0,P|166:229|192:231,1,80.9999975280763,8|8,0:0|0:0,0:0:0:0:
205,224,13736,1,8,0:0:0:0:
249,211,13819,5,10,0:0:0:0:
266,10,14152,2,0,L|272:72,1,62.9999980773926,2|0,0:0|0:0,0:0:0:0:
424,100,14485,2,0,P|395:86|364:83,1,62.9999980773926,2|0,0:0|0:0,0:0:0:0:
442,195,14819,2,0,P|470:208|501:211,1,62.9999980773926,2|0,0:0|0:0,0:0:0:0:
393,76,15152,6,0,P|363:63|256:84,1,125.999996154785,2|2,0:0|0:0,0:0:0:0:
184,142,15652,2,0,P|146:159|110:160,1,62.9999980773926,2|0,0:0|0:0,0:0:0:0:
60,72,15985,1,2,0:0:0:0:
60,72,16152,2,0,P|98:55|134:54,1,62.9999980773926,2|2,0:0|0:0,0:0:0:0:
272,73,16485,6,0,L|280:153,1,62.9999980773926,2|2,0:0|0:0,0:0:0:0:
208,284,16819,2,0,L|201:221,1,62.9999980773926,2|0,0:0|0:0,0:0:0:0:
347,216,17152,2,0,P|323:236|292:243,1,62.9999980773926,2|0,0:0|0:0,0:0:0:0:
278,135,17485,2,0,P|301:114|332:107,1,62.9999980773926,2|0,0:0|0:0,0:0:0:0:
445,184,17819,6,0,P|448:250|395:306,1,125.999996154785,2|2,0:0|0:0,0:0:0:0:
309,380,18319,2,0,L|302:317,1,62.9999980773926,2|0,0:0|0:0,0:0:0:0:
208,284,18652,1,2,0:0:0:0:
208,284,18819,2,0,L|201:221,1,62.9999980773926,2|2,0:0|0:0,0:0:0:0:
97,369,19152,6,0,P|48:356|8:276,1,125.999996154785,2|2,0:0|0:0,0:0:0:0:
201,221,19652,2,0,P|214:269|164:344,1,125.999996154785,2|2,0:0|0:0,0:0:0:0:
106,271,20152,2,0,L|82:198,1,62.9999980773926,2|2,0:0|0:0,0:0:0:0:
151,58,20485,6,0,P|103:106|33:104,1,125.999996154785,2|2,0:0|0:0,0:0:0:0:
244,66,20985,2,0,P|292:114|362:112,1,125.999996154785,2|2,0:0|0:0,0:0:0:0:
184,212,21485,2,0,L|193:126,1,62.9999980773926,2|2,0:0|0:0,0:0:0:0:
325,37,21819,6,0,B|379:36|379:36|400:22|400:22|465:23,2,125.999996154785,2|2|2,0:0|0:0|0:0,0:0:0:0:
325,37,22652,1,2,0:0:0:0:
347,117,22819,1,2,0:0:0:0:
369,197,22985,1,2,0:0:0:0:
208,155,23152,5,6,0:0:0:0:
208,155,23485,6,0,P|254:134|311:132,1,90,2|2,0:0|0:0,0:0:0:0:
285,298,24152,1,10,0:0:0:0:
265,309,24235,1,2,1:2:0:0:
244,317,24319,1,2,1:2:0:0:
222,322,24402,1,10,0:0:0:0:
198,322,24485,6,0,L|121:307,1,72,6|0,0:0|0:0,0:0:0:0:
26,164,24819,2,0,P|12:197|11:232,1,72,10|0,0:0|0:0,0:0:0:0:
210,197,25152,2,0,P|212:116|149:53,1,144,2|8,0:0|0:0,0:0:0:0:
113,214,25652,1,0,0:0:0:0:
113,214,25819,6,0,L|212:197,1,72,2|0,0:0|0:0,0:0:0:0:
367,122,26152,2,0,L|268:105,1,72,8|0,0:0|0:0,0:0:0:0:
301,278,26485,1,2,0:0:0:0:
444,189,26652,1,2,0:0:0:0:
296,109,26819,1,10,0:0:0:0:
384,258,26985,1,2,0:0:0:0:
470,108,27152,6,0,L|460:28,1,72,6|0,0:0|0:0,0:0:0:0:
295,108,27485,2,0,P|282:142|281:178,1,72,10|0,0:0|0:0,0:0:0:0:
210,311,27819,2,0,P|215:238|175:167,1,144,2|8,0:0|0:0,0:0:0:0:
51,98,28319,1,0,0:0:0:0:
51,98,28485,6,0,L|59:176,1,72,2|0,0:0|0:0,0:0:0:0:
158,85,28819,1,8,0:0:0:0:
126,257,28985,1,0,0:0:0:0:
51,98,29152,1,2,0:0:0:0:
210,23,29319,1,2,0:0:0:0:
210,23,29402,1,2,0:0:0:0:
210,23,29485,1,10,0:0:0:0:
87,181,29652,1,2,0:0:0:0:
286,209,29819,6,0,L|369:192,1,72,6|0,0:0|0:0,0:0:0:0:
471,127,30152,1,8,0:0:0:0:
471,127,30319,1,0,0:0:0:0:
333,70,30485,1,2,0:0:0:0:
451,224,30652,1,0,0:0:0:0:
485,35,30819,1,8,0:0:0:0:
451,224,30985,1,2,0:0:0:0:
446,247,31069,1,2,0:0:0:0:
441,270,31152,6,0,P|380:333|315:300,1,144,6|8,0:0|0:0,0:0:0:0:
205,163,31652,2,0,B|286:147|272:204|347:186,1,144,6|2,0:0|0:0,0:0:0:0:
228,248,32152,1,8,0:0:0:0:
325,104,32319,6,0,P|325:53|313:24,1,72,6|0,0:0|0:0,0:0:0:0:
187,1,32652,2,0,L|152:6,2,24,2|2|2,0:0|0:0|0:0,0:0:0:0:
144,24,32819,2,0,P|144:75|156:104,1,72,8|0,0:0|0:0,0:0:0:0:
245,221,33152,2,0,P|245:170|233:141,1,72,2|0,0:0|0:0,0:0:0:0:
64,141,33485,2,0,P|64:192|76:221,1,72,8|2,0:0|0:0,0:0:0:0:
114,289,33735,1,2,0:0:0:0:
114,289,33819,6,0,L|150:284,2,24,6|2|2,0:0|0:0|0:0,0:0:0:0:
183,269,33985,2,0,L|206:272,3,24,2|2|2|2,0:0|0:0|0:0|0:0,0:0:0:0:
350,294,34319,1,2,0:0:0:0:
377,299,34652,5,2,0:0:0:0:
183,269,34819,1,2,0:0:0:0:
377,299,34985,1,2,0:0:0:0:
183,269,35152,6,0,B|161:216|186:179|186:179|211:144|185:87|146:76|146:76|118:97|120:126,1,270,6|2,0:0|0:0,0:0:0:0:
270,226,35819,2,0,B|340:238|325:183|400:190,1,135,8|0,0:0|0:0,0:0:0:0:
472,238,36152,1,10,0:0:0:0:
482,218,36235,1,10,0:0:0:0:
486,196,36319,1,10,0:0:0:0:
484,173,36402,1,10,0:0:0:0:
476,152,36485,6,0,P|445:239|489:316,1,180,6|0,0:0|0:0,0:0:0:0:
351,197,36985,1,2,0:0:0:0:
270,354,37152,2,0,B|200:366|215:311|140:318,1,135,8|0,0:0|0:0,0:0:0:0:
104,330,37485,1,2,0:0:0:0:
261,268,37652,1,2,0:0:0:0:
124,161,37819,6,0,P|42:122|107:203,1,270,6|2,0:0|0:0,0:0:0:0:
242,165,38485,2,0,B|283:119|287:37|226:3|226:3|181:39|200:95,1,270,8|2,0:0|0:0,0:0:0:0:
261,268,39152,2,0,B|309:281|343:250|343:250|350:256|350:256|384:231|429:240,1,180,8|0,0:0|0:0,0:0:0:0:
282,179,39652,1,8,0:0:0:0:
408,337,39819,5,2,0:0:0:0:
441,138,39985,1,2,0:0:0:0:
408,337,40152,1,2,0:0:0:0:
441,138,40319,1,2,0:0:0:0:
408,337,40485,6,0,B|337:380|321:303|243:359|243:359|222:313|222:313|242:291|244:256,1,270,6|2,0:0|0:0,0:0:0:0:
223,129,41152,2,0,B|187:93|149:82|106:96|106:96|108:85|108:85|117:88|117:88|90:119|76:167|118:239,1,270,8|2,0:0|0:0,0:0:0:0:
241,272,41819,2,0,L|436:250,1,180,8|0,0:0|0:0,0:0:0:0:
294,181,42319,1,10,0:0:0:0:
492,104,42485,1,8,0:0:0:0:
492,104,42819,6,0,L|483:33,1,67.5000025749208,2|0,0:0|0:0,0:0:0:0:
395,142,42985,2,0,L|386:71,1,67.5000025749208,2|0,0:0|0:0,0:0:0:0:
294,181,43152,6,0,B|241:203|204:178|204:178|169:153|112:179|101:218|101:218|122:246|151:244,1,270,6|0,0:0|3:0,0:0:0:0:
250,102,43819,1,8,0:0:0:0:
250,102,43985,2,0,P|210:52|168:137,1,180,0|2,0:0|0:0,0:0:0:0:
206,318,44485,6,0,L|278:306,1,67.5000025749208,2|0,0:0|0:0,0:0:0:0:
411,194,44652,2,0,L|345:206,1,67.5000025749208,2|0,0:0|0:0,0:0:0:0:
191,235,44819,2,0,L|263:223,1,67.5000025749208,2|0,0:0|0:0,0:0:0:0:
426,277,44985,2,0,L|360:289,1,67.5000025749208,2|0,0:0|0:0,0:0:0:0:
210,130,45152,6,0,B|216:65|269:33|341:38|341:38|367:79|354:110|312:133,1,270,6|0,0:0|0:0,0:0:0:0:
206,318,45819,5,6,3:2:0:0:
99,353,46152,1,2,3:2:0:0:
33,261,46485,1,2,3:2:0:0:
99,170,46819,1,2,3:2:0:0:
206,205,47152,5,2,3:2:0:0:
99,170,47485,1,2,3:2:0:0:
33,261,47819,1,2,3:2:0:0:
99,353,48152,1,2,3:2:0:0:
206,318,48485,5,2,3:2:0:0:
94,366,48819,1,2,3:2:0:0:
18,260,49152,1,2,3:2:0:0:
94,156,49485,1,2,3:2:0:0:
217,196,49819,5,2,3:2:0:0:
94,156,50152,1,2,3:2:0:0:
18,260,50485,1,2,3:2:0:0:
94,366,50819,1,8,0:0:0:0:
482,148,51152,5,8,0:0:0:0:
275,81,51319,1,8,0:0:0:0:
403,258,51485,1,8,0:0:0:0:
402,42,51652,1,8,0:0:0:0:
275,216,51819,5,8,0:0:0:0:
482,148,51985,1,8,0:0:0:0:
275,81,52152,1,8,0:0:0:0:
403,258,52319,1,8,0:0:0:0:
402,42,52485,5,8,0:0:0:0:
387,25,52569,1,8,0:0:0:0:
367,14,52652,1,8,0:0:0:0:
345,9,52735,1,8,0:0:0:0:
323,12,52819,1,8,0:0:0:0:
303,22,52902,1,8,0:0:0:0:
287,38,52985,1,8,0:0:0:0:
277,58,53069,1,8,0:0:0:0:
275,81,53152,5,8,0:0:0:0:
264,112,53235,1,8,0:0:0:0:
243,138,53319,1,8,0:0:0:0:
213,153,53402,1,8,0:0:0:0:
180,156,53485,1,8,0:0:0:0:
148,145,53569,1,8,0:0:0:0:
122,123,53652,1,8,0:0:0:0:
108,93,53735,1,8,0:0:0:0:
105,60,53819,5,6,0:0:0:0:
163,318,55152,5,8,0:0:0:0:
348,318,55485,1,8,0:0:0:0:
405,143,55819,1,8,0:0:0:0:
256,35,56152,1,8,0:0:0:0:
106,143,56485,6,0,P|76:175|5:179,2,107.999996704102,2|2|2,0:0|0:0|0:0,0:0:0:0:
35,90,57319,1,2,0:0:0:0:
35,90,57652,2,0,P|65:58|136:54,1,107.999996704102,2|2,0:0|0:0,0:0:0:0:
200,129,58152,2,0,L|190:195,1,53.9999983520508,2|2,0:0|0:0,0:0:0:0:
119,246,58485,2,0,L|127:299,1,53.9999983520508,2|0,0:0|0:0,0:0:0:0:
223,349,58819,1,8,0:1:0:0:
58,93,59152,5,6,0:0:0:0:
292,130,59319,1,0,0:0:0:0:
98,283,59485,2,0,L|79:189,1,90,8|0,0:0|0:0,0:0:0:0:
248,56,59819,1,2,0:0:0:0:
201,281,59985,1,0,0:0:0:0:
58,93,60152,2,0,P|110:65|147:64,1,90,8|0,0:0|0:0,0:0:0:0:
356,90,60485,5,6,0:0:0:0:
132,167,60652,1,0,0:0:0:0:
396,215,60819,1,8,0:0:0:0:
221,69,60985,1,0,0:0:0:0:
464,10,61152,2,0,P|478:72|476:105,1,90,2|0,0:0|0:0,0:0:0:0:
300,284,61485,1,8,0:0:0:0:
356,90,61652,1,0,0:0:0:0:
475,316,61819,6,0,P|430:320|387:307,1,90,6|0,0:0|0:0,0:0:0:0:
254,95,62152,2,0,P|280:131|290:174,1,90,8|0,0:0|0:0,0:0:0:0:
174,384,62485,2,0,P|192:343|224:312,1,90,2|0,0:0|0:0,0:0:0:0:
437,227,62819,1,8,0:0:0:0:
201,173,62985,1,0,0:0:0:0:
310,375,63152,5,6,0:0:0:0:
372,104,63319,1,2,0:0:0:0:
372,104,63402,1,2,0:0:0:0:
372,104,63485,1,10,0:0:0:0:
107,186,63652,1,2,0:0:0:0:
310,375,63819,2,0,L|327:286,1,90,10|8,0:0|0:3,0:0:0:0:
388,212,64069,1,8,0:3:0:0:
388,212,64152,2,0,P|348:191|304:194,1,90,8|8,0:0|0:0,0:0:0:0:
87,313,64485,5,6,0:0:0:0:
326,286,64652,1,0,0:0:0:0:
107,186,64819,1,8,0:0:0:0:
348,291,64985,1,0,0:0:0:0:
206,92,65152,1,2,0:0:0:0:
233,339,65319,1,0,0:0:0:0:
334,106,65485,1,8,0:0:0:0:
231,363,65652,1,0,0:0:0:0:
436,191,65819,5,6,0:0:0:0:
206,92,65985,1,0,0:0:0:0:
385,312,66152,1,8,0:0:0:0:
457,43,66319,1,0,0:0:0:0:
254,231,66485,1,2,0:0:0:0:
475,123,66652,1,8,0:0:0:0:
475,123,66735,1,8,0:0:0:0:
475,123,66819,1,8,0:0:0:0:
385,312,66985,1,8,0:0:0:0:
206,92,67152,5,6,0:0:0:0:
362,176,67319,1,2,0:0:0:0:
170,266,67485,2,0,P|123:282|77:282,1,90,10|0,0:0|0:0,0:0:0:0:
303,101,67819,1,2,0:0:0:0:
299,308,67985,1,2,0:0:0:0:
110,162,68152,2,0,P|94:115|94:69,1,90,10|0,0:0|0:0,0:0:0:0:
303,101,68485,5,14,0:0:0:0:
83,282,68652,1,8,0:0:0:0:
362,176,68819,1,8,0:0:0:0:
93,75,68985,1,8,0:0:0:0:
340,348,69152,2,0,L|353:241,1,90,8|0,0:0|0:0,0:0:0:0:
362,176,69402,1,8,0:0:0:0:
362,176,69485,1,8,0:3:0:0:
479,325,69652,1,8,0:3:0:0:
479,325,69735,1,8,0:3:0:0:
479,325,69819,5,6,0:0:0:0:
275,211,69985,1,0,0:0:0:0:
462,76,70152,2,0,P|481:125|476:182,1,90,8|0,0:0|0:0,0:0:0:0:
273,84,70485,1,2,0:0:0:0:
443,239,70652,1,0,0:0:0:0:
204,313,70819,2,0,P|185:264|190:207,1,90,8|0,0:0|0:0,0:0:0:0:
361,91,71152,5,6,0:0:0:0:
135,73,71319,1,0,0:0:0:0:
385,167,71485,5,8,0:0:0:0:
192,14,71652,1,0,0:0:0:0:
346,240,71819,5,2,0:0:0:0:
278,10,71985,1,0,0:0:0:0:
198,237,72152,5,8,0:0:0:0:
396,101,72319,1,0,0:0:0:0:
156,94,72485,6,0,P|111:99|72:121,1,90,6|0,0:0|0:0,0:0:0:0:
245,268,72819,2,0,P|262:226|263:182,1,90,8|0,0:0|0:0,0:0:0:0:
47,261,73152,2,0,P|73:296|112:319,1,90,2|0,0:0|0:0,0:0:0:0:
344,252,73485,1,8,0:0:0:0:
145,206,73652,1,0,0:0:0:0:
368,105,73819,6,0,P|416:116|472:189,1,135,6|0,0:0|0:0,0:0:0:0:
471,223,74152,2,0,L|457:323,1,90,8|0,0:0|0:0,0:0:0:0:
248,230,74485,2,0,L|235:140,1,90,2|0,0:0|0:0,0:0:0:0:
361,224,74819,1,8,0:0:0:0:
361,224,74985,1,8,0:0:0:0:
156,341,75152,5,6,0:0:0:0:
93,146,75319,1,2,0:0:0:0:
156,341,75485,2,0,P|210:347|257:320,1,90,10|0,0:0|0:0,0:0:0:0:
46,272,75819,5,2,0:0:0:0:
258,208,75985,1,2,0:0:0:0:
46,272,76152,2,0,P|40:326|67:373,1,90,10|0,0:0|0:0,0:0:0:0:
258,208,76485,5,14,0:0:0:0:
16,188,76652,1,8,0:0:0:0:
297,279,76819,1,8,0:0:0:0:
93,146,76985,1,8,0:0:0:0:
338,50,77152,1,8,0:0:0:0:
152,303,77319,1,8,0:0:0:0:
152,303,77402,1,8,0:0:0:0:
152,303,77485,2,0,L|166:198,1,90,8|8,0:3|0:0,0:0:0:0:
425,131,77819,5,14,0:0:0:0:
458,160,77902,1,8,0:0:0:0:
476,201,77985,1,8,0:0:0:0:
474,246,78069,1,8,0:0:0:0:
453,285,78152,1,8,0:0:0:0:
416,311,78235,1,8,0:0:0:0:
373,319,78319,1,8,0:0:0:0:
330,307,78402,1,8,0:0:0:0:
296,278,78485,6,0,L|292:238,6,22.5,10|8|8|8|8|8|8,0:0|0:0|0:0|0:0|0:0|0:0|0:0,0:0:0:0:
226,201,78819,2,0,L|230:161,6,22.5,8|8|8|8|8|8|8,0:0|0:0|0:0|0:0|0:0|0:0|0:0,0:0:0:0:
302,123,79152,6,0,P|304:100|300:78,1,45,2|2,0:0|0:0,0:0:0:0:
198,39,79485,2,0,P|195:61|199:83,1,45,2|2,0:0|0:0,0:0:0:0:
228,178,79819,1,2,0:0:0:0:
469,101,80152,1,8,0:1:0:0:
35,41,80485,6,0,P|134:54|141:57,1,90,6|0,0:0|0:0,0:0:0:0:
295,110,80819,1,8,0:0:0:0:
61,209,80985,1,2,0:0:0:0:
61,209,81069,1,2,0:0:0:0:
61,209,81152,2,0,P|64:140|76:107,1,90,2|0,0:0|0:0,0:0:0:0:
235,24,81485,1,8,0:0:0:0:
186,264,81652,1,0,0:0:0:0:
399,123,81819,6,0,P|337:109|301:105,1,90,6|0,0:0|0:0,0:0:0:0:
141,171,82152,1,8,0:0:0:0:
351,271,82319,1,0,0:0:0:0:
117,342,82485,2,0,B|115:293|115:293|125:253,1,90,2|0,0:0|0:0,0:0:0:0:
311,105,82819,1,8,0:0:0:0:
240,325,82985,1,0,0:0:0:0:
155,78,83152,6,0,P|97:82|42:99,1,90,6|0,0:0|0:0,0:0:0:0:
137,262,83485,1,8,0:0:0:0:
311,105,83652,1,2,0:0:0:0:
311,105,83735,1,2,0:0:0:0:
311,105,83819,2,0,P|324:47|316:10,1,90,2|0,0:0|0:0,0:0:0:0:
179,172,84152,1,8,0:0:0:0:
378,220,84319,1,0,0:0:0:0:
202,51,84485,5,14,0:0:0:0:
245,297,84652,1,0,0:0:0:0:
437,136,84819,1,8,0:0:0:0:
202,51,84985,1,0,0:0:0:0:
393,269,85152,5,8,0:0:0:0:
350,23,85319,1,10,0:0:0:0:
350,23,85402,1,10,0:0:0:0:
350,23,85485,1,10,0:0:0:0:
158,184,85652,1,2,0:0:0:0:
393,269,85819,6,0,L|377:157,1,90,6|0,0:0|0:0,0:0:0:0:
350,23,86152,1,8,0:0:0:0:
259,247,86319,1,2,0:0:0:0:
259,247,86402,1,2,0:0:0:0:
259,247,86485,2,0,P|197:270|166:268,1,90,2|0,0:0|0:0,0:0:0:0:
22,180,86819,1,8,0:0:0:0:
247,104,86985,1,0,0:0:0:0:
92,322,87152,6,0,P|77:259|89:222,1,90,4|0,0:0|0:0,0:0:0:0:
118,56,87485,1,8,0:0:0:0:
175,269,87652,1,0,0:0:0:0:
364,110,87819,2,0,P|304:86|267:80,1,90,2|0,0:0|0:0,0:0:0:0:
100,144,88152,1,8,0:0:0:0:
310,254,88319,1,0,0:0:0:0:
196,18,88485,6,0,P|177:89|183:191,1,161.999995056153,6|8,0:0|0:0,0:0:0:0:
316,18,88985,2,0,P|335:89|329:191,1,161.999995056153,2|2,0:0|0:0,0:0:0:0:
256,278,89485,1,8,0:0:0:0:
256,109,89652,1,6,0:0:0:0:
256,109,89985,5,10,0:0:0:0:
375,334,90152,1,10,0:0:0:0:
94,206,90319,1,10,0:0:0:0:
379,96,90485,2,0,P|429:104|500:132,1,121.499996292114,10|8,0:0|0:0,0:0:0:0:
425,201,90819,2,0,P|346:229|320:231,1,80.9999975280763,8|8,0:0|0:0,0:0:0:0:
307,224,91069,1,8,0:0:0:0:
263,211,91152,5,10,0:0:0:0:
96,64,99152,5,2,0:0:0:0:
448,128,100485,1,2,0:0:0:0:
448,128,101485,2,0,L|406:136,3,22.5,0|0|0|0,3:0|3:0|3:0|3:0,0:0:0:0:
319,155,101819,5,2,0:0:0:0:
64,352,103152,1,2,0:0:0:0:
64,352,104152,2,0,L|69:311,3,22.5,0|0|0|0,3:0|3:0|3:0|3:0,0:0:0:0:
82,235,104485,5,2,0:0:0:0:
448,352,105819,1,2,0:0:0:0:
452,363,106485,2,0,P|457:302|441:266,1,90,4|8,0:0|0:0,0:0:0:0:
337,171,107152,5,6,0:0:0:0:
296,255,107485,1,8,0:0:0:0:
364,322,107819,1,8,0:0:0:0:
447,276,108152,1,8,0:0:0:0:
431,184,108485,1,8,0:0:0:0:
337,171,108819,1,8,0:0:0:0:
296,255,109152,1,8,0:0:0:0:
364,322,109485,1,8,0:0:0:0:
447,276,109819,5,8,0:0:0:0:
431,184,110152,1,8,0:0:0:0:
415,92,110485,1,8,0:0:0:0:
399,0,110819,1,8,0:0:0:0:
307,16,111152,1,8,0:0:0:0:
215,32,111485,1,8,0:0:0:0:
123,48,111819,1,8,0:0:0:0:
288,158,112152,1,8,3:2:0:0:
447,276,112485,6,0,P|417:293|381:294,1,62.9999980773926,10|2,3:2|0:0,0:0:0:0:
355,375,112819,2,0,P|325:357|306:326,1,62.9999980773926,10|2,0:0|0:0,0:0:0:0:
223,344,113152,2,0,P|223:309|240:277,1,62.9999980773926,10|2,0:0|0:0,0:0:0:0:
183,214,113485,2,0,P|213:196|249:196,1,62.9999980773926,10|2,0:0|0:0,0:0:0:0:
240,194,113819,6,0,P|209:197|183:214,1,62.9999980773926,10|2,0:0|0:0,0:0:0:0:
235,284,114152,2,0,P|222:312|223:344,1,62.9999980773926,10|2,0:0|0:0,0:0:0:0:
309,334,114485,2,0,P|327:359|355:375,1,62.9999980773926,10|2,0:0|0:0,0:0:0:0:
389,295,114819,2,0,P|420:292|447:276,1,62.9999980773926,10|2,0:0|0:0,0:0:0:0:
446,146,115152,6,0,L|433:76,1,62.9999980773926,10|2,0:0|0:0,0:0:0:0:
358,36,115485,2,0,L|346:97,1,62.9999980773926,10|2,0:0|0:0,0:0:0:0:
270,146,115819,2,0,L|258:84,1,62.9999980773926,10|2,0:0|0:0,0:0:0:0:
182,36,116152,2,0,L|170:97,1,62.9999980773926,10|2,0:0|0:0,0:0:0:0:
139,283,116485,5,2,0:0:0:0:
137,290,116569,1,2,0:0:0:0:
135,298,116652,1,2,0:0:0:0:
133,306,116735,1,2,0:0:0:0:
132,313,116819,1,2,0:0:0:0:
130,320,116902,1,2,0:0:0:0:
128,328,116985,1,2,0:0:0:0:
126,336,117069,1,2,0:0:0:0:
124,342,117152,5,2,0:0:0:0:
149,363,117235,1,2,0:0:0:0:
178,373,117319,1,2,0:0:0:0:
209,371,117402,1,2,0:0:0:0:
238,358,117485,1,2,0:0:0:0:
263,337,117569,1,2,0:0:0:0:
292,327,117652,1,2,0:0:0:0:
323,329,117735,1,2,0:0:0:0:
352,342,117819,5,14,0:0:0:0:
459,277,118152,1,10,0:0:0:0:
431,154,118485,1,8,0:0:0:0:
306,143,118819,1,8,0:0:0:0:
256,259,119152,5,10,0:0:0:0:
306,143,119485,1,10,0:0:0:0:
431,154,119819,1,10,0:0:0:0:
459,277,120152,1,10,0:0:0:0:
352,342,120485,5,10,0:0:0:0:
459,277,120819,1,10,0:0:0:0:
431,154,121152,1,10,0:0:0:0:
306,143,121485,1,10,0:0:0:0:
256,259,121819,5,10,0:0:0:0:
306,143,122152,1,10,0:0:0:0:
431,154,122485,1,10,0:0:0:0:
459,277,122819,1,8,0:0:0:0:
53,241,123152,5,2,0:0:0:0:
228,136,123319,1,2,0:0:0:0:
149,324,123485,1,2,0:0:0:0:
103,125,123652,1,2,0:0:0:0:
256,259,123819,5,2,0:0:0:0:
53,241,123985,1,2,0:0:0:0:
228,136,124152,1,2,0:0:0:0:
149,324,124319,1,2,0:0:0:0:
103,125,124485,5,2,0:0:0:0:
106,101,124569,1,2,0:0:0:0:
110,78,124652,1,2,0:0:0:0:
114,55,124735,1,2,0:0:0:0:
117,31,124819,1,2,0:0:0:0:
145,16,124902,1,2,0:0:0:0:
176,13,124985,1,2,0:0:0:0:
206,23,125069,1,2,0:0:0:0:
229,44,125152,5,2,0:0:0:0:
252,65,125235,1,2,0:0:0:0:
282,75,125319,1,2,0:0:0:0:
313,72,125402,1,2,0:0:0:0:
341,58,125485,2,0,L|366:52,6,15.7499995193482,2|2|2|2|2|2|2,0:0|0:0|0:0|0:0|0:0|0:0|0:0,0:0:0:0:
435,34,125819,5,6,0:0:0:0:
488,184,127152,5,4,0:0:0:0:
31,233,127485,1,4,0:0:0:0:
488,184,127819,1,4,0:0:0:0:
31,233,128485,6,0,B|139:221|139:221|135:217|135:217|236:206,1,215.999993408203,4|0,0:0|0:0,0:0:0:0:
441,165,128985,1,8,0:0:0:0:
441,165,129069,2,0,P|448:194|444:218,1,45,8|8,0:0|0:3,0:0:0:0:
341,196,129235,1,8,0:0:0:0:
341,196,129319,2,0,P|336:130|366:79,1,90,0|2,0:0|0:3,0:0:0:0:
480,150,129569,2,0,P|490:184|485:216,1,67.5000025749208,8|0,0:0|0:0,0:0:0:0:
405,323,129819,6,0,L|375:319,10,22.5,12|0|0|0|0|0|0|0|0|0|0,0:0|0:0|0:0|0:0|0:0|0:0|0:0|0:0|0:0|0:0|0:0,0:0:0:0:
343,294,130319,1,8,0:0:0:0:
299,303,130402,1,8,0:0:0:0:
255,312,130485,2,0,B|222:320|203:317|178:299|178:299|191:321|216:336|248:335,1,135,8|0,0:3|0:0,0:0:0:0:
230,223,130819,6,0,P|221:191|204:162,1,67.5000025749208,2|0,0:0|0:0,0:0:0:0:
257,203,130985,2,0,P|247:170|230:141,1,67.5000025749208,2|0,0:0|0:0,0:0:0:0:
104,18,131152,6,0,B|93:119|93:119|89:115|89:115|77:223,1,215.999993408203,12|0,0:0|0:0,0:0:0:0:
190,68,131652,1,8,0:0:0:0:
190,68,131735,2,0,L|252:55,1,45,8|8,0:0|0:3,0:0:0:0:
391,28,131902,1,8,0:0:0:0:
391,28,131985,2,0,L|287:10,1,90,0|2,0:0|0:3,0:0:0:0:
233,157,132235,2,0,L|311:139,1,67.5000025749208,8|0,0:0|0:0,0:0:0:0:
457,103,132485,6,0,L|465:63,10,22.5,12|0|0|0|0|0|0|0|0|0|0,0:0|0:0|0:0|0:0|0:0|0:0|0:0|0:0|0:0|0:0|0:0,0:0:0:0:
464,147,132985,1,8,0:0:0:0:
471,191,133069,1,8,0:0:0:0:
478,235,133152,1,8,0:3:0:0:
281,316,133319,6,0,P|248:308|214:304,1,67.5000025749208,2|0,0:0|0:0,0:0:0:0:
322,212,133485,2,0,P|354:204|388:200,1,67.5000025749208,2|0,0:0|0:0,0:0:0:0:
262,346,133652,2,0,P|229:338|195:334,1,67.5000025749208,2|0,0:0|0:0,0:0:0:0:
346,239,133819,6,0,B|386:222|419:219|456:242|456:242|458:234|458:234|450:235|450:235|466:269|465:303|419:340,1,215.999993408203,12|0,0:0|0:0,0:0:0:0:
248,363,134319,1,8,0:0:0:0:
218,312,134402,1,8,0:0:0:0:
251,261,134485,1,8,0:3:0:0:
214,216,134569,1,8,0:0:0:0:
227,159,134652,6,0,P|208:103|156:132,1,135.000005149842,0|2,0:0|0:3,0:0:0:0:
56,207,134902,2,0,P|75:263|127:234,1,135.000005149842,8|8,0:0|0:3,0:0:0:0:
50,59,135152,6,0,P|42:67|39:78,10,22.5,4|0|0|0|0|0|0|0|0|0|0,0:0|0:0|0:0|0:0|0:0|0:0|0:0|0:0|0:0|0:0|0:0,0:0:0:0:
69,124,135652,1,8,0:0:0:0:
113,116,135735,1,8,0:0:0:0:
157,108,135819,2,0,L|192:102,6,22.5,8|0|0|0|0|0|8,0:3|0:0|0:0|0:0|0:0|0:0|0:0,0:0:0:0:
260,61,136152,6,0,L|264:34,1,22.5,2|0,0:0|0:0,0:0:0:0:
304,67,136235,6,0,L|308:40,1,22.5,2|0,0:0|0:0,0:0:0:0:
349,73,136319,6,0,L|353:46,1,22.5,2|0,0:0|0:0,0:0:0:0:
393,79,136402,6,0,L|397:52,1,22.5,2|0,0:0|0:0,0:0:0:0:
438,85,136485,6,0,P|460:143|412:106,1,161.999995056153,4|0,0:0|0:0,0:0:0:0:
482,221,136819,2,0,P|416:228|361:191,1,135.000005149842,2|8,0:3|0:0,0:0:0:0:
437,149,137152,1,8,0:0:0:0:
484,337,137319,1,8,0:3:0:0:
298,284,137485,1,2,0:3:0:0:
411,246,137652,1,8,0:0:0:0:
319,166,137819,5,12,0:0:0:0:
64,63,139152,6,0,P|32:192|158:149,1,323.999990112305,6|0,0:0|0:0,0:0:0:0:
251,51,139819,5,2,0:0:0:0:
255,50,139902,1,2,0:0:0:0:
259,50,139985,1,2,0:0:0:0:
264,49,140069,1,2,0:0:0:0:
268,49,140152,1,2,0:0:0:0:
273,48,140235,1,2,0:0:0:0:
277,48,140319,1,2,0:0:0:0:
282,47,140402,1,2,0:0:0:0:
286,47,140485,1,2,0:0:0:0:
291,47,140569,1,2,0:0:0:0:
295,46,140652,1,2,0:0:0:0:
300,46,140735,1,2,0:0:0:0:
304,45,140819,1,2,0:0:0:0:
309,45,140902,1,2,0:0:0:0:
313,44,140985,1,2,0:0:0:0:
318,44,141069,1,2,0:0:0:0:
322,44,141152,1,8,0:0:0:0:
473,73,141319,6,0,P|504:131|493:196,1,135,8|0,0:0|0:0,0:0:0:0:
413,172,141652,2,0,P|405:151|408:129,1,45,8|0,0:0|0:0,0:0:0:0:
426,261,141819,6,0,B|366:246|366:246|315:264|315:264|266:209|266:209|243:281|243:281|186:298,1,323.999990112305,6|0,0:0|0:0,0:0:0:0:
57,349,142485,5,2,3:2:0:0:
56,345,142569,1,2,3:2:0:0:
56,341,142652,1,2,3:2:0:0:
55,336,142735,1,2,3:2:0:0:
55,332,142819,1,2,3:2:0:0:
54,327,142902,1,2,3:2:0:0:
54,323,142985,1,2,3:2:0:0:
53,318,143069,1,2,3:2:0:0:
53,314,143152,1,2,3:2:0:0:
53,309,143235,1,2,3:2:0:0:
52,305,143319,1,2,3:2:0:0:
52,300,143402,1,2,3:2:0:0:
51,296,143485,1,2,3:2:0:0:
51,291,143569,1,2,3:2:0:0:
50,287,143652,1,2,3:2:0:0:
50,282,143735,1,2,3:2:0:0:
50,278,143819,1,8,3:2:0:0:
151,70,143985,6,0,P|110:51|65:51,1,90,2|0,0:0|0:0,0:0:0:0:
122,205,144152,2,0,P|126:249|149:287,1,90,2|0,0:0|0:0,0:0:0:0:
254,162,144319,2,0,P|290:136|312:97,1,90,2|0,0:0|0:0,0:0:0:0:
151,70,144485,6,0,P|114:52|2:128,1,180,6|8,0:0|0:0,0:0:0:0:
129,300,144985,1,8,0:0:0:0:
254,162,145152,2,0,P|195:143|146:153,1,90,8|0,0:3|0:0,0:0:0:0:
221,266,145402,1,0,0:0:0:0:
221,266,145485,2,0,P|241:274|263:279,1,45,2|0,0:3|0:0,0:0:0:0:
376,231,145652,2,0,L|364:140,1,67.5000025749208,2|0,0:0|0:0,0:0:0:0:
453,110,145819,6,0,L|468:204,1,67.5000025749208,10|0,0:0|0:0,0:0:0:0:
452,322,146152,2,0,P|395:357|331:344,1,135.000005149842,2|8,0:0|0:0,0:0:0:0:
246,185,146485,6,0,P|302:150|366:163,1,135.000005149842,10|0,0:0|0:0,0:0:0:0:
137,366,146819,2,0,B|122:342|141:319|124:290,1,67.5,2|0,0:0|0:0,0:0:0:0:
98,218,147152,5,12,0:0:0:0:
321,260,147319,1,8,0:3:0:0:
180,150,147485,1,8,0:0:0:0:
401,106,147652,1,8,0:0:0:0:
221,242,147819,1,8,0:3:0:0:
67,22,147985,2,0,P|50:74|47:127,1,90,8|0,0:0|0:0,0:0:0:0:
128,299,148319,1,8,0:3:0:0:
290,127,148485,5,0,0:0:0:0:
246,367,148652,1,8,0:3:0:0:
57,213,148819,1,8,0:3:0:0:
290,127,148985,5,8,0:3:0:0:
343,136,149069,1,8,0:3:0:0:
396,145,149152,1,8,0:3:0:0:
202,235,149319,1,8,0:0:0:0:
214,19,149485,1,8,0:0:0:0:
214,19,149569,1,8,0:0:0:0:
214,19,149652,1,8,0:0:0:0:
396,145,149819,5,6,3:2:0:0:
462,236,150152,1,2,3:2:0:0:
396,328,150485,1,2,3:2:0:0:
289,293,150819,1,2,3:2:0:0:
289,180,151152,5,2,3:2:0:0:
289,293,151485,1,2,3:2:0:0:
396,328,151819,1,2,3:2:0:0:
462,236,152152,1,2,3:2:0:0:
396,145,152485,5,2,3:2:0:0:
481,235,152819,1,2,3:2:0:0:
401,346,153152,1,2,3:2:0:0:
273,304,153485,1,2,3:2:0:0:
273,168,153819,5,2,3:2:0:0:
273,304,154152,1,2,3:2:0:0:
401,346,154485,1,2,3:2:0:0:
481,235,154819,1,8,0:0:0:0:
30,148,155152,5,8,0:0:0:0:
237,81,155319,1,8,0:0:0:0:
109,258,155485,1,8,0:0:0:0:
110,41,155652,1,8,0:0:0:0:
237,216,155819,5,8,0:0:0:0:
30,148,155985,1,8,0:0:0:0:
237,81,156152,1,8,0:0:0:0:
109,258,156319,1,8,0:0:0:0:
110,41,156485,5,8,0:0:0:0:
121,39,156569,1,8,0:0:0:0:
132,38,156652,1,8,0:0:0:0:
143,37,156735,1,8,0:0:0:0:
154,36,156819,1,8,0:0:0:0:
165,34,156902,1,8,0:0:0:0:
177,33,156985,1,8,0:0:0:0:
188,32,157069,1,8,0:0:0:0:
199,31,157152,5,8,0:0:0:0:
221,33,157235,1,8,0:0:0:0:
243,35,157319,1,8,0:0:0:0:
266,38,157402,1,8,0:0:0:0:
288,40,157485,1,8,0:0:0:0:
310,42,157569,1,8,0:0:0:0:
333,45,157652,1,8,0:0:0:0:
355,47,157735,1,8,0:0:0:0:
377,49,157819,6,0,B|420:80|433:138|437:182|401:227|362:230|333:204|319:180|323:139,1,270,6|0,0:0|0:0,0:0:0:0:
323,159,159152,5,8,0:0:0:0:
289,259,159485,1,8,0:0:0:0:
223,125,159819,1,8,0:0:0:0:
189,225,159985,5,8,0:3:0:0:
185,235,160069,1,8,0:3:0:0:
181,246,160152,1,8,0:3:0:0:
178,256,160235,1,8,0:3:0:0:
174,267,160319,2,0,L|164:296,1,22.5,8|8,0:3|0:3,0:0:0:0:
258,353,160485,5,6,3:2:0:0:
262,352,160569,1,2,0:0:0:0:
266,351,160652,1,2,0:0:0:0:
271,351,160735,1,2,0:0:0:0:
275,350,160819,1,10,0:0:0:0:
280,350,160902,1,2,0:0:0:0:
284,349,160985,1,2,0:0:0:0:
289,348,161069,1,2,0:0:0:0:
293,348,161152,1,2,3:2:0:0:
298,347,161235,1,2,0:0:0:0:
302,347,161319,1,2,0:0:0:0:
307,346,161402,1,2,0:0:0:0:
311,346,161485,1,10,0:0:0:0:
316,345,161569,1,2,0:0:0:0:
320,344,161652,1,2,0:0:0:0:
324,344,161735,1,2,0:0:0:0:
329,343,161819,1,2,3:2:0:0:
333,343,161902,1,2,0:0:0:0:
338,342,161985,1,2,0:0:0:0:
342,342,162069,1,2,0:0:0:0:
347,341,162152,1,10,0:0:0:0:
351,340,162235,1,2,0:0:0:0:
356,340,162319,1,2,0:0:0:0:
360,339,162402,1,2,0:0:0:0:
365,339,162485,1,2,3:2:0:0:
369,338,162569,1,2,0:0:0:0:
374,337,162652,1,2,0:0:0:0:
378,337,162735,1,2,0:0:0:0:
382,336,162819,1,10,0:0:0:0:
387,336,162902,1,2,0:0:0:0:
391,335,162985,1,2,0:0:0:0:
396,335,163069,1,2,0:0:0:0:
400,334,163152,1,2,3:2:0:0:
405,333,163235,1,2,0:0:0:0:
409,333,163319,1,2,0:0:0:0:
414,332,163402,1,2,0:0:0:0:
418,332,163485,1,10,0:0:0:0:
423,331,163569,1,2,0:0:0:0:
427,331,163652,1,2,0:0:0:0:
432,330,163735,1,2,0:0:0:0:
436,329,163819,1,2,3:2:0:0:
440,329,163902,1,2,0:0:0:0:
445,328,163985,1,2,0:0:0:0:
449,328,164069,1,2,0:0:0:0:
454,327,164152,1,10,0:0:0:0:
458,327,164235,1,2,0:0:0:0:
463,326,164319,1,2,0:0:0:0:
467,325,164402,1,2,0:0:0:0:
471,324,164485,5,10,0:0:0:0:
496,288,164569,1,2,0:0:0:0:
499,243,164652,1,2,0:0:0:0:
480,203,164735,1,2,0:0:0:0:
439,177,164819,5,10,0:0:0:0:
409,136,164902,1,2,0:0:0:0:
404,87,164985,1,2,0:0:0:0:
435,48,165069,1,2,0:0:0:0:
484,25,165152,5,10,0:0:0:0:
472,81,165235,1,2,0:0:0:0:
433,124,165319,1,2,0:0:0:0:
378,141,165402,1,2,0:0:0:0:
318,124,165485,5,10,0:0:0:0:
264,92,165569,1,2,0:0:0:0:
202,94,165652,1,2,0:0:0:0:
151,130,165735,1,2,0:0:0:0:
128,187,165819,5,2,3:2:0:0:
128,191,165902,1,2,0:0:0:0:
128,195,165985,1,2,0:0:0:0:
129,200,166069,1,2,0:0:0:0:
145,215,166152,5,10,0:0:0:0:
145,219,166235,1,2,0:0:0:0:
145,223,166319,1,2,0:0:0:0:
146,228,166402,1,2,0:0:0:0:
130,243,166485,5,2,3:2:0:0:
130,251,166569,1,2,0:0:0:0:
131,260,166652,1,2,0:0:0:0:
132,269,166735,1,2,0:0:0:0:
148,284,166819,5,10,0:0:0:0:
148,292,166902,1,2,0:0:0:0:
149,301,166985,1,2,0:0:0:0:
150,310,167069,1,2,0:0:0:0:
166,325,167152,5,2,3:2:0:0:
179,323,167235,1,2,0:0:0:0:
192,322,167319,1,2,0:0:0:0:
206,320,167402,1,2,0:0:0:0:
248,335,167485,5,10,0:0:0:0:
265,333,167569,1,2,0:0:0:0:
283,331,167652,1,2,0:0:0:0:
301,329,167735,1,2,0:0:0:0:
335,299,167819,5,2,3:2:0:0:
357,296,167902,1,2,0:0:0:0:
379,294,167985,1,2,0:0:0:0:
402,291,168069,1,2,0:0:0:0:
440,314,168152,5,10,0:0:0:0:
464,277,168235,1,10,0:0:0:0:
467,232,168319,1,10,0:0:0:0:
446,193,168402,1,10,0:0:0:0:
408,170,168485,5,4,0:0:0:0:
289,128,168652,1,2,0:0:0:0:
289,128,168819,2,0,P|281:153|281:180,1,53.9999983520508,2|2,0:0|0:0,0:0:0:0:
369,85,169152,2,0,P|369:58|361:32,1,53.9999983520508,2|0,0:0|0:0,0:0:0:0:
260,19,169485,2,0,L|200:29,1,53.9999983520508,2|0,0:0|0:0,0:0:0:0:
99,101,169819,6,0,L|225:120,1,107.999996704102,2|2,0:0|0:0,0:0:0:0:
205,117,170319,1,2,0:0:0:0:
111,266,170485,2,0,L|104:204,1,53.9999983520508,2|2,0:0|0:0,0:0:0:0:
254,353,170819,1,6,0:0:0:0:
254,353,171152,5,6,3:2:0:0:
250,352,171235,1,2,0:0:0:0:
246,351,171319,1,2,0:0:0:0:
241,351,171402,1,2,0:0:0:0:
237,350,171485,1,10,0:0:0:0:
232,350,171569,1,2,0:0:0:0:
228,349,171652,1,2,0:0:0:0:
223,348,171735,1,2,0:0:0:0:
219,348,171819,1,2,3:2:0:0:
214,347,171902,1,2,0:0:0:0:
210,347,171985,1,2,0:0:0:0:
205,346,172069,1,2,0:0:0:0:
201,346,172152,1,10,0:0:0:0:
196,345,172235,1,2,0:0:0:0:
192,344,172319,1,2,0:0:0:0:
188,344,172402,1,2,0:0:0:0:
183,343,172485,1,2,3:2:0:0:
179,343,172569,1,2,0:0:0:0:
174,342,172652,1,2,0:0:0:0:
170,342,172735,1,2,0:0:0:0:
165,341,172819,1,10,0:0:0:0:
161,340,172902,1,2,0:0:0:0:
156,340,172985,1,2,0:0:0:0:
152,339,173069,1,2,0:0:0:0:
147,339,173152,1,2,3:2:0:0:
143,338,173235,1,2,0:0:0:0:
138,337,173319,1,2,0:0:0:0:
134,337,173402,1,2,0:0:0:0:
130,336,173485,1,10,0:0:0:0:
125,336,173569,1,2,0:0:0:0:
121,335,173652,1,2,0:0:0:0:
116,335,173735,1,2,0:0:0:0:
112,334,173819,1,2,3:2:0:0:
107,333,173902,1,2,0:0:0:0:
103,333,173985,1,2,0:0:0:0:
98,332,174069,1,2,0:0:0:0:
94,332,174152,1,10,0:0:0:0:
89,331,174235,1,2,0:0:0:0:
85,331,174319,1,2,0:0:0:0:
80,330,174402,1,2,0:0:0:0:
76,329,174485,1,2,3:2:0:0:
72,329,174569,1,2,0:0:0:0:
67,328,174652,1,2,0:0:0:0:
63,328,174735,1,2,0:0:0:0:
58,327,174819,1,10,0:0:0:0:
54,327,174902,1,2,0:0:0:0:
49,326,174985,1,2,0:0:0:0:
45,325,175069,1,2,0:0:0:0:
41,324,175152,5,10,0:0:0:0:
16,288,175235,1,2,0:0:0:0:
13,243,175319,1,2,0:0:0:0:
32,203,175402,1,2,0:0:0:0:
73,177,175485,5,10,0:0:0:0:
103,136,175569,1,2,0:0:0:0:
108,87,175652,1,2,0:0:0:0:
77,48,175735,1,2,0:0:0:0:
28,25,175819,5,10,0:0:0:0:
40,81,175902,1,2,0:0:0:0:
79,124,175985,1,2,0:0:0:0:
134,141,176069,1,2,0:0:0:0:
194,124,176152,5,10,0:0:0:0:
248,92,176235,1,2,0:0:0:0:
310,94,176319,1,2,0:0:0:0:
361,130,176402,1,2,0:0:0:0:
384,187,176485,5,2,3:2:0:0:
384,191,176569,1,2,0:0:0:0:
384,195,176652,1,2,0:0:0:0:
383,200,176735,1,2,0:0:0:0:
367,215,176819,5,10,0:0:0:0:
367,219,176902,1,2,0:0:0:0:
367,223,176985,1,2,0:0:0:0:
366,228,177069,1,2,0:0:0:0:
382,243,177152,5,2,3:2:0:0:
382,251,177235,1,2,0:0:0:0:
381,260,177319,1,2,0:0:0:0:
380,269,177402,1,2,0:0:0:0:
364,284,177485,5,10,0:0:0:0:
364,292,177569,1,2,0:0:0:0:
363,301,177652,1,2,0:0:0:0:
362,310,177735,1,2,0:0:0:0:
346,325,177819,5,2,3:2:0:0:
333,323,177902,1,2,0:0:0:0:
320,322,177985,1,2,0:0:0:0:
306,320,178069,1,2,0:0:0:0:
264,335,178152,5,10,0:0:0:0:
247,333,178235,1,2,0:0:0:0:
229,331,178319,1,2,0:0:0:0:
211,329,178402,1,2,0:0:0:0:
177,299,178485,5,2,3:2:0:0:
155,296,178569,1,2,0:0:0:0:
133,294,178652,1,2,0:0:0:0:
110,291,178735,1,2,0:0:0:0:
72,314,178819,5,10,0:0:0:0:
48,277,178902,1,2,0:0:0:0:
45,232,178985,1,2,0:0:0:0:
66,193,179069,1,2,0:0:0:0:
112,173,179152,5,2,3:2:0:0:
125,126,179235,1,2,0:0:0:0:
114,77,179319,1,10,0:0:0:0:
80,42,179402,1,2,0:0:0:0:
28,54,179485,5,10,0:0:0:0:
42,109,179569,1,2,0:0:0:0:
86,146,179652,1,10,0:0:0:0:
144,151,179735,1,2,0:0:0:0:
200,121,179819,5,10,0:0:0:0:
239,73,179902,1,2,0:0:0:0:
299,59,179985,1,10,0:0:0:0:
355,85,180069,1,2,0:0:0:0:
387,144,180152,5,10,0:0:0:0:
385,211,180235,1,2,0:0:0:0:
342,264,180319,1,10,0:0:0:0:
276,278,180402,1,2,0:0:0:0:
209,249,180485,6,0,P|202:227|203:203,2,48,10|2|2,0:0|0:0|0:0,0:0:0:0:
121,166,180652,2,0,P|105:184|84:194,2,48,10|2|2,0:0|0:0|0:0,0:0:0:0:
95,282,180819,2,0,P|118:287|139:300,2,48,10|2|2,0:0|0:0|0:0,0:0:0:0:
213,337,180985,2,0,P|233:350|256:355,2,48,10|2|2,0:0|0:0|0:0,0:0:0:0:
343,332,181152,6,0,L|348:278,2,51.0000009727478,10|2|2,0:0|0:0|0:0,0:0:0:0:
431,260,181319,2,0,L|425:205,2,51.0000009727478,10|2|2,0:0|0:0|0:0,0:0:0:0:
343,188,181485,2,0,L|349:132,2,51.0000009727478,10|2|2,0:0|0:0|0:0,0:0:0:0:
431,116,181652,2,0,L|426:64,2,51.0000009727478,10|2|2,0:0|0:0|0:0,0:0:0:0:
341,44,181819,6,0,B|298:0|232:8|208:48|211:94|225:131|225:131|197:103|151:82|95:98|76:151|83:204|83:204|126:316|186:214|287:254|323:343,1,720,6|4,0:0|0:0,0:0:0:0:
256,192,184569,12,2,187152,0:0:0:0:
51,325,189819,6,0,P|98:302|171:297,1,107.999996704102,2|2,0:0|0:0,0:0:0:0:
239,321,190319,1,2,0:0:0:0:
239,321,190485,2,0,P|282:333|304:333,2,53.9999983520508,2|2|0,0:0|0:0|0:0,0:0:0:0:
222,228,190985,1,2,0:0:0:0:
307,185,191152,6,0,L|368:193,1,53.9999983520508,2|2,0:0|0:0,0:0:0:0:
224,131,191485,2,0,L|170:123,1,53.9999983520508,2|2,0:0|0:0,0:0:0:0:
307,77,191819,2,0,L|369:85,2,53.9999983520508,2|2|2,0:0|0:0|0:0,0:0:0:0:
211,35,192319,1,2,0:0:0:0:
103,55,192485,6,0,P|91:86|77:171,1,107.999996704102,2|2,0:0|0:0,0:0:0:0:
125,243,192985,1,2,0:0:0:0:
55,302,193152,2,0,P|28:294|1:291,2,53.9999983520508,2|2|0,0:0|0:0|0:0,0:0:0:0:
138,335,193652,1,2,0:0:0:0:
215,289,193819,6,0,L|205:228,1,53.9999983520508,2|2,0:0|0:0,0:0:0:0:
298,237,194152,2,0,L|288:176,1,53.9999983520508,2|2,0:0|0:0,0:0:0:0:
360,118,194485,1,2,0:0:0:0:
360,118,194652,2,0,L|355:91,2,26.9999991760254,2|2|2,0:0|0:0|0:0,0:0:0:0:
442,171,194985,1,2,0:0:0:0:
427,302,195152,6,0,P|388:318|303:317,1,107.999996704102,2|2,0:0|0:0,0:0:0:0:
235,285,195652,1,2,0:0:0:0:
235,285,195819,2,0,P|191:273|172:274,2,53.9999983520508,2|2|0,0:0|0:0|0:0,0:0:0:0:
185,365,196319,1,2,0:0:0:0:
81,330,196485,6,0,L|74:271,1,53.9999983520508,2|2,0:0|0:0,0:0:0:0:
176,219,196819,2,0,L|182:272,1,53.9999983520508,2|2,0:0|0:0,0:0:0:0:
63,183,197152,2,0,L|56:124,2,53.9999983520508,2|2|2,0:0|0:0|0:0,0:0:0:0:
163,127,197652,1,2,0:0:0:0:
163,127,197819,6,0,P|189:118|216:118,2,53.9999983520508,2|2|2,0:0|0:0|0:0,0:0:0:0:
270,196,198319,2,0,P|335:206|384:171,1,107.999996704102,2|2,0:0|0:0,0:0:0:0:
318,116,198819,1,2,0:0:0:0:
452,229,198985,2,0,P|462:164|427:115,1,107.999996704102,2|2,0:0|0:0,0:0:0:0:
370,186,199485,1,2,0:0:0:0:
485,47,199652,2,0,P|420:37|371:72,1,107.999996704102,2|2,0:0|0:0,0:0:0:0:
442,128,200152,1,2,0:0:0:0:
370,186,200319,1,2,0:0:0:0:
318,116,200485,5,2,0:0:0:0:
256,192,200569,12,2,202819,0:0:0:0:
113,337,203152,6,0,P|105:279|93:245,1,90,6|2,0:0|0:0,0:0:0:0:
64,170,203652,1,2,0:0:0:0:
198,271,203819,2,0,P|206:213|218:179,1,90,2|2,0:0|0:0,0:0:0:0:
247,104,204485,6,0,L|297:112,1,45,2|2,0:0|0:0,0:0:0:0:
356,160,204819,2,0,L|400:152,1,45,2|2,0:0|0:0,0:0:0:0:
477,135,205152,1,2,0:0:0:0:
247,104,205485,1,2,0:0:0:0:
399,337,205819,6,0,P|407:279|419:245,1,90,6|2,0:0|0:0,0:0:0:0:
448,170,206319,1,2,0:0:0:0:
314,271,206485,2,0,P|311:232|301:207,2,45,2|2|2,0:0|0:0|0:0,0:0:0:0:
272,343,207152,6,0,L|207:333,1,45,2|2,0:0|0:0,0:0:0:0:
188,314,207402,1,2,0:0:0:0:
188,314,207485,2,0,L|147:322,2,22.5,2|2|2,0:0|0:0|0:0,0:0:0:0:
63,338,207819,1,2,0:0:0:0:
272,343,208152,1,2,0:0:0:0:
166,159,208485,6,0,P|114:148|133:219,1,135,6|2,0:0|0:0,0:0:0:0:
192,235,209152,2,0,L|251:226,1,45,2|2,0:0|0:0,0:0:0:0:
301,180,209485,2,0,L|345:186,1,45,2|0,0:0|0:0,0:0:0:0:
420,244,209819,6,0,P|436:188|428:155,1,90,2|2,0:0|0:0,0:0:0:0:
391,80,210319,1,2,0:0:0:0:
470,52,210485,1,2,0:0:0:0:
345,186,210819,1,2,0:0:0:0:
282,16,211152,6,0,L|233:23,1,45,6|2,0:0|0:0,0:0:0:0:
176,76,211485,2,0,L|127:83,1,45,2|2,0:0|0:0,0:0:0:0:
233,135,211819,2,0,L|322:122,1,90,2|2,0:0|0:0,0:0:0:0:
239,308,212485,6,0,P|194:308|156:287,1,90,2|2,0:0|0:0,0:0:0:0:
155,286,212985,1,2,0:0:0:0:
217,211,213152,1,2,0:0:0:0:
329,343,213485,1,2,0:0:0:0:
472,89,213819,5,14,0:0:0:0:
472,89,214152,1,8,0:0:0:0:
333,192,214319,1,2,0:0:0:0:
317,49,214485,1,10,0:0:0:0:
315,38,214569,1,2,0:0:0:0:
315,29,214652,1,2,0:0:0:0:
313,20,214735,1,2,0:0:0:0:
313,11,214819,1,10,0:0:0:0:
333,192,214985,1,8,0:0:0:0:
167,119,215152,5,8,0:0:0:0:
167,119,215485,1,8,0:0:0:0:
167,119,215819,1,8,0:0:0:0:
167,119,216152,1,8,0:0:0:0:
179,207,216319,1,8,0:0:0:0:
194,295,216485,5,8,0:0:0:0:
194,295,216819,1,8,0:0:0:0:
194,295,217152,1,8,0:0:0:0:
194,295,217485,1,8,0:0:0:0:
263,244,217652,1,8,0:0:0:0:
333,192,217819,5,8,0:0:0:0:
333,192,218152,1,8,0:0:0:0:
250,155,218319,1,8,0:0:0:0:
167,119,218485,1,8,0:0:0:0:
194,295,218652,1,8,0:0:0:0:
196,304,218735,1,8,0:0:0:0:
198,313,218819,1,8,0:0:0:0:
333,192,218985,1,8,0:0:0:0:
167,119,219152,5,8,0:0:0:0:
281,267,219319,1,8,0:0:0:0:
353,95,219485,1,8,0:0:0:0:
226,194,219652,1,8,0:0:0:0:
411,169,219819,1,8,0:0:0:0:
298,20,219985,1,8,0:0:0:0:
319,184,220152,1,8,0:0:0:0:
389,11,220319,1,8,0:0:0:0:
202,32,220485,5,8,0:0:0:0:
167,34,220569,1,8,0:0:0:0:
133,45,220652,1,8,0:0:0:0:
103,66,220735,1,8,0:0:0:0:
81,94,220819,1,8,0:0:0:0:
68,128,220902,1,8,0:0:0:0:
65,164,220985,1,8,0:0:0:0:
72,199,221069,1,8,0:0:0:0:
89,230,221152,5,8,0:0:0:0:
112,257,221235,1,8,0:0:0:0:
145,272,221319,1,8,0:0:0:0:
181,270,221402,1,8,0:0:0:0:
213,254,221485,1,8,0:0:0:0:
245,238,221569,1,8,0:0:0:0:
280,236,221652,1,8,0:0:0:0:
313,251,221735,1,8,0:0:0:0:
337,278,221819,5,14,0:0:0:0:
337,278,222819,1,8,0:0:0:0:
448,31,223152,5,14,0:0:0:0:
448,31,224152,1,8,0:0:0:0:
179,59,224485,5,14,0:0:0:0:
179,59,225485,1,8,0:0:0:0:
512,212,225819,5,14,0:0:0:0:
512,212,226819,1,8,0:0:0:0:
87,341,227152,5,8,0:0:0:0:
66,331,227235,1,8,0:3:0:0:
49,316,227319,1,8,0:3:0:0:
37,298,227402,1,8,0:3:0:0:
31,276,227485,1,8,0:0:0:0:
31,254,227569,1,8,0:3:0:0:
38,232,227652,1,8,0:3:0:0:
51,214,227735,1,8,0:3:0:0:
68,200,227819,5,8,0:0:0:0:
84,228,227902,1,8,0:3:0:0:
111,249,227985,1,8,0:3:0:0:
143,259,228069,1,8,0:3:0:0:
176,256,228152,1,8,0:0:0:0:
206,241,228235,1,8,0:3:0:0:
229,216,228319,1,8,0:3:0:0:
240,184,228402,1,8,0:3:0:0:
235,149,228485,5,8,0:0:0:0:
193,164,228569,1,8,0:3:0:0:
161,195,228652,1,8,0:3:0:0:
145,237,228735,1,8,0:3:0:0:
147,281,228819,1,8,0:0:0:0:
167,321,228902,1,8,0:3:0:0:
202,349,228985,1,8,0:3:0:0:
245,360,229069,1,8,0:3:0:0:
289,352,229152,5,8,0:0:0:0:
311,349,229235,1,8,0:0:0:0:
334,345,229319,1,8,0:0:0:0:
356,341,229402,1,8,0:0:0:0:
378,338,229485,1,8,0:0:0:0:
400,334,229569,1,8,0:0:0:0:
422,330,229652,1,8,0:0:0:0:
445,327,229735,1,8,0:0:0:0:
467,323,229819,5,14,0:0:0:0:
256,192,230985,5,8,0:0:0:0:
256,192,231319,1,8,0:0:0:0:
164,283,231485,1,8,0:0:0:0:
222,66,231652,1,8,0:0:0:0:
381,225,231819,1,8,0:0:0:0:
8,136,232152,1,8,0:1:0:0:
488,23,232485,5,6,0:0:0:0:
381,225,232652,1,0,0:0:0:0:
205,59,232819,2,0,P|258:38|310:33,1,90,8|0,0:0|0:0,0:0:0:0:
487,148,233152,1,2,0:0:0:0:
249,221,233319,1,0,0:0:0:0:
389,13,233485,2,0,P|399:70|394:118,1,90,8|0,0:0|0:0,0:0:0:0:
305,312,233819,5,6,0:0:0:0:
71,208,233985,1,0,0:0:0:0:
322,155,234152,1,8,0:0:0:0:
151,346,234319,1,0,0:0:0:0:
177,90,234485,2,0,P|180:49|172:1,1,90,2|0,0:0|0:0,0:0:0:0:
206,223,234819,1,8,0:0:0:0:
49,58,234985,1,0,0:0:0:0:
46,313,235152,6,0,P|90:314|131:296,1,90,6|0,0:0|0:0,0:0:0:0:
231,103,235485,2,0,P|207:140|202:185,1,90,8|0,0:0|0:0,0:0:0:0:
320,368,235819,2,0,P|298:328|263:301,1,90,2|0,0:0|0:0,0:0:0:0:
76,227,236152,1,8,0:0:0:0:
291,173,236319,1,0,0:0:0:0:
230,384,236485,5,6,0:0:0:0:
169,126,236652,1,2,0:0:0:0:
169,126,236735,1,2,0:0:0:0:
169,126,236819,1,10,0:0:0:0:
422,202,236985,1,2,0:0:0:0:
230,384,237152,2,0,L|244:266,1,90,10|8,0:0|0:3,0:0:0:0:
296,229,237402,1,8,0:3:0:0:
296,229,237485,2,0,L|282:111,1,90,8|8,0:0|0:0,0:0:0:0:
38,20,237819,6,0,P|9:87|10:110,1,90,6|0,0:0|0:0,0:0:0:0:
128,288,238152,1,8,0:0:0:0:
179,40,238319,1,0,0:0:0:0:
24,247,238485,1,2,0:0:0:0:
302,168,238652,1,0,0:0:0:0:
91,87,238819,1,8,0:0:0:0:
312,270,238985,1,0,0:0:0:0:
270,26,239152,5,4,0:0:0:0:
220,300,239319,1,0,0:0:0:0:
483,207,239485,1,8,0:0:0:0:
207,164,239652,1,0,0:0:0:0:
378,309,239819,1,2,0:0:0:0:
417,89,239985,1,8,0:3:0:0:
417,89,240069,1,8,0:3:0:0:
417,89,240152,1,10,0:0:0:0:
207,164,240319,1,8,0:0:0:0:
378,309,240485,5,6,0:0:0:0:
307,127,240652,1,2,0:0:0:0:
226,361,240819,2,0,P|173:346|120:340,1,107.999996704102,10|0,0:0|0:0,0:0:0:0:
341,218,241152,5,2,0:0:0:0:
148,182,241319,1,2,0:0:0:0:
312,358,241485,2,0,P|364:372|417:378,1,107.999996704102,10|0,0:0|0:0,0:0:0:0:
258,130,241819,5,14,0:0:0:0:
120,340,241985,1,10,0:0:0:0:
388,234,242152,1,10,0:0:0:0:
172,17,242319,1,10,0:0:0:0:
266,344,242485,2,0,L|283:228,1,90,10|0,0:0|0:0,0:0:0:0:
291,173,242735,1,8,0:0:0:0:
291,173,242819,1,8,0:0:0:0:
94,278,242985,1,8,0:3:0:0:
94,278,243069,1,8,0:3:0:0:
94,278,243152,5,6,0:0:0:0:
41,55,243319,1,0,0:0:0:0:
260,109,243485,2,0,P|300:126|344:134,1,90,8|0,0:0|0:0,0:0:0:0:
0,181,243819,1,2,0:0:0:0:
166,23,243985,1,0,0:0:0:0:
229,240,244152,2,0,P|244:313|242:350,1,90,8|0,0:0|0:0,0:0:0:0:
133,151,244485,5,14,0:0:0:0:
500,196,244652,1,0,0:0:0:0:
230,348,244819,5,10,0:0:0:0:
209,28,244985,1,0,0:0:0:0:
356,351,245152,5,10,0:0:0:0:
382,27,245319,1,0,0:0:0:0:
100,234,245485,5,10,0:0:0:0:
72,214,245569,1,8,0:0:0:0:
55,186,245652,1,8,0:0:0:0:
50,152,245735,1,8,0:0:0:0:
59,120,245819,6,0,P|98:99|142:98,1,90,6|0,0:0|0:0,0:0:0:0:
265,334,246152,2,0,P|227:310|204:273,1,90,8|0,0:0|0:0,0:0:0:0:
348,48,246485,2,0,P|346:92|325:130,1,90,2|0,0:0|0:0,0:0:0:0:
122,191,246819,1,8,0:0:0:0:
263,69,246985,1,0,0:0:0:0:
287,249,247152,6,0,P|361:253|415:206,1,135,6|0,0:0|0:0,0:0:0:0:
445,193,247485,2,0,P|467:249|462:292,1,90,8|0,0:0|0:0,0:0:0:0:
323,131,247819,2,0,P|324:86|343:46,1,90,2|0,0:0|0:0,0:0:0:0:
499,128,248152,1,8,0:0:0:0:
499,128,248319,1,8,0:0:0:0:
287,249,248485,5,6,0:0:0:0:
211,61,248652,1,2,0:0:0:0:
82,232,248819,2,0,L|96:336,1,90,10|0,0:0|0:0,0:0:0:0:
285,140,249152,5,2,0:0:0:0:
87,101,249319,1,2,0:0:0:0:
287,249,249485,2,0,L|391:235,1,90,10|0,0:0|0:0,0:0:0:0:
211,61,249819,5,6,0:0:0:0:
169,265,249985,1,10,0:0:0:0:
388,111,250152,1,10,0:0:0:0:
346,377,250319,1,10,0:0:0:0:
190,159,250485,1,8,0:0:0:0:
460,129,250652,1,8,0:0:0:0:
460,129,250735,1,8,0:0:0:0:
460,129,250819,1,8,0:0:0:0:
254,321,250985,1,8,0:0:0:0:
94,73,251152,5,14,0:0:0:0:
121,38,251235,1,8,0:0:0:0:
162,21,251319,1,8,0:0:0:0:
206,28,251402,1,8,0:0:0:0:
241,55,251485,1,8,0:0:0:0:
258,97,251569,1,8,0:0:0:0:
251,141,251652,1,8,0:0:0:0:
223,175,251735,1,8,0:0:0:0:
182,192,251819,6,0,L|157:189,7,22.5,10|8|8|8|8|8|8|8,0:0|0:0|0:0|0:0|0:0|0:0|0:0|0:0,0:0:0:0:
77,157,252152,2,0,L|54:159,7,22.5,8|8|8|8|8|8|8|8,0:0|0:0|0:0|0:0|0:0|0:0|0:0|0:0,0:0:0:0:
9,236,252485,6,0,L|16:289,1,45,6|2,0:0|0:0,0:0:0:0:
101,308,252819,2,0,L|106:263,1,45,2|2,0:0|0:0,0:0:0:0:
32,364,253152,1,2,0:0:0:0:
479,256,253485,2,0,P|442:243|423:243,1,45,8|0,0:0|0:0,0:0:0:0:
255,311,253819,5,14,0:0:0:0:
228,346,253902,1,8,0:0:0:0:
187,363,253985,1,8,0:0:0:0:
143,356,254069,1,8,0:0:0:0:
108,329,254152,1,8,0:0:0:0:
91,287,254235,1,8,0:0:0:0:
98,243,254319,1,8,0:0:0:0:
126,209,254402,1,8,0:0:0:0:
167,192,254485,6,0,L|192:195,7,22.5,10|8|8|8|8|8|8|8,0:0|0:0|0:0|0:0|0:0|0:0|0:0|0:0,0:0:0:0:
258,154,254819,2,0,L|283:157,7,22.5,8|8|8|8|8|8|8|8,0:0|0:0|0:0|0:0|0:0|0:0|0:0|0:0,0:0:0:0:
356,119,255152,6,0,P|359:84|355:68,1,45,6|2,0:0|0:0,0:0:0:0:
267,16,255485,2,0,P|258:57|261:72,1,45,2|2,0:0|0:0,0:0:0:0:
354,199,255819,1,2,0:0:0:0:
71,40,256152,1,8,0:0:0:0:
96,199,256319,1,0,3:0:0:0:
96,199,256402,1,0,3:0:0:0:
96,199,256485,6,0,P|137:215|181:213,1,90,14|0,0:0|0:0,0:0:0:0:
407,132,256819,2,0,P|365:115|321:117,1,90,8|0,0:3|0:0,0:0:0:0:
331,319,257152,6,0,L|345:230,1,90,8|0,0:3|0:0,0:0:0:0:
168,22,257485,2,0,L|153:110,1,90,8|0,0:3|0:0,0:0:0:0:
121,327,257819,5,8,0:3:0:0:
257,86,257985,1,8,0:0:0:0:
289,351,258152,5,0,0:3:0:0:
153,110,258319,1,8,0:0:0:0:
412,258,258485,5,8,0:3:0:0:
434,254,258569,1,8,0:3:0:0:
456,250,258652,1,8,0:0:0:0:
478,246,258735,1,8,0:0:0:0:
500,242,258819,2,0,P|509:199|493:157,1,90,8|8,0:3|0:0,0:0:0:0:
358,63,259152,5,14,0:0:0:0:
217,239,259319,1,8,0:0:0:0:
440,274,259485,1,8,0:0:0:0:
358,63,259652,1,8,0:0:0:0:
217,239,259819,5,10,0:0:0:0:
430,149,259985,1,8,0:0:0:0:
246,10,260152,1,8,0:0:0:0:
217,239,260319,1,8,0:0:0:0:
430,149,260485,5,10,0:0:0:0:
201,120,260652,1,8,0:0:0:0:
291,333,260819,1,8,0:0:0:0:
430,149,260985,1,8,0:0:0:0:
201,120,261152,5,10,0:0:0:0:
385,259,261319,1,8,0:0:0:0:
414,31,261485,1,8,0:0:0:0:
201,120,261652,1,8,0:0:0:0:
384,258,261819,5,14,0:0:0:0:
426,242,261902,1,8,0:0:0:0:
454,207,261985,1,8,0:0:0:0:
460,163,262069,1,8,0:0:0:0:
444,122,262152,1,8,0:0:0:0:
409,94,262235,1,8,0:0:0:0:
365,87,262319,1,8,0:0:0:0:
324,104,262402,1,8,0:0:0:0:
290,144,262485,5,10,0:0:0:0:
259,188,262569,1,8,0:0:0:0:
210,210,262652,1,8,0:0:0:0:
157,204,262735,1,8,0:0:0:0:
114,172,262819,1,8,0:0:0:0:
94,123,262902,1,8,0:0:0:0:
101,70,262985,1,8,0:0:0:0:
134,28,263069,1,8,0:0:0:0:
195,11,263152,6,0,L|240:17,6,31.4999990386963,14|8|8|8|8|8|8,0:0|0:0|0:0|0:0|0:0|0:0|0:0,0:0:0:0:
278,69,263485,2,0,L|309:64,6,31.4999990386963,8|8|8|8|8|8|8,0:0|0:0|0:0|0:0|0:0|0:0|0:0,0:0:0:0:
384,19,263819,6,0,L|414:24,12,18,10|8|8|8|8|8|8|8|8|8|8|8|8,0:0|0:0|0:0|0:0|0:0|0:0|0:0|0:0|0:0|0:0|0:0|0:0|0:0,0:0:0:0:
480,82,264152,2,0,L|510:78,12,18,8|8|8|8|8|8|8|8|8|8|8|8|8,0:0|0:0|0:0|0:0|0:0|0:0|0:0|0:0|0:0|0:0|0:0|0:0|0:0,0:0:0:0:
382,108,264485,6,0,B|303:158|259:238|376:253|311:352|311:352|272:396|199:387|165:334|166:293|187:259|187:259|156:278|110:298|54:280|37:226|47:169|47:169|93:63|149:167|261:137|297:36,1,1036.8000253125,6|2,0:0|0:0,0:0:0:0:
294,43,273152,5,2,0:0:0:0:
294,43,273819,5,2,0:0:0:0:
217,345,274152,1,2,0:0:0:0:
409,231,274485,1,2,0:0:0:0:
103,153,274819,1,2,0:0:0:0:
256,192,275152,5,4,0:0:0:0:
256,192,275235,12,0,280485,0:0:0:0:
