osu file format v14

[General]
AudioFilename: audio.mp3
AudioLeadIn: 0
PreviewTime: 229735
Countdown: 0
SampleSet: Soft
StackLeniency: 0.7
Mode: 0
LetterboxInBreaks: 0
WidescreenStoryboard: 1

[Editor]
DistanceSpacing: 0.7
BeatDivisor: 4
GridSize: 32
TimelineZoom: 4.799998

[Metadata]
Title:Attouteki Sonzaikan
TitleUnicode:圧 倒 的 存 在 感
Artist:Suzuhara Lulu, Debidebi Debiru
ArtistUnicode:鈴原るる、でびでび・でびる
Creator:Yuuma
Version:Insane
Source:
Tags:Devil overwhelming presence komasy yassu- まろん ARM IOSYS VTuber Virtual YouTuber バーチャルYouTuber ユーチューバー にじさんじ nijisanji いちから Ichikara 2434 SMASH the PAINT!! japanese pop jpop j-pop electronic
BeatmapID:2460719
BeatmapSetID:1180058

[Difficulty]
HPDrainRate:5
CircleSize:4
OverallDifficulty:8
ApproachRate:9
SliderMultiplier:1.7
SliderTickRate:1

[Events]
//Background and Video events
0,0,"lulul.jpg",0,0
//Break Periods
2,91352,98552
//Storyboard Layer 0 (Background)
//Storyboard Layer 1 (Fail)
//Storyboard Layer 2 (Pass)
//Storyboard Layer 3 (Foreground)
//Storyboard Layer 4 (Overlay)
//Storyboard Sound Samples

[TimingPoints]
486,333.333333333333,4,2,1,50,1,0
486,-166.666666666667,4,2,1,50,0,0
3152,-100,4,2,1,80,0,0
11152,-111.111111111111,4,2,1,70,0,0
13819,-142.857142857143,4,2,3,50,0,0
23485,-142.857142857143,4,2,1,50,0,0
24485,-125,4,2,1,60,0,0
24819,-125,4,2,4,60,0,0
25235,-125,4,2,1,60,0,0
27485,-125,4,2,4,60,0,0
27902,-125,4,2,1,60,0,0
33819,-125,4,2,6,60,0,0
34652,-125,4,2,1,60,0,0
35152,-100,4,2,3,70,0,0
39819,-100,4,2,1,70,0,0
40485,-100,4,2,3,70,0,0
42902,-100,4,2,3,5,0,0
42985,-100,4,2,3,70,0,0
43069,-100,4,2,3,5,0,0
43152,-100,4,2,3,70,0,0
44569,-100,4,2,3,5,0,0
44652,-100,4,2,3,70,0,0
44735,-100,4,2,2,5,0,0
44819,-100,4,2,3,70,0,0
44902,-100,4,2,3,5,0,0
44985,-100,4,2,3,70,0,0
45069,-100,4,2,3,5,0,0
45152,-100,4,2,3,70,0,0
45819,-142.857142857143,4,2,1,70,0,0
53819,-142.857142857143,4,2,5,70,0,0
55152,-142.857142857143,4,2,3,70,0,0
56485,-166.666666666667,4,2,1,50,0,0
59152,-100,4,2,1,80,0,1
79152,-125,4,2,1,60,0,1
80485,-100,4,2,1,80,0,0
88485,-111.111111111111,4,2,1,70,0,0
99152,-200,4,2,1,50,0,0
107152,-142.857142857143,4,2,5,60,0,0
116485,-142.857142857143,4,2,1,60,0,0
117819,-142.857142857143,4,2,5,60,0,0
122819,-142.857142857143,4,2,1,60,0,0
125819,-142.857142857143,4,2,5,60,0,0
127152,-142.857142857143,4,2,1,60,0,0
128485,-100,4,2,3,80,0,1
130902,-100,4,2,3,5,0,1
130985,-100,4,2,3,80,0,1
131069,-100,4,2,3,5,0,1
131152,-100,4,2,3,80,0,1
133402,-100,4,2,3,5,0,1
133485,-100,4,2,3,80,0,1
133569,-100,4,2,3,5,0,1
133652,-100,4,2,3,80,0,1
133735,-100,4,2,3,5,0,1
133819,-100,4,2,3,80,0,1
136194,-100,4,2,3,5,0,1
136235,-100,4,2,3,80,0,1
136277,-100,4,2,3,5,0,1
136319,-100,4,2,3,80,0,1
136360,-100,4,2,3,5,0,1
136402,-100,4,2,3,80,0,1
136444,-100,4,2,3,5,0,1
136485,-100,4,2,3,80,0,1
139152,-100,4,2,4,80,0,1
139235,-100,4,2,3,80,0,1
139819,-100,4,2,1,80,0,1
141152,-100,4,2,3,80,0,1
141819,-100,4,2,4,80,0,1
141902,-100,4,2,3,80,0,1
142485,-100,4,2,1,80,0,1
143819,-100,4,2,3,80,0,1
144069,-100,4,2,3,5,0,1
144152,-100,4,2,3,80,0,1
144235,-100,4,2,3,5,0,1
144319,-100,4,2,3,80,0,1
144402,-100,4,2,3,5,0,1
144485,-100,4,2,4,80,0,1
144569,-100,4,2,3,80,0,1
149819,-142.857142857143,4,2,1,60,0,0
155152,-142.857142857143,4,2,1,70,0,0
156485,-142.857142857143,4,2,1,80,0,0
157819,-142.857142857143,4,2,1,50,0,0
159152,-142.857142857143,4,2,3,60,0,0
160485,-100,4,2,1,80,0,1
168485,-166.666666666667,4,2,1,80,0,0
171152,-100,4,2,1,80,0,1
181819,-100,4,2,1,80,0,0
184485,-100,4,2,5,80,0,0
187152,-100,4,2,5,50,0,0
189819,-166.666666666667,4,2,1,50,0,0
203152,-142.857142857143,4,2,1,50,0,0
205152,-142.857142857143,4,2,6,50,0,0
205819,-142.857142857143,4,2,1,50,0,0
207819,-142.857142857143,4,2,6,50,0,0
208485,-142.857142857143,4,2,1,50,0,0
210485,-142.857142857143,4,2,6,50,0,0
211152,-142.857142857143,4,2,1,50,0,0
213152,-142.857142857143,4,2,6,50,0,0
213819,-125,4,2,1,60,0,0
227152,-100,4,2,1,70,0,0
232485,-100,4,2,1,80,0,1
252485,-125,4,2,1,80,0,1
253819,-100,4,2,1,80,0,1
255152,-125,4,2,1,80,0,1
256485,-100,4,2,1,80,0,1
263819,-100,4,2,1,50,0,1
264485,-100,4,2,1,70,0,1
275152,-100,4,2,5,70,0,0
278485,-100,4,2,5,65,0,0
278652,-100,4,2,5,60,0,0
278819,-100,4,2,5,55,0,0
278985,-100,4,2,5,50,0,0
279152,-100,4,2,5,45,0,0
279319,-100,4,2,5,40,0,0
279485,-100,4,2,5,35,0,0
279652,-100,4,2,5,30,0,0
279819,-100,4,2,5,25,0,0
279985,-100,4,2,5,20,0,0
280152,-100,4,2,5,15,0,0
280319,-100,4,2,5,10,0,0
280485,-100,4,2,5,5,0,0

[Colours]
Combo1 : 0,94,187
Combo2 : 252,182,227
Combo3 : 103,148,252
Combo4 : 239,95,128

[HitObjects]
212,336,486,6,0,P|162:354|107:345,2,101.999996887207,2|2|2,0:0|0:0|0:0,0:0:0:0:
247,232,1319,1,2,0:0:0:0:
247,232,1652,2,0,P|196:226|149:244,1,101.999996887207,2|2,0:0|0:0,0:0:0:0:
212,336,2152,2,0,L|282:326,1,50.9999984436036,2|2,0:0|0:0,0:0:0:0:
347,266,2485,2,0,L|331:153,1,101.999996887207,2|10,0:0|0:1,0:0:0:0:
36,57,3152,6,0,P|86:38|129:44,1,85,6|0,0:0|0:0,0:0:0:0:
222,68,3485,1,8,0:0:0:0:
111,217,3652,1,2,0:0:0:0:
111,217,3735,1,2,0:0:0:0:
111,217,3819,2,0,P|92:166|98:123,1,85,2|0,0:0|0:0,0:0:0:0:
222,68,4152,1,8,0:0:0:0:
212,198,4319,1,0,0:0:0:0:
338,131,4485,6,0,L|440:147,1,85,6|0,0:0|0:0,0:0:0:0:
318,256,4819,1,8,0:0:0:0:
318,256,4985,1,0,0:0:0:0:
444,322,5152,2,0,L|433:225,1,85,2|0,0:0|0:0,0:0:0:0:
396,101,5485,1,8,0:0:0:0:
318,256,5652,1,0,0:0:0:0:
187,150,5819,6,0,L|198:53,1,85,6|0,0:0|0:0,0:0:0:0:
299,157,6152,1,8,0:0:0:0:
212,266,6319,1,2,0:0:0:0:
212,266,6402,1,2,0:0:0:0:
212,266,6485,2,0,P|159:271|123:253,1,85,2|0,0:0|0:0,0:0:0:0:
30,182,6819,1,8,0:0:0:0:
187,150,6985,1,0,0:0:0:0:
40,69,7152,6,0,L|33:159,1,85,14|2,0:0|0:0,0:0:0:0:
26,278,7485,1,10,0:0:0:0:
26,278,7652,1,2,0:0:0:0:
187,150,7819,6,0,L|194:240,1,85,10|10,0:0|0:0,0:0:0:0:
198,261,8069,1,10,0:0:0:0:
198,261,8152,1,10,0:0:0:0:
33,152,8319,1,2,0:0:0:0:
204,55,8485,6,0,P|255:75|278:105,1,85,6|0,0:0|0:0,0:0:0:0:
364,218,8819,1,8,0:0:0:0:
496,156,8985,1,2,0:0:0:0:
496,156,9069,1,2,0:0:0:0:
496,156,9152,2,0,P|453:138|411:141,1,85,2|0,0:0|0:0,0:0:0:0:
256,186,9485,1,8,0:0:0:0:
435,232,9652,1,0,0:0:0:0:
285,323,9819,6,0,L|189:311,1,85,6|0,0:0|0:0,0:0:0:0:
91,262,10152,1,8,0:0:0:0:
253,230,10319,1,0,0:0:0:0:
103,156,10485,2,0,P|86:205|86:248,1,85,2|0,0:0|0:0,0:0:0:0:
200,312,10819,1,8,0:0:0:0:
234,137,10985,1,0,0:0:0:0:
376,274,11152,6,0,P|458:279|446:215,1,152.999995330811,6|8,0:0|0:0,0:0:0:0:
385,138,11652,2,0,P|326:129|227:138,1,152.999995330811,2|2,0:0|0:0,0:0:0:0:
310,214,12152,1,8,0:0:0:0:
363,40,12319,1,6,0:0:0:0:
363,40,12652,5,10,0:0:0:0:
186,80,12819,1,10,0:0:0:0:
381,141,12985,1,10,0:0:0:0:
192,211,13152,2,0,P|138:226|80:223,1,114.749996498108,10|8,0:0|0:0,0:0:0:0:
43,208,13485,2,0,P|38:166|39:123,1,76.4999976654053,10|0,0:0|0:0,0:0:0:0:
186,80,13819,5,6,0:0:0:0:
209,76,14152,2,0,P|226:169|226:213,1,118.999996368408,2|2,0:0|0:0,0:0:0:0:
308,244,14652,1,0,0:0:0:0:
308,244,14819,2,0,P|318:190|325:177,1,59.4999981842042,2|0,0:0|0:0,0:0:0:0:
409,145,15152,2,0,P|462:149|497:221,1,118.999996368408,2|2,0:0|0:0,0:0:0:0:
475,288,15652,2,0,L|404:298,1,59.4999981842042,2|0,0:0|0:0,0:0:0:0:
328,340,15985,2,0,L|255:333,2,59.4999981842042,2|2|2,0:0|0:0|0:0,0:0:0:0:
308,244,16485,5,2,0:0:0:0:
115,354,16819,2,0,P|84:291|96:220,1,118.999996368408,2|2,0:0|0:0,0:0:0:0:
114,154,17319,1,0,0:0:0:0:
114,154,17485,2,0,P|115:108|108:87,1,59.4999981842042,2|0,0:0|0:0,0:0:0:0:
181,225,17819,2,0,P|229:242|304:208,1,118.999996368408,2|2,0:0|0:0,0:0:0:0:
366,162,18319,2,0,P|417:149|436:152,1,59.4999981842042,2|0,0:0|0:0,0:0:0:0:
280,128,18652,2,0,P|270:80|278:56,2,59.4999981842042,2|2|2,0:0|0:0|0:0,0:0:0:0:
376,255,19152,6,0,P|391:306|368:386,1,118.999996368408,2|2,0:0|0:0,0:0:0:0:
295,315,19652,2,0,L|156:318,1,118.999996368408,2|2,0:0|0:0,0:0:0:0:
176,317,20152,1,2,0:0:0:0:
22,145,20485,6,0,L|140:142,1,118.999996368408,2|2,0:0|0:0,0:0:0:0:
224,201,20985,2,0,P|237:143|221:86,1,118.999996368408,2|2,0:0|0:0,0:0:0:0:
221,86,21485,1,2,0:0:0:0:
447,16,21819,6,0,P|431:72|444:130,2,118.999996368408,2|2|2,0:0|0:0|0:0,0:0:0:0:
339,71,22652,1,2,0:0:0:0:
444,130,22819,1,2,0:0:0:0:
340,189,22985,1,2,0:0:0:0:
221,86,23152,5,6,0:0:0:0:
221,86,24152,5,10,0:0:0:0:
218,108,24235,1,2,1:2:0:0:
215,130,24319,1,2,1:2:0:0:
213,152,24402,1,10,0:0:0:0:
210,174,24485,6,0,P|172:187|115:179,1,68,6|0,0:0|0:0,0:0:0:0:
12,119,24819,2,0,P|58:118|88:131,1,68,10|0,0:0|0:0,0:0:0:0:
91,286,25152,2,0,P|58:283|38:192,1,136,2|8,0:0|0:0,0:0:0:0:
177,186,25652,6,0,L|193:326,1,136,0|0,0:0|0:0,0:0:0:0:
275,208,26152,1,8,0:0:0:0:
307,330,26319,1,0,0:0:0:0:
414,276,26485,2,0,P|423:231|416:200,1,68,2|2,0:0|0:0,0:0:0:0:
280,141,26819,2,0,P|271:186|278:217,1,68,10|2,0:0|0:0,0:0:0:0:
466,106,27152,6,0,L|381:90,1,68,6|0,0:0|0:0,0:0:0:0:
235,32,27485,2,0,L|333:18,1,68,10|0,0:0|0:0,0:0:0:0:
280,141,27819,2,0,P|211:177|144:152,1,136,2|8,0:0|0:0,0:0:0:0:
84,28,28319,6,0,P|177:36|209:81,1,136,0|0,0:0|0:0,0:0:0:0:
65,127,28819,1,8,0:0:0:0:
65,127,28985,1,0,0:0:0:0:
16,254,29152,2,0,P|71:251|92:241,1,68,2|2,0:0|0:0,0:0:0:0:
116,224,29402,1,2,0:0:0:0:
116,224,29485,2,0,P|148:214|182:216,1,68,10|2,0:0|0:0,0:0:0:0:
380,266,29819,5,6,0:0:0:0:
380,266,30152,2,0,L|372:353,1,68,8|0,0:0|0:0,0:0:0:0:
270,216,30485,1,2,0:0:0:0:
387,159,30652,1,0,0:0:0:0:
273,324,30819,1,8,0:0:0:0:
157,272,30985,1,2,0:0:0:0:
157,272,31069,1,2,0:0:0:0:
157,272,31152,6,0,P|124:215|142:152,1,136,6|8,0:0|0:0,0:0:0:0:
255,95,31652,2,0,P|288:152|270:215,1,136,6|2,0:0|0:0,0:0:0:0:
142,151,32152,1,8,0:0:0:0:
232,2,32319,6,0,L|321:17,1,68,6|0,0:0|0:0,0:0:0:0:
410,66,32652,2,0,L|445:61,3,22.6666666666667,2|2|2|8,0:0|0:0|0:0|0:0,0:0:0:0:
255,95,32985,1,0,0:0:0:0:
398,215,33152,2,0,P|414:167|404:130,1,68,2|0,0:0|0:0,0:0:0:0:
269,199,33485,2,0,P|253:247|263:284,1,68,8|2,0:0|0:0,0:0:0:0:
282,341,33735,1,2,0:0:0:0:
282,341,33819,5,6,0:0:0:0:
411,150,33985,1,2,0:0:0:0:
107,42,34319,1,2,0:0:0:0:
107,42,34652,5,2,0:0:0:0:
163,139,34819,1,2,0:0:0:0:
66,196,34985,1,2,0:0:0:0:
8,98,35152,6,0,P|119:39|240:67,1,255,6|2,0:0|0:0,0:0:0:0:
352,213,35819,2,0,P|313:250|196:244,1,170,8|10,0:0|0:0,0:0:0:0:
172,235,36235,1,10,0:0:0:0:
169,203,36318,1,10,0:0:0:0:
166,171,36401,1,10,0:0:0:0:
163,139,36485,6,0,L|156:47,1,85,6|0,0:0|0:0,0:0:0:0:
320,24,36819,2,0,L|326:108,1,85,0|2,0:0|0:0,0:0:0:0:
338,259,37152,1,8,0:0:0:0:
163,139,37319,1,0,0:0:0:0:
266,179,37485,1,2,0:0:0:0:
95,254,37652,1,2,0:0:0:0:
193,320,37819,6,0,B|327:282|296:401|445:353,1,255,6|2,0:0|0:0,0:0:0:0:
338,259,38485,2,0,P|319:196|407:256,1,255,8|2,0:0|0:0,0:0:0:0:
206,237,39152,2,0,L|191:53,1,170,8|0,0:0|0:0,0:0:0:0:
283,28,39652,1,8,0:0:0:0:
86,128,39819,5,2,0:0:0:0:
287,147,39985,1,2,0:0:0:0:
86,128,40152,1,2,0:0:0:0:
287,147,40318,1,2,0:0:0:0:
151,273,40485,6,0,B|112:343|40:330|40:330|25:261|68:211,1,255,6|2,0:0|0:0,0:0:0:0:
167,89,41152,2,0,B|147:33|80:11|80:11|33:67|74:136,1,255,8|2,0:0|0:0,0:0:0:0:
224,240,41819,2,0,B|282:251|334:203|334:203|309:134|229:136,1,255,8|10,0:0|0:0,0:0:0:0:
153,183,42485,1,8,0:0:0:0:
153,183,42819,5,2,0:0:0:0:
268,331,42985,1,2,0:0:0:0:
445,266,43152,6,0,B|491:212|493:162|472:108|472:108|408:116|404:178,1,255,6|0,0:0|3:0,0:0:0:0:
353,288,43819,1,8,0:0:0:0:
280,182,43985,2,0,P|266:133|342:50,1,170,0|2,0:0|0:0,0:0:0:0:
175,193,44485,5,2,0:0:0:0:
373,143,44652,1,2,0:0:0:0:
172,89,44819,1,2,0:0:0:0:
407,155,44985,1,2,0:0:0:0:
207,300,45152,5,6,0:0:0:0:
206,299,45819,6,0,P|235:297|262:283,3,59.4999981842042,6|0|2|0,3:2|0:0|3:2|0:0,0:0:0:0:
114,307,46485,2,0,P|114:277|127:250,1,59.4999981842042,2|0,3:2|0:0,0:0:0:0:
167,165,46819,2,0,P|192:181|209:205,1,59.4999981842042,2|0,3:2|0:0,0:0:0:0:
262,283,47152,6,0,P|235:297|206:299,3,59.4999981842042,2|0|2|0,3:2|0:0|3:2|0:0,0:0:0:0:
209,205,47819,2,0,P|192:181|167:165,1,59.4999981842042,2|0,3:2|0:0,0:0:0:0:
127,250,48152,2,0,P|114:277|114:307,1,59.4999981842042,2|0,3:2|0:0,0:0:0:0:
211,309,48485,6,0,P|246:306|278:289,3,59.4999981842042,2|0|2|0,3:2|0:0|3:2|0:0,0:0:0:0:
100,318,49152,2,0,P|101:282|116:250,1,59.4999981842042,2|0,3:2|0:0,0:0:0:0:
164,148,49485,2,0,P|194:167|214:196,1,59.4999981842042,2|0,3:2|0:0,0:0:0:0:
278,289,49819,6,0,P|246:306|211:309,3,59.4999981842042,2|0|2|0,3:2|0:0|3:2|0:0,0:0:0:0:
214,196,50485,2,0,P|194:167|164:148,1,59.4999981842042,2|0,3:2|0:0,0:0:0:0:
116,250,50819,1,8,0:0:0:0:
480,231,51152,5,8,0:0:0:0:
313,157,51319,1,8,0:0:0:0:
404,316,51485,1,8,0:0:0:0:
424,134,51652,1,8,0:0:0:0:
301,270,51819,5,8,0:0:0:0:
480,231,51985,1,8,0:0:0:0:
313,157,52152,1,8,0:0:0:0:
404,316,52319,1,8,0:0:0:0:
424,134,52485,6,0,L|416:78,3,29.7499990921021,8|8|8|8,0:0|0:0|0:0|0:0,0:0:0:0:
330,73,52819,2,0,L|322:17,3,29.7499990921021,8|8|8|8,0:0|0:0|0:0|0:0,0:0:0:0:
227,15,53152,1,8,0:0:0:0:
198,14,53235,1,8,0:0:0:0:
169,22,53319,1,8,0:0:0:0:
144,38,53402,1,8,0:0:0:0:
126,61,53485,1,8,0:0:0:0:
114,88,53569,1,8,0:0:0:0:
112,118,53652,1,8,0:0:0:0:
118,146,53735,1,8,0:0:0:0:
133,172,53819,5,6,0:0:0:0:
133,172,55152,6,0,B|154:231|154:231|143:286,1,118.999996368408,8|8,0:0|0:0,0:0:0:0:
379,172,55819,2,0,B|358:231|358:231|368:286,1,118.999996368408,8|8,0:0|0:0,0:0:0:0:
256,128,56485,6,0,B|239:83|278:71|256:26,2,101.999996887207,2|2|2,0:0|0:0|0:0,0:0:0:0:
256,224,57319,1,2,0:0:0:0:
256,224,57652,2,0,B|235:266|274:278|257:323,1,101.999996887207,2|2,0:0|0:0,0:0:0:0:
334,252,58152,2,0,L|398:246,1,50.9999984436036,2|2,0:0|0:0,0:0:0:0:
177,306,58485,2,0,L|65:315,1,101.999996887207,2|8,0:0|0:1,0:0:0:0:
43,75,59152,6,0,P|80:50|137:46,1,85,6|0,0:0|0:0,0:0:0:0:
208,129,59485,2,0,P|171:154|114:158,1,85,8|0,0:0|0:0,0:0:0:0:
292,14,59819,2,0,L|307:111,1,85,2|0,0:0|0:0,0:0:0:0:
432,151,60152,2,0,L|443:60,1,85,8|0,0:0|0:0,0:0:0:0:
332,212,60485,5,6,0:0:0:0:
467,264,60652,1,0,0:0:0:0:
432,151,60819,1,8,0:0:0:0:
369,320,60985,1,0,0:0:0:0:
227,217,61152,1,2,0:0:0:0:
227,217,61485,1,8,0:0:0:0:
257,326,61652,1,0,0:0:0:0:
332,212,61819,6,0,P|335:149|323:123,1,85,6|0,0:0|0:0,0:0:0:0:
189,41,62152,2,0,P|240:41|270:58,1,85,8|0,0:0|0:0,0:0:0:0:
237,178,62485,2,0,L|151:186,1,85,2|0,0:0|0:0,0:0:0:0:
51,113,62819,1,8,0:0:0:0:
51,113,62985,1,0,0:0:0:0:
8,289,63152,6,0,L|152:271,1,127.5,6|2,0:0|0:0,0:0:0:0:
172,267,63485,2,0,P|180:326|172:356,1,85,10|2,0:0|0:0,0:0:0:0:
305,309,63819,2,0,P|298:267|307:225,1,85,10|8,0:0|0:3,0:0:0:0:
326,159,64069,1,8,0:3:0:0:
326,159,64152,1,8,0:0:0:0:
172,267,64319,1,8,0:0:0:0:
411,268,64485,6,0,P|479:251|505:238,1,85,6|0,0:0|0:0,0:0:0:0:
343,76,64819,2,0,P|327:142|326:178,1,85,8|0,0:0|0:0,0:0:0:0:
251,293,65152,2,0,P|245:250|233:210,1,85,2|0,0:0|0:0,0:0:0:0:
42,182,65485,2,0,P|81:166|123:158,1,85,8|0,0:0|0:0,0:0:0:0:
251,293,65819,5,6,0:0:0:0:
106,250,65985,1,0,0:0:0:0:
217,127,66152,1,8,0:0:0:0:
155,339,66319,1,0,0:0:0:0:
42,182,66485,1,2,0:0:0:0:
233,210,66652,1,8,0:0:0:0:
233,210,66735,1,8,0:0:0:0:
233,210,66819,1,8,0:0:0:0:
46,295,66985,1,8,0:0:0:0:
217,127,67152,6,0,P|231:166|232:209,1,85,6|2,0:0|0:0,0:0:0:0:
209,346,67485,1,10,0:0:0:0:
393,69,67819,6,0,P|378:108|377:151,1,85,2|2,0:0|0:0,0:0:0:0:
401,288,68152,1,10,0:0:0:0:
167,35,68485,5,14,0:0:0:0:
48,179,68652,1,8,0:0:0:0:
233,210,68819,1,8,0:0:0:0:
87,91,68985,1,8,0:0:0:0:
158,274,69152,2,0,P|211:314|292:302,1,127.5,8|8,0:0|0:0,0:0:0:0:
350,282,69485,1,8,0:3:0:0:
259,130,69652,1,8,0:3:0:0:
259,130,69735,1,8,0:3:0:0:
259,130,69819,6,0,P|233:204|232:228,1,85,6|0,0:0|0:0,0:0:0:0:
406,133,70152,2,0,P|397:91|379:53,1,85,8|0,0:0|0:0,0:0:0:0:
350,282,70485,2,0,L|461:261,1,85,2|0,0:0|0:0,0:0:0:0:
259,130,70819,2,0,L|148:109,1,85,8|0,0:0|0:0,0:0:0:0:
61,285,71152,6,0,P|150:291|195:219,1,170,6|8,0:0|0:0,0:0:0:0:
87,99,71652,1,0,0:0:0:0:
87,99,71819,2,0,P|71:137|67:189,1,85,2|0,0:0|0:0,0:0:0:0:
193,231,72152,1,8,0:0:0:0:
224,93,72319,1,0,0:0:0:0:
353,245,72485,6,0,P|348:202|332:163,1,85,6|0,0:0|0:0,0:0:0:0:
198,294,72819,2,0,P|236:311|278:316,1,85,8|0,0:0|0:0,0:0:0:0:
233,135,73152,2,0,P|198:159|172:193,1,85,2|0,0:0|0:0,0:0:0:0:
262,224,73485,1,8,0:0:0:0:
262,224,73652,1,0,0:0:0:0:
301,51,73819,6,0,P|232:30|167:48,1,127.5,6|0,0:0|0:0,0:0:0:0:
139,64,74152,2,0,P|102:86|56:90,1,85,8|0,0:0|0:0,0:0:0:0:
233,135,74485,1,2,0:0:0:0:
233,135,74651,1,0,0:0:0:0:
113,266,74818,1,8,0:0:0:0:
113,266,74985,1,8,0:0:0:0:
60,90,75152,6,0,L|40:173,1,85,6|2,0:0|0:0,0:0:0:0:
9,289,75485,1,10,0:0:0:0:
212,52,75819,6,0,L|233:135,1,85,2|2,0:0|0:0,0:0:0:0:
264,251,76152,1,10,0:0:0:0:
419,58,76485,5,14,0:0:0:0:
233,135,76652,1,8,0:0:0:0:
429,199,76819,1,8,0:0:0:0:
303,42,76985,1,8,0:0:0:0:
295,249,77152,1,8,0:0:0:0:
419,58,77319,1,8,0:0:0:0:
419,58,77402,1,8,0:0:0:0:
419,58,77485,1,8,0:3:0:0:
429,199,77652,1,8,0:0:0:0:
233,135,77819,5,14,0:0:0:0:
215,122,77902,1,8,0:0:0:0:
196,113,77985,1,8,0:0:0:0:
176,108,78068,1,8,0:0:0:0:
154,108,78152,1,8,0:0:0:0:
134,112,78235,1,8,0:0:0:0:
114,120,78318,1,8,0:0:0:0:
97,133,78402,1,8,0:0:0:0:
82,148,78485,2,0,L|86:185,14,21.25,10|8|8|8|8|8|8|0|8|8|8|8|8|8|8,0:0|0:0|0:0|0:0|0:0|0:0|0:0|0:0|0:0|0:0|0:0|0:0|0:0|0:0|0:0,0:0:0:0:
62,249,79152,6,0,P|95:252|126:240,1,68,2|2,0:0|0:0,0:0:0:0:
206,203,79485,2,0,P|237:190|270:194,1,68,2|2,0:0|0:0,0:0:0:0:
332,273,79819,2,0,P|386:296|466:274,1,136,2|8,0:0|0:1,0:0:0:0:
476,57,80485,6,0,P|437:39|395:40,1,85,6|0,0:0|0:0,0:0:0:0:
290,68,80819,1,8,0:0:0:0:
401,217,80985,1,2,0:0:0:0:
401,217,81069,1,2,0:0:0:0:
400,217,81152,2,0,P|418:178|417:136,1,85,2|0,0:0|0:0,0:0:0:0:
290,68,81485,1,8,0:0:0:0:
300,198,81652,1,0,0:0:0:0:
174,131,81819,6,0,L|90:144,1,85,6|0,0:0|0:0,0:0:0:0:
194,256,82152,1,8,0:0:0:0:
194,256,82319,1,0,0:0:0:0:
68,322,82485,2,0,L|77:237,1,85,2|0,0:0|0:0,0:0:0:0:
116,101,82819,1,8,0:0:0:0:
194,256,82985,1,0,0:0:0:0:
325,150,83152,6,0,L|315:65,1,85,6|0,0:0|0:0,0:0:0:0:
213,157,83485,1,8,0:0:0:0:
300,266,83652,1,2,0:0:0:0:
300,266,83735,1,2,0:0:0:0:
300,266,83819,2,0,P|341:272|381:258,1,85,2|0,0:0|0:0,0:0:0:0:
482,182,84152,1,8,0:0:0:0:
325,150,84319,1,0,0:0:0:0:
472,69,84485,6,0,L|478:153,1,85,14|0,0:0|0:0,0:0:0:0:
486,278,84819,1,8,0:0:0:0:
486,278,84985,1,0,0:0:0:0:
325,150,85152,6,0,L|318:234,1,85,8|10,0:0|0:0,0:0:0:0:
314,261,85402,1,10,0:0:0:0:
314,261,85485,1,10,0:0:0:0:
479,152,85652,1,2,0:0:0:0:
307,55,85819,6,0,P|267:67|238:97,1,85,6|0,0:0|0:0,0:0:0:0:
148,218,86152,1,8,0:0:0:0:
16,156,86319,1,2,0:0:0:0:
16,156,86402,1,2,0:0:0:0:
15,156,86485,2,0,P|54:138|96:139,1,85,2|0,0:0|0:0,0:0:0:0:
256,186,86819,1,8,0:0:0:0:
77,232,86985,1,0,0:0:0:0:
227,323,87152,6,0,L|311:312,1,85,4|0,0:0|0:0,0:0:0:0:
421,262,87485,1,8,0:0:0:0:
259,230,87652,1,0,0:0:0:0:
409,156,87819,2,0,P|424:195|427:237,1,85,2|0,0:0|0:0,0:0:0:0:
312,312,88152,1,8,0:0:0:0:
278,137,88319,1,0,0:0:0:0:
135,274,88485,6,0,P|70:294|53:228,1,152.999995330811,6|8,0:0|0:0,0:0:0:0:
127,137,88985,2,0,P|202:128|278:136,1,152.999995330811,2|2,0:0|0:0,0:0:0:0:
202,214,89485,1,8,0:0:0:0:
149,40,89652,1,6,0:0:0:0:
149,40,89985,5,10,0:0:0:0:
326,80,90152,1,10,0:0:0:0:
131,141,90319,1,10,0:0:0:0:
319,210,90485,2,0,P|375:226|432:222,1,114.749996498108,10|8,0:0|0:0,0:0:0:0:
469,207,90819,2,0,P|473:170|473:131,1,76.4999976654053,8|0,0:0|0:0,0:0:0:0:
326,80,91152,5,10,0:0:0:0:
428,330,99152,5,2,0:0:0:0:
396,51,100485,1,2,0:0:0:0:
396,51,101485,2,0,L|401:88,3,21.25,0|0|0|0,3:0|3:0|3:0|3:0,0:0:0:0:
406,116,101819,5,2,0:0:0:0:
63,60,103152,1,2,0:0:0:0:
63,60,104152,2,0,L|102:66,3,21.25,0|0|0|0,3:0|3:0|3:0|3:0,0:0:0:0:
127,70,104485,5,2,0:0:0:0:
101,325,105819,1,2,0:0:0:0:
101,325,106485,2,0,P|170:305|193:315,1,85,4|8,0:0|0:0,0:0:0:0:
293,361,107152,6,0,L|307:235,1,118.999996368408,6|8,0:0|0:0,0:0:0:0:
421,312,107819,2,0,L|407:186,1,118.999996368408,8|8,0:0|0:0,0:0:0:0:
390,65,108485,1,8,0:0:0:0:
390,65,108819,1,8,0:0:0:0:
262,87,109152,1,8,0:0:0:0:
262,87,109485,1,8,0:0:0:0:
134,109,109819,5,8,0:0:0:0:
62,201,110152,1,8,0:0:0:0:
128,298,110485,1,8,0:0:0:0:
239,265,110819,1,8,0:0:0:0:
243,149,111152,1,8,0:0:0:0:
239,265,111485,1,8,0:0:0:0:
128,298,111819,1,8,0:0:0:0:
62,201,112152,1,8,3:2:0:0:
134,109,112485,6,0,L|211:98,1,59.4999981842042,10|2,3:2|0:0,0:0:0:0:
254,40,112819,2,0,L|312:31,1,59.4999981842042,10|2,0:0|0:0,0:0:0:0:
309,125,113152,2,0,L|368:134,1,59.4999981842042,10|2,0:0|0:0,0:0:0:0:
429,194,113485,2,0,L|488:203,1,59.4999981842042,10|2,0:0|0:0,0:0:0:0:
488,203,113819,6,0,L|429:194,1,59.4999981842042,10|2,0:0|0:0,0:0:0:0:
368,134,114152,2,0,L|309:125,1,59.4999981842042,10|2,0:0|0:0,0:0:0:0:
312,31,114485,2,0,L|254:40,1,59.4999981842042,10|2,0:0|0:0,0:0:0:0:
192,100,114819,2,0,L|134:109,1,59.4999981842042,10|2,0:0|0:0,0:0:0:0:
93,228,115152,6,0,P|82:264|90:292,1,59.4999981842042,10|2,0:0|0:0,0:0:0:0:
223,230,115485,2,0,P|197:202|169:195,1,59.4999981842042,10|2,0:0|0:0,0:0:0:0:
156,341,115819,2,0,P|192:332|212:311,1,59.4999981842042,10|2,0:0|0:0,0:0:0:0:
93,228,116152,2,0,P|82:264|90:292,1,59.4999981842042,10|2,0:0|0:0,0:0:0:0:
223,230,116485,5,2,0:0:0:0:
237,227,116569,1,2,0:0:0:0:
252,225,116652,1,2,0:0:0:0:
267,223,116735,1,2,0:0:0:0:
281,221,116819,1,2,0:0:0:0:
296,218,116902,1,2,0:0:0:0:
311,216,116985,1,2,0:0:0:0:
325,214,117069,1,2,0:0:0:0:
340,212,117152,2,0,L|373:207,7,29.7499990921021,2|2|2|2|2|2|2|2,0:0|0:0|0:0|0:0|0:0|0:0|0:0|0:0,0:0:0:0:
436,253,117819,6,0,P|444:175|409:140,1,118.999996368408,14|10,0:0|0:0,0:0:0:0:
391,29,118485,2,0,P|319:61|306:108,1,118.999996368408,8|8,0:0|0:0,0:0:0:0:
220,180,119152,2,0,P|283:225|331:213,1,118.999996368408,10|10,0:0|0:0,0:0:0:0:
391,29,119819,2,0,P|319:61|306:108,1,118.999996368408,10|10,0:0|0:0,0:0:0:0:
436,253,120485,2,0,P|444:175|409:140,1,118.999996368408,10|10,0:0|0:0,0:0:0:0:
391,29,121152,2,0,P|319:61|306:108,1,118.999996368408,10|10,0:0|0:0,0:0:0:0:
220,180,121819,2,0,P|283:225|331:213,1,118.999996368408,10|10,0:0|0:0,0:0:0:0:
420,147,122485,1,10,0:0:0:0:
391,29,122819,1,8,0:0:0:0:
79,108,123152,5,2,0:0:0:0:
236,83,123319,1,2,0:0:0:0:
124,196,123485,1,2,0:0:0:0:
148,39,123652,1,2,0:0:0:0:
220,180,123819,5,2,0:0:0:0:
79,108,123985,1,2,0:0:0:0:
236,83,124152,1,2,0:0:0:0:
124,196,124319,1,2,0:0:0:0:
148,39,124485,6,0,L|153:1,3,29.7499990921021,2|2|2|2,0:0|0:0|0:0|0:0,0:0:0:0:
236,83,124819,2,0,L|241:45,3,29.7499990921021,2|2|2|2,0:0|0:0|0:0|0:0,0:0:0:0:
323,126,125152,1,2,0:0:0:0:
347,145,125235,1,2,0:0:0:0:
374,157,125319,1,2,0:0:0:0:
403,160,125402,1,2,0:0:0:0:
433,154,125485,2,0,L|437:126,6,14.874999546051,2|2|2|2|2|2|2,0:0|0:0|0:0|0:0|0:0|0:0|0:0,0:0:0:0:
443,90,125819,5,6,0:0:0:0:
166,243,127152,5,4,0:0:0:0:
256,88,127485,1,4,0:0:0:0:
345,243,127819,1,4,0:0:0:0:
190,44,128485,6,0,P|117:22|100:95,1,170,4|0,0:0|0:0,0:0:0:0:
176,192,128985,1,8,0:0:0:0:
176,192,129069,2,0,P|234:182|274:168,1,85,8|8,0:0|0:0,0:0:0:0:
293,145,129319,2,0,P|333:133|375:127,1,85,0|2,0:0|0:3,0:0:0:0:
419,138,129569,1,8,0:0:0:0:
366,318,129819,6,0,B|283:306|283:306|206:324|206:324|114:311,1,255,12|8,0:0|0:0,0:0:0:0:
69,306,130402,1,8,0:0:0:0:
69,306,130485,2,0,P|58:247|76:206,1,85,8|0,0:3|0:0,0:0:0:0:
169,70,130819,1,2,0:0:0:0:
18,106,130985,1,2,0:0:0:0:
169,70,131152,6,0,B|266:54|235:134|363:99,1,170,12|0,0:0|0:0,0:0:0:0:
448,49,131652,1,8,0:0:0:0:
448,49,131735,2,0,P|465:105|459:142,1,85,8|8,0:0|0:0,0:0:0:0:
445,169,131985,2,0,P|428:225|434:262,1,85,0|2,0:0|0:3,0:0:0:0:
451,295,132235,1,8,0:0:0:0:
275,189,132485,6,0,B|238:168|192:169|154:197|154:197|131:239|86:246|37:230,1,255,12|8,0:0|0:0,0:0:0:0:
17,222,133069,1,8,0:0:0:0:
17,222,133152,1,8,0:3:0:0:
218,274,133319,5,2,0:0:0:0:
76,141,133485,1,2,0:0:0:0:
130,329,133652,1,2,0:0:0:0:
275,189,133819,6,0,P|299:96|220:59,1,170,12|0,0:0|0:0,0:0:0:0:
217,273,134319,1,8,0:0:0:0:
246,288,134402,1,8,0:0:0:0:
277,292,134485,1,8,0:3:0:0:
308,284,134569,1,8,0:0:0:0:
335,267,134652,2,0,P|386:251|430:258,1,85,0|2,0:0|0:3,0:0:0:0:
452,265,134902,1,8,0:0:0:0:
204,135,135152,6,0,B|142:125|142:125|125:99|125:99|102:122|102:122|38:114|38:114|51:176,1,255,4|8,0:0|0:0,0:0:0:0:
36,266,135735,1,8,0:0:0:0:
36,266,135819,2,0,P|86:261|120:236,1,85,8|0,0:3|0:0,0:0:0:0:
166,326,136069,1,8,0:0:0:0:
184,308,136152,1,2,0:0:0:0:
197,286,136235,1,2,0:0:0:0:
205,262,136319,1,2,0:0:0:0:
207,237,136402,1,2,0:0:0:0:
203,212,136485,6,0,P|174:159|230:68,1,170,4|2,0:0|0:3,0:0:0:0:
328,151,136985,1,8,0:0:0:0:
442,50,137152,2,0,P|372:30|338:31,1,85,8|8,0:0|0:3,0:0:0:0:
328,151,137485,2,0,P|398:171|432:170,1,85,2|8,0:3|0:0,0:0:0:0:
512,138,137819,5,12,0:0:0:0:
72,288,139152,6,0,P|21:197|124:208,1,255,6|0,0:0|0:0,0:0:0:0:
224,296,139819,1,2,0:0:0:0:
224,296,139902,1,2,0:0:0:0:
224,296,139985,1,2,0:0:0:0:
224,296,140069,1,2,0:0:0:0:
224,296,140152,2,0,L|272:286,3,42.5,2|2|2|2,0:0|0:0|0:0|0:0,0:0:0:0:
351,244,140485,1,2,0:0:0:0:
351,244,140569,1,2,0:0:0:0:
351,244,140652,1,2,0:0:0:0:
351,244,140735,1,2,0:0:0:0:
351,244,140819,2,0,L|403:255,3,42.5,2|2|2|2,0:0|0:0|0:0|0:0,0:0:0:0:
481,309,141152,1,8,0:0:0:0:
423,155,141319,2,0,P|307:140|268:186,1,170,8|8,0:0|0:0,0:0:0:0:
138,359,141819,6,0,B|210:231|65:228|137:109,1,255,6|0,0:0|0:0,0:0:0:0:
221,46,142485,1,2,3:2:0:0:
221,46,142569,1,2,3:2:0:0:
221,46,142652,1,2,3:2:0:0:
221,46,142735,1,2,3:2:0:0:
221,45,142819,2,0,P|223:23|219:3,3,42.5,2|2|2|2,3:2|3:2|3:2|3:2,0:0:0:0:
319,123,143152,1,2,3:2:0:0:
319,123,143235,1,2,3:2:0:0:
319,123,143319,1,2,3:2:0:0:
319,123,143402,1,2,3:2:0:0:
319,124,143485,2,0,P|317:146|321:166,3,42.5,2|2|2|2,3:2|3:2|3:2|3:2,0:0:0:0:
444,93,143819,5,8,0:0:0:0:
511,201,143985,1,2,0:0:0:0:
430,300,144152,1,2,0:0:0:0:
311,251,144319,1,2,0:0:0:0:
319,124,144485,6,0,P|384:132|426:228,1,170,6|8,0:0|0:0,0:0:0:0:
342,342,144985,1,8,0:0:0:0:
221,265,145152,2,0,P|164:250|123:252,1,85,8|0,0:3|0:0,0:0:0:0:
108,278,145402,1,0,0:0:0:0:
108,278,145485,2,0,P|51:293|16:291,1,85,2|2,0:3|0:0,0:0:0:0:
83,126,145819,6,0,L|200:140,1,85,10|0,0:0|0:0,0:0:0:0:
340,63,146152,2,0,L|223:77,1,85,2|8,0:0|0:0,0:0:0:0:
319,196,146485,1,10,0:0:0:0:
319,196,146652,1,0,0:0:0:0:
440,149,146819,2,0,P|459:95|452:56,1,85,2|0,0:0|0:0,0:0:0:0:
255,73,147152,5,12,0:0:0:0:
332,229,147319,1,8,0:3:0:0:
358,56,147485,1,8,0:0:0:0:
327,267,147652,1,8,0:0:0:0:
197,163,147819,1,8,0:3:0:0:
319,142,147985,1,8,0:0:0:0:
215,273,148152,2,0,P|164:288|124:285,1,85,0|8,0:0|0:3,0:0:0:0:
28,190,148485,5,0,0:0:0:0:
197,163,148652,1,8,0:3:0:0:
132,326,148819,1,8,0:3:0:0:
28,190,148985,2,0,L|19:146,2,42.5,8|8|8,0:3|0:3|0:3,0:0:0:0:
119,238,149319,1,8,0:0:0:0:
197,163,149485,2,0,L|188:119,2,42.5,8|8|8,0:0|0:0|0:0,0:0:0:0:
297,205,149819,6,0,P|324:215|354:218,3,59.4999981842042,6|0|2|0,3:2|0:0|3:2|0:0,0:0:0:0:
275,115,150485,2,0,P|292:90|315:72,1,59.4999981842042,2|0,3:2|0:0,0:0:0:0:
403,97,150819,2,0,P|415:123|420:153,1,59.4999981842042,2|0,3:2|0:0,0:0:0:0:
354,218,151152,6,0,P|324:215|297:205,3,59.4999981842042,2|0|2|0,3:2|0:0|3:2|0:0,0:0:0:0:
420,153,151819,2,0,P|415:123|403:97,1,59.4999981842042,2|0,3:2|0:0,0:0:0:0:
315,72,152152,2,0,P|292:90|275:115,1,59.4999981842042,2|0,3:2|0:0,0:0:0:0:
287,218,152485,6,0,P|320:230|356:234,3,59.4999981842042,2|0|2|0,3:2|0:0|3:2|0:0,0:0:0:0:
260,109,153152,2,0,P|280:79|312:54,1,59.4999981842042,2|0,3:2|0:0,0:0:0:0:
413,87,153485,2,0,P|428:118|434:154,1,59.4999981842042,2|0,3:2|0:0,0:0:0:0:
356,232,153819,6,0,P|320:229|287:217,3,59.4999981842042,2|0|2|0,3:2|0:0|3:2|0:0,0:0:0:0:
435,154,154485,2,0,P|429:118|413:87,1,59.4999981842042,2|0,3:2|0:0,0:0:0:0:
309,57,154819,1,8,0:0:0:0:
32,231,155152,5,8,0:0:0:0:
199,157,155319,1,8,0:0:0:0:
108,316,155485,1,8,0:0:0:0:
88,134,155652,1,8,0:0:0:0:
211,270,155819,5,8,0:0:0:0:
32,231,155985,1,8,0:0:0:0:
199,157,156152,1,8,0:0:0:0:
108,316,156319,1,8,0:0:0:0:
88,134,156485,6,0,L|96:78,3,29.7499990921021,8|8|8|8,0:0|0:0|0:0|0:0,0:0:0:0:
182,73,156819,2,0,L|190:17,3,29.7499990921021,8|8|8|8,0:0|0:0|0:0|0:0,0:0:0:0:
285,15,157152,1,8,0:0:0:0:
314,14,157235,1,8,0:0:0:0:
343,22,157319,1,8,0:0:0:0:
368,38,157402,1,8,0:0:0:0:
386,61,157485,1,8,0:0:0:0:
398,88,157569,1,8,0:0:0:0:
400,118,157652,1,8,0:0:0:0:
394,146,157735,1,8,0:0:0:0:
379,172,157819,5,6,0:0:0:0:
159,361,159152,5,8,0:0:0:0:
156,336,159485,1,8,0:0:0:0:
153,311,159819,1,8,0:0:0:0:
149,285,159985,1,8,0:3:0:0:
148,277,160069,1,8,0:3:0:0:
147,270,160152,1,8,0:3:0:0:
146,262,160235,1,8,0:3:0:0:
145,255,160319,2,0,L|140:208,1,29.7499990921021,8|8,0:3|0:3,0:0:0:0:
59,173,160485,5,6,3:2:0:0:
72,156,160569,1,2,0:0:0:0:
88,142,160652,1,2,0:0:0:0:
107,133,160735,1,2,0:0:0:0:
127,128,160819,1,10,0:0:0:0:
149,127,160902,1,2,0:0:0:0:
169,131,160985,1,2,0:0:0:0:
189,140,161069,1,2,0:0:0:0:
209,154,161152,2,0,P|235:167|269:171,7,42.5,2|2|2|2|10|2|2|2,3:2|0:0|0:0|0:0|0:0|0:0|0:0|0:0,0:0:0:0:
314,254,161819,5,2,3:2:0:0:
330,240,161902,1,2,0:0:0:0:
342,223,161985,1,2,0:0:0:0:
351,203,162069,1,2,0:0:0:0:
355,182,162152,1,10,0:0:0:0:
354,161,162235,1,2,0:0:0:0:
348,141,162319,1,2,0:0:0:0:
338,122,162402,1,2,0:0:0:0:
322,103,162485,2,0,P|317:83|316:62,7,42.5,2|2|2|2|10|2|2|2,3:2|0:0|0:0|0:0|0:0|0:0|0:0|0:0,0:0:0:0:
223,18,163152,5,2,3:2:0:0:
202,21,163235,1,2,0:0:0:0:
181,24,163319,1,2,0:0:0:0:
160,27,163402,1,2,0:0:0:0:
139,31,163485,1,10,0:0:0:0:
118,34,163569,1,2,0:0:0:0:
97,37,163652,1,2,0:0:0:0:
76,41,163735,1,2,0:0:0:0:
55,44,163819,2,0,L|13:50,7,42.5,2|2|2|2|10|2|2|2,3:2|0:0|0:0|0:0|0:0|0:0|0:0|0:0,0:0:0:0:
50,137,164485,6,0,L|56:180,3,42.5,10|2|2|2,0:0|0:0|0:0|0:0,0:0:0:0:
107,263,164819,2,0,L|99:320,3,42.5,10|2|2|2,0:0|0:0|0:0|0:0,0:0:0:0:
158,180,165152,2,0,L|150:123,3,42.5,10|2|2|2,0:0|0:0|0:0|0:0,0:0:0:0:
209,263,165485,2,0,L|201:320,3,42.5,10|2|2|2,0:0|0:0|0:0|0:0,0:0:0:0:
283,203,165819,5,2,3:2:0:0:
304,200,165902,1,2,0:0:0:0:
325,198,165985,1,2,0:0:0:0:
346,196,166069,1,2,0:0:0:0:
367,194,166152,2,0,L|410:189,3,42.5,10|2|2|2,0:0|0:0|0:0|0:0,0:0:0:0:
472,113,166485,5,2,3:2:0:0:
451,110,166569,1,2,0:0:0:0:
430,108,166652,1,2,0:0:0:0:
409,106,166735,1,2,0:0:0:0:
388,104,166819,2,0,L|344:99,3,42.5,10|2|2|2,0:0|0:0|0:0|0:0,0:0:0:0:
274,42,167152,6,0,L|231:46,3,42.5,2|2|2|2,3:2|0:0|0:0|0:0,0:0:0:0:
181,121,167485,2,0,L|137:116,3,42.5,10|2|2|2,0:0|0:0|0:0|0:0,0:0:0:0:
65,65,167819,2,0,L|22:69,3,42.5,2|2|2|2,3:2|0:0|0:0|0:0,0:0:0:0:
49,157,168152,1,10,0:0:0:0:
52,188,168235,1,10,0:0:0:0:
55,220,168319,1,10,0:0:0:0:
58,252,168402,1,10,0:0:0:0:
61,283,168485,5,4,0:0:0:0:
169,343,168652,2,0,P|204:345|237:332,2,50.9999984436036,2|2|2,0:0|0:0|0:0,0:0:0:0:
191,255,169152,2,0,P|215:250|241:253,1,50.9999984436036,2|0,0:0|0:0,0:0:0:0:
315,307,169485,2,0,P|350:309|383:296,1,50.9999984436036,2|0,0:0|0:0,0:0:0:0:
441,254,169819,2,0,L|428:129,1,101.999996887207,2|2,0:0|0:0,0:0:0:0:
359,86,170319,1,2,0:0:0:0:
263,102,170485,2,0,L|269:153,1,50.9999984436036,2|2,0:0|0:0,0:0:0:0:
279,246,170819,1,6,0:0:0:0:
453,173,171152,5,6,3:2:0:0:
440,156,171235,1,2,0:0:0:0:
424,142,171319,1,2,0:0:0:0:
405,133,171402,1,2,0:0:0:0:
385,128,171485,1,10,0:0:0:0:
363,127,171569,1,2,0:0:0:0:
343,131,171652,1,2,0:0:0:0:
323,140,171735,1,2,0:0:0:0:
303,154,171819,2,0,P|277:167|243:171,7,42.5,2|2|2|2|10|2|2|2,3:2|0:0|0:0|0:0|0:0|0:0|0:0|0:0,0:0:0:0:
198,254,172485,5,2,3:2:0:0:
182,240,172569,1,2,0:0:0:0:
170,223,172652,1,2,0:0:0:0:
161,203,172735,1,2,0:0:0:0:
157,182,172819,1,10,0:0:0:0:
158,161,172902,1,2,0:0:0:0:
164,141,172985,1,2,0:0:0:0:
174,122,173069,1,2,0:0:0:0:
190,103,173152,2,0,P|195:83|196:62,7,42.5,2|2|2|2|10|2|2|2,3:2|0:0|0:0|0:0|0:0|0:0|0:0|0:0,0:0:0:0:
289,18,173819,5,2,3:2:0:0:
310,21,173902,1,2,0:0:0:0:
331,24,173985,1,2,0:0:0:0:
352,27,174069,1,2,0:0:0:0:
373,31,174152,1,10,0:0:0:0:
394,34,174235,1,2,0:0:0:0:
415,37,174319,1,2,0:0:0:0:
436,41,174402,1,2,0:0:0:0:
457,44,174485,2,0,L|499:50,7,42.5,2|2|2|2|10|2|2|2,3:2|0:0|0:0|0:0|0:0|0:0|0:0|0:0,0:0:0:0:
462,137,175152,6,0,L|456:180,3,42.5,10|2|2|2,0:0|0:0|0:0|0:0,0:0:0:0:
405,263,175485,2,0,L|413:320,3,42.5,10|2|2|2,0:0|0:0|0:0|0:0,0:0:0:0:
354,180,175819,2,0,L|362:123,3,42.5,10|2|2|2,0:0|0:0|0:0|0:0,0:0:0:0:
303,263,176152,2,0,L|311:320,3,42.5,10|2|2|2,0:0|0:0|0:0|0:0,0:0:0:0:
229,203,176485,5,2,3:2:0:0:
208,200,176569,1,2,0:0:0:0:
187,198,176652,1,2,0:0:0:0:
166,196,176735,1,2,0:0:0:0:
145,194,176819,2,0,L|102:189,3,42.5,10|2|2|2,0:0|0:0|0:0|0:0,0:0:0:0:
40,113,177152,5,2,3:2:0:0:
61,110,177235,1,2,0:0:0:0:
82,108,177319,1,2,0:0:0:0:
103,106,177402,1,2,0:0:0:0:
124,104,177485,2,0,L|168:99,3,42.5,10|2|2|2,0:0|0:0|0:0|0:0,0:0:0:0:
238,42,177819,6,0,L|280:46,3,42.5,2|2|2|2,3:2|0:0|0:0|0:0,0:0:0:0:
331,121,178152,2,0,L|375:116,3,42.5,10|2|2|2,0:0|0:0|0:0|0:0,0:0:0:0:
447,65,178485,2,0,L|489:69,3,42.5,2|2|2|2,3:2|0:0|0:0|0:0,0:0:0:0:
463,157,178819,1,10,0:0:0:0:
459,188,178902,1,2,0:0:0:0:
456,220,178985,1,2,0:0:0:0:
453,252,179069,1,2,0:0:0:0:
450,283,179152,5,2,3:2:0:0:
425,317,179235,1,2,0:0:0:0:
388,336,179319,1,10,0:0:0:0:
346,336,179402,1,2,0:0:0:0:
308,316,179485,2,0,P|287:306|264:304,3,42.5,10|2|10|2,0:0|0:0|0:0|0:0,0:0:0:0:
170,339,179819,5,10,0:0:0:0:
133,358,179902,1,2,0:0:0:0:
91,354,179985,1,10,0:0:0:0:
58,328,180069,1,2,0:0:0:0:
45,288,180152,2,0,L|51:233,3,42.5,10|2|10|2,0:0|0:0|0:0|0:0,0:0:0:0:
128,183,180485,6,0,L|123:144,11,28.3333333333333,10|2|2|10|2|2|10|2|2|10|2|2,0:0|0:0|0:0|0:0|0:0|0:0|0:0|0:0|0:0|0:0|0:0|0:0,0:0:0:0:
51,116,181152,2,0,L|55:73,11,28.3333333333333,10|2|2|8|2|2|10|0|2|10|2|2,0:0|0:0|0:0|0:0|0:0|0:0|0:0|0:0|0:0|0:0|0:0|0:0,0:0:0:0:
119,42,181819,5,2,0:0:0:0:
256,192,181902,12,0,184402,0:0:0:0:
256,192,184485,12,4,187152,0:0:0:0:
440,40,189819,6,0,P|427:91|423:159,1,101.999996887207,2|2,0:0|0:0,0:0:0:0:
438,224,190319,1,2,0:0:0:0:
366,280,190485,1,2,0:0:0:0:
366,280,190652,2,0,P|318:268|255:268,1,101.999996887207,2|2,0:0|0:0,0:0:0:0:
194,314,191152,2,0,P|166:323|131:323,1,50.9999984436036,2|2,0:0|0:0,0:0:0:0:
61,287,191485,2,0,L|71:233,1,50.9999984436036,2|2,0:0|0:0,0:0:0:0:
147,188,191819,2,0,L|138:138,3,50.9999984436036,2|2|2|2,0:0|0:0|0:0|0:0,0:0:0:0:
73,74,192485,6,0,P|113:50|185:63,1,101.999996887207,2|2,0:0|0:0,0:0:0:0:
250,93,192985,1,2,0:0:0:0:
324,28,193152,1,2,0:0:0:0:
324,28,193319,2,0,P|348:68|335:140,1,101.999996887207,2|2,0:0|0:0,0:0:0:0:
315,202,193819,6,0,P|298:248|298:272,1,50.9999984436036,2|2,0:0|0:0,0:0:0:0:
411,298,194152,2,0,P|405:273|393:250,1,50.9999984436036,2|2,0:0|0:0,0:0:0:0:
314,339,194485,2,0,L|244:330,1,50.9999984436036,2|2,0:0|0:0,0:0:0:0:
236,315,194735,1,2,0:0:0:0:
236,315,194819,2,0,L|185:321,1,50.9999984436036,2|2,0:0|0:0,0:0:0:0:
93,332,195152,6,0,P|78:281|94:220,1,101.999996887207,2|2,0:0|0:0,0:0:0:0:
112,155,195652,1,2,0:0:0:0:
41,88,195819,1,2,0:0:0:0:
41,88,195985,2,0,P|88:58|152:68,1,101.999996887207,2|2,0:0|0:0,0:0:0:0:
202,119,196485,6,0,L|210:175,1,50.9999984436036,2|2,0:0|0:0,0:0:0:0:
295,127,196819,2,0,L|302:76,1,50.9999984436036,2|2,0:0|0:0,0:0:0:0:
389,117,197152,2,0,L|397:173,1,50.9999984436036,2|2,0:0|0:0,0:0:0:0:
396,167,197402,1,0,0:0:0:0:
396,167,197485,1,2,0:0:0:0:
486,135,197652,1,2,0:0:0:0:
436,253,197819,6,0,P|400:262|374:260,1,50.9999984436036,2|2,0:0|0:0,0:0:0:0:
299,245,198152,1,2,0:0:0:0:
312,346,198319,2,0,L|298:241,1,101.999996887207,2|2,0:0|0:0,0:0:0:0:
202,209,198819,1,2,0:0:0:0:
215,310,198985,2,0,L|201:205,1,101.999996887207,2|2,0:0|0:0,0:0:0:0:
103,171,199485,1,2,0:0:0:0:
117,273,199652,2,0,L|103:168,1,101.999996887207,2|2,0:0|0:0,0:0:0:0:
21,233,200152,1,2,0:0:0:0:
120,284,200319,1,2,0:0:0:0:
32,340,200485,5,2,0:0:0:0:
256,192,200569,12,2,202819,0:0:0:0:
408,77,203152,6,0,P|489:33|460:133,1,237.999992736817,6|2,0:0|0:0,0:0:0:0:
428,314,204485,2,0,L|407:67,1,237.999992736817,2|2,0:0|0:0,0:0:0:0:
331,151,205485,1,2,0:0:0:0:
272,63,205819,6,0,B|145:37|175:150|39:114,1,237.999992736817,6|2,0:0|0:0,0:0:0:0:
27,319,207152,2,0,B|88:350|135:300|135:300|195:338|264:289,1,237.999992736817,2|2,0:0|0:0,0:0:0:0:
71,242,208152,1,2,0:0:0:0:
192,228,208485,6,0,P|298:202|330:325,2,237.999992736817,6|2|2,0:0|0:0|0:0,0:0:0:0:
340,303,210485,1,2,0:0:0:0:
412,214,210819,1,2,0:0:0:0:
370,105,211152,6,0,B|333:30|267:30|267:30|236:72|157:80,2,237.999992736817,6|2|2,0:0|0:0|0:0,0:0:0:0:
178,77,213152,1,2,0:0:0:0:
266,143,213485,1,2,0:0:0:0:
166,185,213819,6,0,L|85:171,1,68,14|0,0:0|0:0,0:0:0:0:
37,282,214152,2,0,L|104:293,1,68,8|2,0:0|0:0,0:0:0:0:
197,359,214485,1,10,0:0:0:0:
212,338,214569,1,2,0:0:0:0:
220,314,214652,1,2,0:0:0:0:
221,289,214735,1,2,0:0:0:0:
214,265,214819,1,10,0:0:0:0:
105,274,214985,1,8,0:0:0:0:
166,185,215152,6,0,P|177:153|176:119,1,68,8|0,0:0|0:0,0:0:0:0:
230,37,215485,2,0,P|251:63|281:78,1,68,8|0,0:0|0:0,0:0:0:0:
326,166,215819,2,0,P|292:171|264:189,1,68,8|0,0:0|0:0,0:0:0:0:
166,185,216152,1,8,0:0:0:0:
230,37,216319,1,8,0:0:0:0:
326,166,216485,6,0,L|337:245,1,68,8|0,0:0|0:0,0:0:0:0:
413,280,216819,2,0,L|475:230,1,68,8|0,0:0|0:0,0:0:0:0:
469,148,217152,2,0,L|395:118,1,68,8|0,0:0|0:0,0:0:0:0:
326,166,217485,1,8,0:0:0:0:
413,280,217652,1,8,0:0:0:0:
270,298,217819,6,0,P|228:313|200:310,1,68,8|0,0:0|0:0,0:0:0:0:
91,281,218152,1,8,0:0:0:0:
91,281,218319,1,8,0:0:0:0:
218,223,218485,1,8,0:0:0:0:
103,152,218652,1,8,0:0:0:0:
103,152,218735,1,8,0:0:0:0:
103,152,218819,1,8,0:0:0:0:
205,311,218985,1,8,0:0:0:0:
297,142,219152,6,0,P|248:127|211:124,1,68,8|8,0:0|0:0,0:0:0:0:
301,272,219485,2,0,P|334:266|366:254,1,68,8|8,0:0|0:0,0:0:0:0:
276,121,219819,2,0,P|227:106|190:103,1,68,8|8,0:0|0:0,0:0:0:0:
335,288,220152,2,0,P|368:282|400:270,1,68,8|8,0:0|0:0,0:0:0:0:
484,193,220485,5,8,0:0:0:0:
483,184,220569,1,8,0:0:0:0:
482,176,220652,1,8,0:0:0:0:
481,167,220735,1,8,0:0:0:0:
480,159,220819,1,8,0:0:0:0:
479,150,220902,1,8,0:0:0:0:
478,142,220985,1,8,0:0:0:0:
477,133,221069,1,8,0:0:0:0:
476,125,221152,1,8,0:0:0:0:
475,116,221235,1,8,0:0:0:0:
474,108,221319,1,8,0:0:0:0:
474,100,221402,1,8,0:0:0:0:
473,91,221485,1,8,0:0:0:0:
472,83,221569,1,8,0:0:0:0:
471,74,221652,1,8,0:0:0:0:
470,66,221735,1,8,0:0:0:0:
469,57,221819,5,14,0:0:0:0:
256,192,222819,1,8,0:0:0:0:
256,192,223152,5,14,0:0:0:0:
42,57,224152,1,8,0:0:0:0:
42,57,224485,5,14,0:0:0:0:
256,353,225485,1,8,0:0:0:0:
256,353,225819,5,14,0:0:0:0:
256,31,226819,1,8,0:0:0:0:
58,333,227152,6,0,L|106:324,3,42.5,8|8|8|8,0:0|0:3|0:3|0:3,0:0:0:0:
170,272,227485,2,0,L|211:279,3,42.5,8|8|8|8,0:0|0:3|0:3|0:3,0:0:0:0:
256,353,227819,2,0,L|304:344,3,42.5,8|8|8|8,0:0|0:3|0:3|0:3,0:0:0:0:
368,292,228152,2,0,L|409:299,3,42.5,8|8|8|8,0:0|0:3|0:3|0:3,0:0:0:0:
496,266,228485,5,8,0:0:0:0:
486,224,228569,1,8,0:3:0:0:
457,194,228652,1,8,0:3:0:0:
417,184,228735,1,8,0:3:0:0:
378,196,228819,1,8,0:0:0:0:
339,208,228902,1,8,0:3:0:0:
299,198,228985,1,8,0:3:0:0:
269,168,229069,1,8,0:3:0:0:
262,127,229152,2,0,L|257:85,3,42.5,8|8|8|8,0:0|0:0|0:0|0:0,0:0:0:0:
143,171,229485,2,0,L|138:213,3,42.5,8|8|8|8,0:0|0:0|0:0|0:0,0:0:0:0:
32,100,229819,5,14,0:0:0:0:
256,192,230985,5,8,0:0:0:0:
256,192,231319,1,8,0:0:0:0:
200,287,231485,1,8,0:0:0:0:
200,96,231652,1,8,0:0:0:0:
366,192,231819,1,8,0:0:0:0:
200,287,232152,1,8,0:1:0:0:
200,96,232485,6,0,L|301:82,1,85,6|0,0:0|0:0,0:0:0:0:
115,28,232819,2,0,L|25:39,1,85,8|0,0:0|0:0,0:0:0:0:
76,214,233152,2,0,P|92:175|89:117,1,85,2|0,0:0|0:0,0:0:0:0:
206,13,233485,2,0,P|195:59|206:113,1,85,8|0,0:0|0:0,0:0:0:0:
280,241,233819,5,6,0:0:0:0:
434,161,233985,1,0,0:0:0:0:
264,136,234152,1,8,0:0:0:0:
387,258,234319,1,0,0:0:0:0:
358,86,234485,1,2,0:0:0:0:
358,86,234819,1,8,0:0:0:0:
264,136,234985,1,0,0:0:0:0:
168,87,235152,6,0,L|154:-2,1,85,6|0,0:0|0:0,0:0:0:0:
76,170,235485,2,0,L|62:81,1,85,8|0,0:0|0:0,0:0:0:0:
26,273,235819,2,0,P|70:287|121:280,1,85,2|0,0:0|0:0,0:0:0:0:
277,224,236152,1,8,0:0:0:0:
182,206,236319,1,0,0:0:0:0:
238,347,236485,6,0,P|319:349|364:315,1,127.5,6|2,0:0|0:0,0:0:0:0:
393,300,236819,2,0,B|407:254|407:254|395:218,1,85,10|2,0:0|0:0,0:0:0:0:
253,69,237152,2,0,B|239:115|239:115|250:150,1,85,10|8,0:0|0:3,0:0:0:0:
277,224,237402,1,8,0:3:0:0:
277,224,237485,1,8,0:0:0:0:
446,136,237652,1,8,0:0:0:0:
253,69,237819,6,0,P|168:80|141:90,1,85,6|0,0:0|0:0,0:0:0:0:
36,161,238152,2,0,P|110:170|138:183,1,85,8|0,0:0|0:0,0:0:0:0:
221,301,238485,2,0,L|233:200,1,85,2|0,0:0|0:0,0:0:0:0:
362,109,238819,2,0,L|379:217,1,85,8|0,0:0|0:0,0:0:0:0:
452,346,239152,5,4,0:0:0:0:
308,273,239319,1,0,0:0:0:0:
469,210,239485,1,8,0:0:0:0:
348,354,239652,1,0,0:0:0:0:
291,165,239819,1,2,0:0:0:0:
176,318,239985,1,8,0:3:0:0:
176,318,240069,1,8,0:3:0:0:
176,318,240152,1,10,0:0:0:0:
308,273,240319,1,8,0:0:0:0:
193,78,240485,6,0,P|123:91|103:102,1,85,6|2,0:0|0:0,0:0:0:0:
6,159,240819,1,10,0:0:0:0:
226,291,241152,6,0,P|296:278|316:267,1,85,2|2,0:0|0:0,0:0:0:0:
413,210,241486,1,10,0:0:0:0:
193,78,241819,5,14,0:0:0:0:
116,250,241985,1,10,0:0:0:0:
304,155,242152,1,10,0:0:0:0:
111,46,242319,1,10,0:0:0:0:
233,234,242485,2,0,P|281:258|359:243,1,127.5,10|8,0:0|0:0,0:0:0:0:
432,209,242819,1,8,0:0:0:0:
315,70,242985,1,8,0:3:0:0:
315,70,243069,1,8,0:3:0:0:
315,70,243152,6,0,L|300:184,1,85,6|0,0:0|0:0,0:0:0:0:
244,318,243485,2,0,L|232:233,1,85,8|0,0:0|0:0,0:0:0:0:
127,99,243819,2,0,P|185:100|232:128,1,85,2|0,0:0|0:0,0:0:0:0:
54,252,244152,2,0,P|96:254|136:240,1,85,8|0,0:0|0:0,0:0:0:0:
303,154,244485,5,14,0:0:0:0:
80,111,244652,1,0,0:0:0:0:
315,70,244819,5,10,0:0:0:0:
244,318,244985,1,0,0:0:0:0:
197,26,245152,2,0,L|212:135,1,85,10|0,0:0|0:0,0:0:0:0:
365,274,245485,5,10,0:0:0:0:
406,282,245568,1,8,0:0:0:0:
445,269,245651,1,8,0:0:0:0:
472,237,245735,1,8,0:0:0:0:
478,194,245819,6,0,P|471:134|454:111,1,85,6|0,0:0|0:0,0:0:0:0:
302,78,246152,2,0,P|324:42|361:21,1,85,8|0,0:0|0:0,0:0:0:0:
348,231,246485,2,0,P|306:229|270:209,1,85,2|0,0:0|0:0,0:0:0:0:
119,109,246819,1,8,0:0:0:0:
229,93,246985,1,0,0:0:0:0:
150,223,247152,6,0,L|162:357,1,127.5,6|0,0:0|0:0,0:0:0:0:
120,367,247485,2,0,L|111:273,1,85,8|0,0:0|0:0,0:0:0:0:
138,130,247819,1,2,0:0:0:0:
138,130,247985,1,0,0:0:0:0:
239,255,248152,1,8,0:0:0:0:
239,255,248318,1,8,0:0:0:0:
384,69,248485,6,0,B|400:103|400:103|391:159,1,85,6|2,0:0|0:0,0:0:0:0:
365,281,248819,1,10,0:0:0:0:
220,43,249152,6,0,B|204:77|204:77|213:133,1,85,2|2,0:0|0:0,0:0:0:0:
239,255,249486,1,10,0:0:0:0:
384,69,249819,5,6,0:0:0:0:
211,123,249985,1,10,0:0:0:0:
427,202,250152,1,10,0:0:0:0:
193,144,250319,1,10,0:0:0:0:
421,60,250485,1,8,0:0:0:0:
358,290,250652,1,8,0:0:0:0:
358,290,250735,1,8,0:0:0:0:
358,290,250819,1,8,0:0:0:0:
323,135,250985,1,8,0:0:0:0:
173,294,251152,5,14,0:0:0:0:
153,330,251235,1,8,0:0:0:0:
116,351,251318,1,8,0:0:0:0:
74,349,251402,1,8,0:0:0:0:
40,325,251485,1,8,0:0:0:0:
24,286,251568,1,8,0:0:0:0:
32,245,251652,1,8,0:0:0:0:
60,214,251735,1,8,0:0:0:0:
101,203,251819,2,0,L|130:199,14,21.25,10|8|8|8|8|8|8|8|8|8|8|8|8|8|8,0:0|0:0|0:0|0:0|0:0|0:0|0:0|0:0|0:0|0:0|0:0|0:0|0:0|0:0|0:0,0:0:0:0:
199,156,252485,6,0,P|211:197|207:228,1,68,6|2,0:0|0:0,0:0:0:0:
288,104,252819,2,0,P|329:124|363:124,1,68,2|2,0:0|0:0,0:0:0:0:
231,13,253152,2,0,P|199:61|113:61,1,136,2|8,0:0|0:0,0:0:0:0:
125,67,253652,1,0,0:0:0:0:
207,221,253819,5,14,0:0:0:0:
236,251,253902,1,8,0:0:0:0:
275,268,253985,1,8,0:0:0:0:
317,266,254069,1,8,0:0:0:0:
355,247,254152,1,8,0:0:0:0:
385,218,254235,1,8,0:0:0:0:
402,179,254318,1,8,0:0:0:0:
400,137,254402,1,8,0:0:0:0:
381,99,254485,2,0,L|372:71,14,21.25,10|8|8|8|8|8|8|8|8|8|8|8|8|8|8,0:0|0:0|0:0|0:0|0:0|0:0|0:0|0:0|0:0|0:0|0:0|0:0|0:0|0:0|0:0,0:0:0:0:
306,168,255152,6,0,L|232:155,1,68,6|2,0:0|0:0,0:0:0:0:
355,247,255485,2,0,L|429:234,1,68,2|2,0:0|0:0,0:0:0:0:
311,325,255819,2,0,L|169:300,1,136,2|8,0:0|0:0,0:0:0:0:
58,24,256485,6,0,P|1:82|23:160,1,170,14|8,0:0|0:3,0:0:0:0:
117,108,256985,1,0,0:0:0:0:
194,220,257152,2,0,P|106:205|102:205,1,85,8|0,0:3|0:0,0:0:0:0:
298,111,257485,2,0,P|255:115|214:125,1,85,8|0,0:3|0:0,0:0:0:0:
406,245,257819,5,8,0:3:0:0:
427,119,257985,1,8,0:0:0:0:
484,265,258152,1,0,0:3:0:0:
351,175,258319,1,8,0:0:0:0:
324,338,258485,1,8,0:3:0:0:
324,338,258569,1,8,0:3:0:0:
324,338,258652,1,8,0:0:0:0:
324,338,258735,1,8,0:0:0:0:
324,338,258819,1,8,0:3:0:0:
455,191,258985,1,8,0:0:0:0:
245,266,259152,6,0,L|235:180,1,85,14|8,0:0|0:0,0:0:0:0:
334,24,259485,2,0,L|343:108,1,85,8|8,0:0|0:0,0:0:0:0:
232,283,259819,2,0,L|222:197,1,85,10|8,0:0|0:0,0:0:0:0:
356,9,260152,2,0,L|365:93,1,85,8|8,0:0|0:0,0:0:0:0:
144,100,260485,6,0,P|182:83|224:84,1,85,10|8,0:0|0:0,0:0:0:0:
433,206,260819,2,0,P|394:222|352:221,1,85,8|8,0:0|0:0,0:0:0:0:
128,86,261152,2,0,P|166:69|208:70,1,85,10|8,0:0|0:0,0:0:0:0:
456,232,261485,2,0,P|417:248|375:247,1,85,8|8,0:0|0:0,0:0:0:0:
224,336,261819,5,8,0:0:0:0:
193,365,261902,1,8,0:0:0:0:
153,378,261985,1,8,0:0:0:0:
112,370,262069,1,8,0:0:0:0:
80,343,262152,1,8,0:0:0:0:
64,304,262235,1,8,0:0:0:0:
69,262,262319,1,8,0:0:0:0:
93,228,262402,1,8,0:0:0:0:
131,209,262485,5,8,0:0:0:0:
172,222,262568,1,8,0:0:0:0:
213,215,262651,1,8,0:0:0:0:
246,190,262734,1,8,0:0:0:0:
265,151,262818,1,8,0:0:0:0:
272,110,262902,1,8,0:0:0:0:
263,69,262985,1,8,0:0:0:0:
237,35,263068,1,8,0:0:0:0:
200,15,263152,6,0,L|168:25,14,21.25,14|8|8|8|8|8|8|0|8|8|8|8|8|8|8,0:0|0:0|0:0|0:0|0:0|0:0|0:0|0:0|0:0|0:0|0:0|0:0|0:0|0:0|0:0,0:0:0:0:
122,80,263819,6,0,L|111:86,28,10.625,10|8|8|8|8|8|8|8|8|8|8|8|8|0|0|0|8|8|8|8|8|8|8|8|8|8|8|8|8,0:0|0:0|0:0|0:0|0:0|0:0|0:0|0:0|0:0|0:0|0:0|0:0|0:0|0:0|0:0|0:0|0:0|0:0|0:0|0:0|0:0|0:0|0:0|0:0|0:0|0:0|0:0|0:0|0:0,0:0:0:0:
198,108,264485,5,6,0:0:0:0:
256,192,264569,12,0,272485,0:0:0:0:
256,192,273152,5,2,0:0:0:0:
300,329,273819,5,2,0:0:0:0:
139,277,274152,1,2,0:0:0:0:
139,106,274485,1,2,0:0:0:0:
300,54,274819,1,2,0:0:0:0:
400,192,275152,5,4,0:0:0:0:
256,192,275235,12,0,280485,0:0:0:0:
