osu file format v14

[General]
AudioFilename: audio.ogg
AudioLeadIn: 0
PreviewTime: 91790
Countdown: 0
SampleSet: Soft
StackLeniency: 0.7
Mode: 3
LetterboxInBreaks: 0
SpecialStyle: 0
WidescreenStoryboard: 1

[Editor]
DistanceSpacing: 1.8
BeatDivisor: 4
GridSize: 8
TimelineZoom: 2

[Metadata]
Title:Himiko
TitleUnicode:卑弥呼
Artist:Suzaku vs. Genbu
ArtistUnicode:朱雀 vs. 玄武
Creator:Xinhong1003
Version:Beginner
Source:beatmania IIDX 16 EMPRESS
Tags:esoteric speedcore SDVX SOUND VOLTEX VIVID WAVE Electronic Video Game Instrumental DJ YOSHITAKA wac konami Jun Wakita Nishimura 西村 宜隆 脇田 潤 BEMANI taba2
BeatmapID:4304993
BeatmapSetID:2055169

[Difficulty]
HPDrainRate:7
CircleSize:7
OverallDifficulty:7
ApproachRate:5
SliderMultiplier:1.4
SliderTickRate:1

[Events]
//Background and Video events
0,0,"HIMIKO BG.jpg",0,0
//Break Periods
//Storyboard Layer 0 (Background)
//Storyboard Layer 1 (Fail)
//Storyboard Layer 2 (Pass)
//Storyboard Layer 3 (Foreground)
//Storyboard Layer 4 (Overlay)
//Storyboard Sound Samples

[TimingPoints]
332,324.324324324324,4,2,1,40,1,0
39899,324.324324324324,4,2,1,40,1,0
46061,324.324324324324,4,2,1,40,1,0
91142,324.324324324324,3,2,1,40,1,0
92114,324.324324324324,4,2,1,40,1,1
112870,681.818181818182,4,2,1,40,1,0
112870,-47.6190476190476,4,2,1,40,0,0
118332,705.882352941176,4,2,1,40,1,0
118332,-45.8715596330275,4,2,1,40,0,0
123020,757.097791798106,4,2,1,40,1,0
123020,-42.83784,4,2,1,40,0,0
123303,705.882352941176,4,2,1,40,1,8
123303,-45.8715596330275,4,2,1,40,0,0
123498,705.882352941176,4,2,1,40,1,0
123498,-45.8715596330275,4,2,1,40,0,0
124042,722.89156626506,4,2,1,40,1,0
124042,-44.8430493273543,4,2,1,40,0,0
124756,722.89156626506,4,2,1,40,1,0
124756,-44.8430493273543,4,2,1,40,0,0

[HitObjects]
109,192,332,5,0,0:0:0:0:
402,192,980,1,0,0:0:0:0:
36,192,1629,1,0,0:0:0:0:
256,192,1953,1,0,0:0:0:0:
475,192,2277,1,0,0:0:0:0:
329,192,2926,1,0,0:0:0:0:
36,192,4223,1,0,0:0:0:0:
109,192,4710,1,0,0:0:0:0:
256,192,5196,1,0,0:0:0:0:
402,192,5683,1,0,0:0:0:0:
475,192,6007,1,0,0:0:0:0:
182,192,7467,1,0,0:0:0:0:
329,192,7791,1,0,0:0:0:0:
36,192,8115,1,0,0:0:0:0:
475,192,8115,1,0,0:0:0:0:
402,192,8440,1,0,0:0:0:0:
329,192,8764,1,0,0:0:0:0:
256,192,9088,1,0,0:0:0:0:
36,192,9413,1,0,0:0:0:0:
109,192,9737,1,0,0:0:0:0:
182,192,10061,1,0,0:0:0:0:
256,192,10386,1,0,0:0:0:0:
329,192,10710,1,0,0:0:0:0:
475,192,11034,1,0,0:0:0:0:
256,192,11359,1,0,0:0:0:0:
402,192,11683,1,0,0:0:0:0:
182,192,12007,1,0,0:0:0:0:
329,192,12331,1,0,0:0:0:0:
109,192,12656,1,0,0:0:0:0:
256,192,12980,1,0,0:0:0:0:
36,192,13304,1,0,0:0:0:0:
182,192,13629,1,0,0:0:0:0:
475,192,13953,1,0,0:0:0:0:
329,192,14277,1,0,0:0:0:0:
182,192,14602,1,0,0:0:0:0:
36,192,14926,1,0,0:0:0:0:
329,192,15250,1,0,0:0:0:0:
475,192,15575,1,0,0:0:0:0:
256,192,15899,1,0,0:0:0:0:
36,192,16223,1,0,0:0:0:0:
329,192,16548,1,0,0:0:0:0:
109,192,16872,1,0,0:0:0:0:
256,192,17196,1,0,0:0:0:0:
475,192,17196,1,0,0:0:0:0:
402,192,17359,1,0,0:0:0:0:
182,192,17845,1,0,0:0:0:0:
36,192,18169,1,0,0:0:0:0:
256,192,18169,1,0,0:0:0:0:
329,192,18331,1,0,0:0:0:0:
475,192,18494,1,0,0:0:0:0:
109,192,18494,1,0,0:0:0:0:
402,192,18818,1,0,0:0:0:0:
329,192,19142,1,0,0:0:0:0:
256,192,19467,1,0,0:0:0:0:
402,192,19791,1,0,0:0:0:0:
36,192,19791,1,0,0:0:0:0:
109,192,20115,1,0,0:0:0:0:
182,192,20440,1,0,0:0:0:0:
256,192,20764,1,0,0:0:0:0:
329,192,21088,1,0,0:0:0:0:
109,192,21088,1,0,0:0:0:0:
475,192,21413,1,0,0:0:0:0:
36,192,21737,1,0,0:0:0:0:
329,192,22061,1,0,0:0:0:0:
182,192,22386,1,0,0:0:0:0:
402,192,22386,1,0,0:0:0:0:
36,192,22710,1,0,0:0:0:0:
475,192,23034,1,0,0:0:0:0:
329,192,23359,1,0,0:0:0:0:
36,192,23683,1,0,0:0:0:0:
256,192,23683,1,0,0:0:0:0:
109,192,24007,1,0,0:0:0:0:
402,192,24331,1,0,0:0:0:0:
329,192,24656,1,0,0:0:0:0:
256,192,24980,1,0,0:0:0:0:
475,192,24980,1,0,0:0:0:0:
402,192,25304,1,0,0:0:0:0:
109,192,25629,1,0,0:0:0:0:
182,192,25953,1,0,0:0:0:0:
475,192,26277,1,0,0:0:0:0:
256,192,26277,1,0,0:0:0:0:
109,192,26602,1,0,0:0:0:0:
329,192,26926,1,0,0:0:0:0:
182,192,27250,1,0,0:0:0:0:
475,192,27575,1,0,0:0:0:0:
36,192,27575,1,0,0:0:0:0:
329,192,27737,1,0,0:0:0:0:
109,192,28223,1,0,0:0:0:0:
182,192,28223,1,0,0:0:0:0:
402,192,28548,1,0,0:0:0:0:
329,192,28548,1,0,0:0:0:0:
36,192,28872,1,0,0:0:0:0:
475,192,28872,1,0,0:0:0:0:
109,192,30169,1,0,0:0:0:0:
402,192,30169,1,0,0:0:0:0:
182,192,31467,1,0,0:0:0:0:
329,192,31467,1,0,0:0:0:0:
36,192,32764,1,0,0:0:0:0:
475,192,32764,1,0,0:0:0:0:
109,192,33413,1,0,0:0:0:0:
402,192,33413,1,0,0:0:0:0:
256,192,33737,1,0,0:0:0:0:
329,192,34061,1,0,0:0:0:0:
182,192,34061,1,0,0:0:0:0:
402,192,34386,1,0,0:0:0:0:
109,192,34710,1,0,0:0:0:0:
182,192,35034,1,0,0:0:0:0:
256,192,35359,1,0,0:0:0:0:
475,192,35683,1,0,0:0:0:0:
182,192,36007,1,0,0:0:0:0:
402,192,36331,1,0,0:0:0:0:
109,192,36656,1,0,0:0:0:0:
329,192,36980,1,0,0:0:0:0:
36,192,37304,1,0,0:0:0:0:
256,192,37629,1,0,0:0:0:0:
475,192,37953,1,0,0:0:0:0:
182,192,37953,1,0,0:0:0:0:
402,192,38602,1,0,0:0:0:0:
109,192,38926,1,0,0:0:0:0:
329,192,39250,1,0,0:0:0:0:
182,192,39575,1,0,0:0:0:0:
36,192,39899,1,0,0:0:0:0:
475,192,39899,1,0,0:0:0:0:
109,192,40223,1,0,0:0:0:0:
329,192,40547,1,0,0:0:0:0:
402,192,40871,1,0,0:0:0:0:
36,192,41196,1,0,0:0:0:0:
329,192,41520,1,0,0:0:0:0:
256,192,41844,1,0,0:0:0:0:
182,192,42169,1,0,0:0:0:0:
402,192,42493,1,0,0:0:0:0:
475,192,42817,1,0,0:0:0:0:
182,192,43142,1,0,0:0:0:0:
256,192,43466,1,0,0:0:0:0:
329,192,43790,1,0,0:0:0:0:
36,192,43790,1,0,0:0:0:0:
109,192,44439,1,0,0:0:0:0:
402,192,44763,1,0,0:0:0:0:
182,192,45088,1,0,0:0:0:0:
329,192,45412,1,0,0:0:0:0:
256,192,45736,1,0,0:0:0:0:
475,192,46061,1,0,0:0:0:0:
36,192,46061,1,0,0:0:0:0:
109,192,46709,1,0,0:0:0:0:
182,192,47358,1,0,0:0:0:0:
256,192,48006,1,0,0:0:0:0:
329,192,48655,1,0,0:0:0:0:
475,192,49304,1,0,0:0:0:0:
329,192,49628,1,0,0:0:0:0:
109,192,49952,1,0,0:0:0:0:
402,192,50601,1,0,0:0:0:0:
256,192,51250,1,0,0:0:0:0:
36,192,51898,1,0,0:0:0:0:
182,192,52547,1,0,0:0:0:0:
475,192,53196,1,0,0:0:0:0:
256,192,53520,1,0,0:0:0:0:
36,192,53844,1,0,0:0:0:0:
402,192,54493,1,0,0:0:0:0:
109,192,54817,1,0,0:0:0:0:
329,192,55142,1,0,0:0:0:0:
182,192,55466,1,0,0:0:0:0:
256,192,55790,1,0,0:0:0:0:
36,192,56439,1,0,0:0:0:0:
475,192,56439,1,0,0:0:0:0:
329,192,57088,1,0,0:0:0:0:
182,192,57736,1,0,0:0:0:0:
36,192,58385,1,0,0:0:0:0:
402,192,59033,1,0,0:0:0:0:
109,192,59682,1,0,0:0:0:0:
256,192,60006,1,0,0:0:0:0:
475,192,60331,1,0,0:0:0:0:
36,192,60979,1,0,0:0:0:0:
402,192,61628,1,0,0:0:0:0:
329,192,62277,1,0,0:0:0:0:
182,192,62925,1,0,0:0:0:0:
36,192,63574,1,0,0:0:0:0:
475,192,63898,1,0,0:0:0:0:
256,192,64223,1,0,0:0:0:0:
182,192,64871,1,0,0:0:0:0:
402,192,65196,1,0,0:0:0:0:
109,192,65520,1,0,0:0:0:0:
329,192,66169,1,0,0:0:0:0:
182,192,66493,1,0,0:0:0:0:
36,192,66817,1,0,0:0:0:0:
475,192,66817,1,0,0:0:0:0:
402,192,67142,1,0,0:0:0:0:
329,192,67466,1,0,0:0:0:0:
36,192,67790,1,0,0:0:0:0:
109,192,68115,1,0,0:0:0:0:
182,192,68439,1,0,0:0:0:0:
402,192,68763,1,0,0:0:0:0:
329,192,69088,1,0,0:0:0:0:
256,192,69412,1,0,0:0:0:0:
109,192,69736,1,0,0:0:0:0:
182,192,70060,1,0,0:0:0:0:
256,192,70385,1,0,0:0:0:0:
329,192,70709,1,0,0:0:0:0:
402,192,71033,1,0,0:0:0:0:
475,192,71358,1,0,0:0:0:0:
182,192,71682,1,0,0:0:0:0:
109,192,72006,1,0,0:0:0:0:
36,192,72331,1,0,0:0:0:0:
256,192,72655,1,0,0:0:0:0:
329,192,72979,1,0,0:0:0:0:
402,192,73304,1,0,0:0:0:0:
256,192,73628,1,0,0:0:0:0:
182,192,73952,1,0,0:0:0:0:
109,192,74277,1,0,0:0:0:0:
475,192,74601,1,0,0:0:0:0:
329,192,74925,1,0,0:0:0:0:
182,192,75250,1,0,0:0:0:0:
36,192,75574,1,0,0:0:0:0:
182,192,75898,1,0,0:0:0:0:
329,192,76223,1,0,0:0:0:0:
402,192,76547,1,0,0:0:0:0:
256,192,76871,1,0,0:0:0:0:
109,192,77196,1,0,0:0:0:0:
475,192,77520,1,0,0:0:0:0:
329,192,77844,1,0,0:0:0:0:
182,192,78169,1,0,0:0:0:0:
36,192,78493,1,0,0:0:0:0:
182,192,78817,1,0,0:0:0:0:
329,192,79142,1,0,0:0:0:0:
109,192,79466,1,0,0:0:0:0:
256,192,79790,1,0,0:0:0:0:
402,192,80115,1,0,0:0:0:0:
475,192,80439,1,0,0:0:0:0:
256,192,80763,1,0,0:0:0:0:
402,192,81088,1,0,0:0:0:0:
109,192,81088,1,0,0:0:0:0:
36,192,81412,1,0,0:0:0:0:
256,192,81736,1,0,0:0:0:0:
182,192,82060,1,0,0:0:0:0:
402,192,82385,1,0,0:0:0:0:
109,192,82385,1,0,0:0:0:0:
475,192,82709,1,0,0:0:0:0:
256,192,83033,1,0,0:0:0:0:
329,192,83358,1,0,0:0:0:0:
109,192,83682,1,0,0:0:0:0:
402,192,83682,1,0,0:0:0:0:
36,192,84006,1,0,0:0:0:0:
256,192,84331,1,0,0:0:0:0:
182,192,84655,1,0,0:0:0:0:
402,192,84979,1,0,0:0:0:0:
109,192,84979,1,0,0:0:0:0:
475,192,85304,1,0,0:0:0:0:
256,192,85628,1,0,0:0:0:0:
329,192,85952,1,0,0:0:0:0:
109,192,86277,1,0,0:0:0:0:
402,192,86277,1,0,0:0:0:0:
182,192,86601,1,0,0:0:0:0:
475,192,86925,1,0,0:0:0:0:
256,192,87250,1,0,0:0:0:0:
109,192,87574,1,0,0:0:0:0:
402,192,87574,1,0,0:0:0:0:
329,192,87898,1,0,0:0:0:0:
36,192,88223,1,0,0:0:0:0:
256,192,88547,1,0,0:0:0:0:
402,192,88871,1,0,0:0:0:0:
109,192,88871,1,0,0:0:0:0:
329,192,89196,1,0,0:0:0:0:
256,192,89520,1,0,0:0:0:0:
182,192,89844,1,0,0:0:0:0:
402,192,90169,1,0,0:0:0:0:
109,192,90169,1,0,0:0:0:0:
475,192,90493,1,0,0:0:0:0:
36,192,90817,1,0,0:0:0:0:
182,192,91142,1,0,0:0:0:0:
329,192,91142,1,0,0:0:0:0:
256,192,91790,1,0,0:0:0:0:
402,192,92114,1,0,0:0:0:0:
109,192,92114,1,0,0:0:0:0:
329,192,92438,1,0,0:0:0:0:
182,192,92762,1,0,0:0:0:0:
256,192,93086,1,0,0:0:0:0:
109,192,93411,1,0,0:0:0:0:
182,192,93735,1,0,0:0:0:0:
36,192,94059,1,0,0:0:0:0:
329,192,94059,1,0,0:0:0:0:
402,192,94384,1,0,0:0:0:0:
182,192,94708,1,0,0:0:0:0:
475,192,94708,1,0,0:0:0:0:
109,192,95032,1,0,0:0:0:0:
329,192,95357,1,0,0:0:0:0:
256,192,95681,1,0,0:0:0:0:
475,192,96005,1,0,0:0:0:0:
182,192,96005,1,0,0:0:0:0:
402,192,96330,1,0,0:0:0:0:
36,192,96654,1,0,0:0:0:0:
329,192,96654,1,0,0:0:0:0:
109,192,96978,1,0,0:0:0:0:
402,192,97303,1,0,0:0:0:0:
182,192,97303,1,0,0:0:0:0:
329,192,97627,1,0,0:0:0:0:
109,192,97951,1,0,0:0:0:0:
36,192,98276,1,0,0:0:0:0:
256,192,98600,1,0,0:0:0:0:
182,192,98924,1,0,0:0:0:0:
475,192,99249,1,0,0:0:0:0:
329,192,99249,1,0,0:0:0:0:
256,192,99573,1,0,0:0:0:0:
109,192,99897,1,0,0:0:0:0:
402,192,99897,1,0,0:0:0:0:
182,192,100222,1,0,0:0:0:0:
329,192,100546,1,0,0:0:0:0:
402,192,100870,1,0,0:0:0:0:
36,192,101195,1,0,0:0:0:0:
475,192,101195,1,0,0:0:0:0:
256,192,101357,1,0,0:0:0:0:
182,192,102168,1,0,0:0:0:0:
402,192,102492,1,0,0:0:0:0:
109,192,102492,1,0,0:0:0:0:
329,192,102816,1,0,0:0:0:0:
182,192,103141,1,0,0:0:0:0:
109,192,103465,1,0,0:0:0:0:
256,192,103789,1,0,0:0:0:0:
36,192,103789,1,0,0:0:0:0:
329,192,104113,1,0,0:0:0:0:
402,192,104438,1,0,0:0:0:0:
109,192,104438,1,0,0:0:0:0:
182,192,104762,1,0,0:0:0:0:
475,192,105086,1,0,0:0:0:0:
256,192,105086,1,0,0:0:0:0:
402,192,105411,1,0,0:0:0:0:
182,192,105735,1,0,0:0:0:0:
109,192,106059,1,0,0:0:0:0:
256,192,106384,1,0,0:0:0:0:
36,192,106384,1,0,0:0:0:0:
329,192,106708,1,0,0:0:0:0:
182,192,107032,1,0,0:0:0:0:
402,192,107032,1,0,0:0:0:0:
109,192,107357,1,0,0:0:0:0:
475,192,107681,1,0,0:0:0:0:
36,192,107681,1,0,0:0:0:0:
402,192,107843,1,0,0:0:0:0:
329,192,108330,1,0,0:0:0:0:
256,192,108654,1,0,0:0:0:0:
36,192,108978,1,0,0:0:0:0:
475,192,108978,1,0,0:0:0:0:
109,192,109141,1,0,0:0:0:0:
402,192,109627,1,0,0:0:0:0:
182,192,109627,1,0,0:0:0:0:
256,192,109951,1,0,0:0:0:0:
329,192,110276,1,0,0:0:0:0:
36,192,110276,1,0,0:0:0:0:
109,192,110600,1,0,0:0:0:0:
475,192,110924,1,0,0:0:0:0:
182,192,110924,1,0,0:0:0:0:
402,192,111249,1,0,0:0:0:0:
36,192,111573,1,0,0:0:0:0:
329,192,111573,1,0,0:0:0:0:
475,192,111897,1,0,0:0:0:0:
182,192,111897,1,0,0:0:0:0:
36,192,112222,1,0,0:0:0:0:
182,192,112384,1,0,0:0:0:0:
329,192,112546,1,0,0:0:0:0:
475,192,112708,1,0,0:0:0:0:
109,192,112870,1,0,0:0:0:0:
256,192,112870,1,0,0:0:0:0:
329,192,113381,1,0,0:0:0:0:
182,192,113381,1,0,0:0:0:0:
475,192,113892,1,0,0:0:0:0:
402,192,114233,1,0,0:0:0:0:
256,192,114233,1,0,0:0:0:0:
182,192,114745,1,0,0:0:0:0:
329,192,114745,1,0,0:0:0:0:
109,192,115256,1,0,0:0:0:0:
36,192,115597,1,0,0:0:0:0:
256,192,115597,1,0,0:0:0:0:
329,192,116108,1,0,0:0:0:0:
109,192,116108,1,0,0:0:0:0:
402,192,116620,1,0,0:0:0:0:
475,192,116960,1,0,0:0:0:0:
256,192,116960,1,0,0:0:0:0:
182,192,117472,1,0,0:0:0:0:
402,192,117472,1,0,0:0:0:0:
256,192,117983,1,0,0:0:0:0:
329,192,118332,1,0,0:0:0:0:
36,192,118332,1,0,0:0:0:0:
109,192,118861,1,0,0:0:0:0:
402,192,118861,1,0,0:0:0:0:
256,192,119390,1,0,0:0:0:0:
182,192,119743,1,0,0:0:0:0:
475,192,119743,1,0,0:0:0:0:
402,192,120273,1,0,0:0:0:0:
109,192,120273,1,0,0:0:0:0:
256,192,120802,1,0,0:0:0:0:
475,192,121155,1,0,0:0:0:0:
36,192,121155,1,0,0:0:0:0:
402,192,121684,1,0,0:0:0:0:
109,192,121684,1,0,0:0:0:0:
256,192,122214,1,0,0:0:0:0:
329,192,122567,1,0,0:0:0:0:
182,192,122567,1,0,0:0:0:0:
402,192,123303,1,0,0:0:0:0:
109,192,123674,1,0,0:0:0:0:
182,192,124042,1,0,0:0:0:0:
329,192,124042,1,0,0:0:0:0:
36,192,124756,1,0,0:0:0:0:
109,192,125478,1,0,0:0:0:0:
182,192,125840,1,0,0:0:0:0:
329,192,126201,1,0,0:0:0:0:
475,192,126563,1,0,0:0:0:0:
36,192,126563,1,0,0:0:0:0:
