osu file format v14

[General]
AudioFilename: Suzaku - Vanessa.mp3
AudioLeadIn: 0
PreviewTime: 66887
Countdown: 0
SampleSet: None
StackLeniency: 0.7
Mode: 3
LetterboxInBreaks: 0
SpecialStyle: 0
WidescreenStoryboard: 1

[Editor]
Bookmarks: 725,5914,11103,12400,13697,18887,22779,24076,30562,33157,34454,39643,44833,50022,55211,65589,66887,87643,106350,126076,132651
DistanceSpacing: 0.6
BeatDivisor: 6
GridSize: 4
TimelineZoom: 2.3

[Metadata]
Title:VANESSA
TitleUnicode:VANESSA
Artist:Suzaku
ArtistUnicode:Suzaku
Creator:Xenophilius
Version:7k Expert
Source:beatmania IIDX 14 GOLD
Tags:o2jam dance dance revolution mark101 nixo
BeatmapID:926101
BeatmapSetID:423665

[Difficulty]
HPDrainRate:8
CircleSize:7
OverallDifficulty:8
ApproachRate:5
SliderMultiplier:1.4
SliderTickRate:1

[Events]
//Background and Video events
0,0,"bg.jpg",0,0
//Break Periods
//Storyboard Layer 0 (Background)
//Storyboard Layer 1 (Fail)
//Storyboard Layer 2 (Pass)
//Storyboard Layer 3 (Foreground)
//Storyboard Sound Samples

[TimingPoints]
725,324.324324324324,4,2,1,30,1,0
725,-133.333333333333,4,2,1,30,0,0
5914,-100,4,2,1,30,0,0
11103,-66.6666666666667,4,2,1,30,0,0
11265,-133.333333333333,4,2,1,30,0,0
11346,-400,4,2,1,30,0,0
11427,-66.6666666666667,4,2,1,30,0,0
11589,-133.333333333333,4,2,1,30,0,0
11670,-400,4,2,1,30,0,0
11752,-66.6666666666667,4,2,1,30,0,0
12076,-133.333333333333,4,2,1,30,0,0
12400,-100,4,2,1,30,0,0
13697,-100,4,2,1,30,0,1
22779,-100,4,2,1,30,0,0
24076,-100,4,2,1,30,0,1
33157,-100,4,2,1,30,0,0
55211,-66.6666666666667,4,2,1,30,0,0
55373,-133.333333333333,4,2,1,30,0,0
55454,-400,4,2,1,30,0,0
55535,-66.6666666666667,4,2,1,30,0,0
55697,-133.333333333333,4,2,1,30,0,0
55779,-400,4,2,1,30,0,0
55860,-66.6666666666667,4,2,1,30,0,0
56184,-200,4,2,1,30,0,0
56508,-100,4,2,1,30,0,0
66887,-100,4,2,1,30,0,1
75968,-100,4,2,1,30,0,0
77265,-100,4,2,1,30,0,1
86346,-100,4,2,1,30,0,0
87643,-66.6666666666667,4,2,1,30,0,0
87806,-133.333333333333,4,2,1,30,0,0
87887,-400,4,2,1,30,0,0
87968,-66.6666666666667,4,2,1,30,0,0
88130,-133.333333333333,4,2,1,30,0,0
88211,-200,4,2,1,30,0,0
88292,-66.6666666666667,4,2,1,30,0,0
88454,-133.333333333333,4,2,1,30,0,0
88535,-133.333333333333,4,2,1,30,0,0
88616,-66.6666666666667,4,2,1,30,0,0
88779,-133.333333333333,4,2,1,30,0,0
88860,-400,4,2,1,30,0,0
88941,-100,4,2,1,30,0,0
90238,-133.333333333333,4,2,1,30,0,0
91211,-200,4,2,1,30,0,0

[HitObjects]
36,192,725,128,0,5914:0:0:0:0:
182,192,725,1,8,0:0:0:0:
475,192,725,1,4,0:0:0:0:
329,192,1373,1,8,0:0:0:0:
256,192,1697,1,8,0:0:0:0:
475,192,2022,128,0,5914:0:0:0:0:
182,192,2022,1,8,0:0:0:0:
402,192,2670,1,8,0:0:0:0:
329,192,3157,1,8,0:0:0:0:
182,192,3319,128,0,5914:0:0:0:0:
256,192,3319,1,8,0:0:0:0:
402,192,3968,1,8,0:0:0:0:
329,192,4292,1,8,0:0:0:0:
329,192,4616,128,0,5914:0:0:0:0:
256,192,4616,1,8,0:0:0:0:
109,192,5265,1,8,0:0:0:0:
256,192,5589,1,8,0:0:0:0:
402,192,5806,1,8,0:0:0:0:
402,192,5914,1,8,0:0:0:0:
256,192,5914,1,4,0:0:0:0:
109,192,5914,128,0,6022:0:0:0:0:
182,192,6022,128,0,6130:0:0:0:0:
256,192,6130,128,0,6238:0:0:0:0:
475,192,6238,128,0,6346:0:0:0:0:
36,192,6238,1,8,0:0:0:0:
402,192,6346,128,0,6454:0:0:0:0:
329,192,6454,128,0,6562:0:0:0:0:
36,192,6562,128,0,6670:0:0:0:0:
256,192,6562,1,8,0:0:0:0:
109,192,6670,128,0,6779:0:0:0:0:
182,192,6779,128,0,6887:0:0:0:0:
402,192,6887,128,0,6995:0:0:0:0:
475,192,6887,1,8,0:0:0:0:
329,192,6995,128,0,7103:0:0:0:0:
256,192,7103,128,0,7211:0:0:0:0:
475,192,7103,1,8,0:0:0:0:
36,192,7211,128,0,7319:0:0:0:0:
402,192,7211,1,8,0:0:0:0:
109,192,7319,128,0,7427:0:0:0:0:
182,192,7427,128,0,7535:0:0:0:0:
402,192,7535,128,0,7643:0:0:0:0:
256,192,7535,1,8,0:0:0:0:
329,192,7643,128,0,7752:0:0:0:0:
256,192,7752,128,0,7860:0:0:0:0:
109,192,7860,128,0,7968:0:0:0:0:
36,192,7860,1,8,0:0:0:0:
182,192,7968,128,0,8076:0:0:0:0:
256,192,8076,128,0,8184:0:0:0:0:
475,192,8184,128,0,8292:0:0:0:0:
109,192,8184,1,8,0:0:0:0:
402,192,8292,128,0,8400:0:0:0:0:
329,192,8400,128,0,8508:0:0:0:0:
109,192,8400,1,8,0:0:0:0:
36,192,8508,128,0,8724:0:0:0:0:
182,192,8508,128,0,8833:0:0:0:0:
329,192,8616,128,0,8941:0:0:0:0:
475,192,8724,128,0,9049:0:0:0:0:
36,192,8833,128,0,9049:0:0:0:0:
109,192,8833,128,0,9049:0:0:0:0:
256,192,8941,128,0,9157:0:0:0:0:
402,192,9049,128,0,9265:0:0:0:0:
36,192,9157,128,0,9373:0:0:0:0:
182,192,9157,128,0,9481:0:0:0:0:
329,192,9265,128,0,9589:0:0:0:0:
475,192,9373,128,0,9697:0:0:0:0:
36,192,9481,128,0,9697:0:0:0:0:
109,192,9481,128,0,9806:0:0:0:0:
256,192,9589,128,0,9914:0:0:0:0:
402,192,9697,128,0,10022:0:0:0:0:
36,192,9806,128,0,10022:0:0:0:0:
182,192,9914,128,0,10130:0:0:0:0:
329,192,10022,128,0,10238:0:0:0:0:
36,192,10130,1,0,0:0:0:0:
475,192,10130,128,0,10346:0:0:0:0:
182,192,10238,1,0,0:0:0:0:
109,192,10238,128,0,10454:0:0:0:0:
329,192,10346,1,0,0:0:0:0:
256,192,10346,128,0,10562:0:0:0:0:
475,192,10454,1,0,0:0:0:0:
402,192,10454,128,0,10670:0:0:0:0:
109,192,10562,1,0,0:0:0:0:
36,192,10562,128,0,10779:0:0:0:0:
256,192,10670,1,0,0:0:0:0:
182,192,10670,128,0,10887:0:0:0:0:
402,192,10779,1,0,0:0:0:0:
329,192,10779,128,0,10995:0:0:0:0:
36,192,10887,1,0,0:0:0:0:
475,192,10887,128,0,11103:0:0:0:0:
182,192,10995,1,0,0:0:0:0:
109,192,10995,128,0,11103:0:0:0:0:
256,192,11103,128,0,12400:0:0:0:0:
402,192,11427,128,0,12400:0:0:0:0:
475,192,11752,128,0,12400:0:0:0:0:
36,192,12400,128,0,12508:0:0:0:0:
329,192,12400,128,0,12508:0:0:0:0:
182,192,12508,128,0,12616:0:0:0:0:
475,192,12508,128,0,12616:0:0:0:0:
36,192,12616,128,0,12724:0:0:0:0:
329,192,12616,128,0,12724:0:0:0:0:
109,192,12724,128,0,12833:0:0:0:0:
402,192,12724,128,0,12833:0:0:0:0:
182,192,12833,128,0,12941:0:0:0:0:
475,192,12833,128,0,12941:0:0:0:0:
109,192,12941,128,0,13049:0:0:0:0:
402,192,12941,128,0,13049:0:0:0:0:
36,192,13049,128,0,13157:0:0:0:0:
329,192,13049,128,0,13157:0:0:0:0:
475,192,13157,128,0,13265:0:0:0:0:
256,192,13157,128,0,13265:0:0:0:0:
402,192,13265,128,0,13373:0:0:0:0:
182,192,13265,128,0,13373:0:0:0:0:
329,192,13373,128,0,13481:0:0:0:0:
109,192,13373,128,0,13481:0:0:0:0:
475,192,13373,1,8,0:0:0:0:
256,192,13481,128,0,13589:0:0:0:0:
36,192,13481,128,0,13589:0:0:0:0:
329,192,13589,128,0,13697:0:0:0:0:
109,192,13589,128,0,13697:0:0:0:0:
182,192,13589,1,8,0:0:0:0:
475,192,13697,128,0,13914:0:0:0:0:
256,192,13697,1,8,0:0:0:0:
36,192,13697,1,8,0:0:0:0:
182,192,13914,128,0,14022:0:0:0:0:
402,192,14022,128,0,14238:0:0:0:0:
329,192,14022,1,8,0:0:0:0:
109,192,14022,1,8,0:0:0:0:
109,192,14238,128,0,14346:0:0:0:0:
329,192,14346,128,0,14562:0:0:0:0:
182,192,14346,1,8,0:0:0:0:
402,192,14346,1,8,0:0:0:0:
36,192,14562,128,0,14670:0:0:0:0:
256,192,14670,128,0,14887:0:0:0:0:
329,192,14670,1,8,0:0:0:0:
109,192,14670,1,8,0:0:0:0:
475,192,14887,128,0,14995:0:0:0:0:
182,192,14995,128,0,15211:0:0:0:0:
256,192,14995,1,8,0:0:0:0:
36,192,14995,1,8,0:0:0:0:
402,192,15211,128,0,15319:0:0:0:0:
109,192,15319,128,0,15535:0:0:0:0:
182,192,15319,1,8,0:0:0:0:
329,192,15319,1,8,0:0:0:0:
182,192,15535,128,0,15643:0:0:0:0:
475,192,15535,128,0,15643:0:0:0:0:
36,192,15643,128,0,15752:0:0:0:0:
329,192,15643,128,0,15752:0:0:0:0:
402,192,15643,1,8,0:0:0:0:
182,192,15752,128,0,15860:0:0:0:0:
475,192,15752,128,0,15860:0:0:0:0:
36,192,15860,128,0,15968:0:0:0:0:
329,192,15860,128,0,15968:0:0:0:0:
475,192,15968,128,0,16076:0:0:0:0:
182,192,15968,128,0,16076:0:0:0:0:
109,192,15968,1,8,0:0:0:0:
329,192,16076,128,0,16184:0:0:0:0:
36,192,16076,128,0,16184:0:0:0:0:
402,192,16184,128,0,16292:0:0:0:0:
109,192,16184,128,0,16292:0:0:0:0:
182,192,16184,1,8,0:0:0:0:
36,192,16292,128,0,16508:0:0:0:0:
256,192,16292,1,8,0:0:0:0:
475,192,16292,1,8,0:0:0:0:
329,192,16508,128,0,16616:0:0:0:0:
109,192,16616,128,0,16833:0:0:0:0:
182,192,16616,1,8,0:0:0:0:
402,192,16616,1,8,0:0:0:0:
402,192,16833,128,0,16941:0:0:0:0:
182,192,16941,128,0,17157:0:0:0:0:
329,192,16941,1,8,0:0:0:0:
109,192,16941,1,8,0:0:0:0:
475,192,17157,128,0,17265:0:0:0:0:
256,192,17265,128,0,17481:0:0:0:0:
182,192,17265,1,8,0:0:0:0:
402,192,17265,1,8,0:0:0:0:
36,192,17481,128,0,17589:0:0:0:0:
329,192,17589,128,0,17806:0:0:0:0:
256,192,17589,1,8,0:0:0:0:
475,192,17589,1,8,0:0:0:0:
109,192,17806,128,0,17914:0:0:0:0:
402,192,17914,128,0,18130:0:0:0:0:
329,192,17914,1,8,0:0:0:0:
182,192,17914,1,8,0:0:0:0:
329,192,18130,128,0,18238:0:0:0:0:
36,192,18130,128,0,18238:0:0:0:0:
475,192,18238,128,0,18346:0:0:0:0:
182,192,18238,128,0,18346:0:0:0:0:
109,192,18238,1,8,0:0:0:0:
329,192,18346,128,0,18454:0:0:0:0:
36,192,18346,128,0,18454:0:0:0:0:
475,192,18454,128,0,18562:0:0:0:0:
182,192,18454,128,0,18562:0:0:0:0:
36,192,18562,128,0,18670:0:0:0:0:
329,192,18562,128,0,18670:0:0:0:0:
402,192,18562,1,8,0:0:0:0:
182,192,18670,128,0,18779:0:0:0:0:
475,192,18670,128,0,18779:0:0:0:0:
109,192,18779,128,0,18887:0:0:0:0:
402,192,18779,128,0,18887:0:0:0:0:
329,192,18779,1,8,0:0:0:0:
36,192,18887,128,0,18995:0:0:0:0:
475,192,18887,128,0,18995:0:0:0:0:
182,192,18887,1,8,0:0:0:0:
256,192,18995,128,0,19103:0:0:0:0:
329,192,19103,128,0,19211:0:0:0:0:
182,192,19103,128,0,19211:0:0:0:0:
109,192,19211,128,0,19319:0:0:0:0:
402,192,19211,128,0,19319:0:0:0:0:
36,192,19211,1,8,0:0:0:0:
329,192,19319,128,0,19427:0:0:0:0:
182,192,19319,128,0,19427:0:0:0:0:
256,192,19427,128,0,19535:0:0:0:0:
475,192,19535,128,0,19643:0:0:0:0:
36,192,19535,128,0,19643:0:0:0:0:
182,192,19535,1,8,0:0:0:0:
402,192,19643,128,0,19752:0:0:0:0:
109,192,19643,128,0,19752:0:0:0:0:
329,192,19752,128,0,19860:0:0:0:0:
182,192,19752,128,0,19860:0:0:0:0:
402,192,19860,128,0,19968:0:0:0:0:
109,192,19860,128,0,19968:0:0:0:0:
256,192,19860,1,8,0:0:0:0:
475,192,19968,128,0,20076:0:0:0:0:
36,192,19968,128,0,20076:0:0:0:0:
182,192,20076,128,0,20184:0:0:0:0:
329,192,20076,128,0,20184:0:0:0:0:
256,192,20184,128,0,20292:0:0:0:0:
402,192,20184,128,0,20292:0:0:0:0:
109,192,20184,1,8,0:0:0:0:
329,192,20292,128,0,20400:0:0:0:0:
475,192,20292,128,0,20400:0:0:0:0:
402,192,20400,128,0,20508:0:0:0:0:
256,192,20400,128,0,20508:0:0:0:0:
182,192,20508,128,0,20616:0:0:0:0:
329,192,20508,128,0,20616:0:0:0:0:
36,192,20508,1,8,0:0:0:0:
256,192,20616,128,0,20724:0:0:0:0:
109,192,20616,128,0,20724:0:0:0:0:
182,192,20724,128,0,20833:0:0:0:0:
36,192,20724,128,0,20833:0:0:0:0:
109,192,20833,128,0,20941:0:0:0:0:
256,192,20833,128,0,20941:0:0:0:0:
475,192,20833,1,8,0:0:0:0:
182,192,20941,128,0,21049:0:0:0:0:
329,192,20941,128,0,21049:0:0:0:0:
256,192,21049,128,0,21157:0:0:0:0:
402,192,21049,128,0,21157:0:0:0:0:
329,192,21157,128,0,21265:0:0:0:0:
475,192,21157,128,0,21265:0:0:0:0:
36,192,21157,1,8,0:0:0:0:
402,192,21265,128,0,21373:0:0:0:0:
256,192,21265,128,0,21373:0:0:0:0:
182,192,21373,128,0,21481:0:0:0:0:
329,192,21373,128,0,21481:0:0:0:0:
109,192,21481,128,0,21589:0:0:0:0:
36,192,21481,128,0,21589:0:0:0:0:
256,192,21481,1,8,0:0:0:0:
402,192,21589,128,0,21697:0:0:0:0:
475,192,21589,128,0,21697:0:0:0:0:
329,192,21697,128,0,21806:0:0:0:0:
256,192,21697,128,0,21806:0:0:0:0:
36,192,21697,1,8,0:0:0:0:
182,192,21806,128,0,21914:0:0:0:0:
109,192,21806,128,0,21914:0:0:0:0:
475,192,21806,1,8,0:0:0:0:
256,192,21914,128,0,22022:0:0:0:0:
329,192,21914,128,0,22022:0:0:0:0:
402,192,22022,128,0,22130:0:0:0:0:
475,192,22022,128,0,22130:0:0:0:0:
182,192,22022,1,8,0:0:0:0:
36,192,22130,128,0,22238:0:0:0:0:
109,192,22130,128,0,22238:0:0:0:0:
329,192,22130,1,8,0:0:0:0:
182,192,22238,128,0,22346:0:0:0:0:
256,192,22238,128,0,22346:0:0:0:0:
36,192,22346,1,8,0:0:0:0:
329,192,22346,128,0,22454:0:0:0:0:
402,192,22346,128,0,22454:0:0:0:0:
475,192,22454,1,8,0:0:0:0:
182,192,22454,128,0,22562:0:0:0:0:
256,192,22454,128,0,22562:0:0:0:0:
109,192,22562,128,0,22670:0:0:0:0:
36,192,22562,128,0,22670:0:0:0:0:
402,192,22670,128,0,22779:0:0:0:0:
475,192,22670,128,0,22779:0:0:0:0:
182,192,22670,1,8,0:0:0:0:
329,192,22779,1,8,0:0:0:0:
36,192,22779,128,0,22995:0:0:0:0:
109,192,22779,128,0,22995:0:0:0:0:
256,192,22887,128,0,23103:0:0:0:0:
402,192,22995,128,0,23211:0:0:0:0:
109,192,23103,1,8,0:0:0:0:
182,192,23103,128,0,23427:0:0:0:0:
329,192,23211,128,0,23535:0:0:0:0:
475,192,23319,128,0,23643:0:0:0:0:
109,192,23427,128,0,23643:0:0:0:0:
36,192,23427,1,8,0:0:0:0:
256,192,23535,128,0,23752:0:0:0:0:
402,192,23643,128,0,23860:0:0:0:0:
109,192,23752,1,8,0:0:0:0:
182,192,23752,128,0,24076:0:0:0:0:
329,192,23860,128,0,24076:0:0:0:0:
36,192,23968,1,8,0:0:0:0:
475,192,23968,128,0,24076:0:0:0:0:
402,192,24076,128,0,24292:0:0:0:0:
109,192,24076,1,8,0:0:0:0:
256,192,24076,1,8,0:0:0:0:
109,192,24292,128,0,24400:0:0:0:0:
475,192,24400,128,0,24616:0:0:0:0:
182,192,24400,1,8,0:0:0:0:
329,192,24400,1,8,0:0:0:0:
182,192,24616,128,0,24724:0:0:0:0:
36,192,24724,128,0,24941:0:0:0:0:
256,192,24724,1,8,0:0:0:0:
402,192,24724,1,8,0:0:0:0:
256,192,24941,128,0,25049:0:0:0:0:
109,192,25049,128,0,25265:0:0:0:0:
329,192,25049,1,8,0:0:0:0:
475,192,25049,1,8,0:0:0:0:
329,192,25265,128,0,25373:0:0:0:0:
182,192,25373,128,0,25589:0:0:0:0:
402,192,25373,1,8,0:0:0:0:
36,192,25373,1,8,0:0:0:0:
402,192,25589,128,0,25697:0:0:0:0:
256,192,25697,128,0,25914:0:0:0:0:
475,192,25697,1,8,0:0:0:0:
109,192,25697,1,8,0:0:0:0:
329,192,25914,128,0,26022:0:0:0:0:
36,192,25914,128,0,26022:0:0:0:0:
402,192,26022,128,0,26130:0:0:0:0:
109,192,26022,128,0,26130:0:0:0:0:
256,192,26022,1,8,0:0:0:0:
475,192,26130,128,0,26238:0:0:0:0:
182,192,26130,128,0,26238:0:0:0:0:
329,192,26238,128,0,26346:0:0:0:0:
36,192,26238,128,0,26346:0:0:0:0:
182,192,26346,128,0,26454:0:0:0:0:
475,192,26346,128,0,26454:0:0:0:0:
256,192,26346,1,8,0:0:0:0:
109,192,26454,128,0,26562:0:0:0:0:
402,192,26454,128,0,26562:0:0:0:0:
36,192,26562,128,0,26670:0:0:0:0:
329,192,26562,128,0,26670:0:0:0:0:
182,192,26562,1,8,0:0:0:0:
109,192,26670,128,0,26887:0:0:0:0:
402,192,26670,1,8,0:0:0:0:
256,192,26670,1,8,0:0:0:0:
402,192,26887,128,0,26995:0:0:0:0:
329,192,26995,1,8,0:0:0:0:
182,192,26995,1,8,0:0:0:0:
36,192,26995,128,0,27211:0:0:0:0:
329,192,27211,128,0,27319:0:0:0:0:
475,192,27319,128,0,27535:0:0:0:0:
109,192,27319,1,8,0:0:0:0:
256,192,27319,1,8,0:0:0:0:
256,192,27535,128,0,27643:0:0:0:0:
36,192,27643,1,8,0:0:0:0:
182,192,27643,1,8,0:0:0:0:
402,192,27643,128,0,27860:0:0:0:0:
182,192,27860,128,0,27968:0:0:0:0:
475,192,27968,1,8,0:0:0:0:
329,192,27968,128,0,28184:0:0:0:0:
109,192,27968,1,8,0:0:0:0:
109,192,28184,128,0,28292:0:0:0:0:
402,192,28292,1,8,0:0:0:0:
256,192,28292,128,0,28508:0:0:0:0:
36,192,28292,1,8,0:0:0:0:
182,192,28508,128,0,28616:0:0:0:0:
475,192,28508,128,0,28616:0:0:0:0:
402,192,28616,128,0,28724:0:0:0:0:
256,192,28616,1,8,0:0:0:0:
109,192,28616,128,0,28724:0:0:0:0:
36,192,28724,128,0,28833:0:0:0:0:
329,192,28724,128,0,28833:0:0:0:0:
475,192,28833,128,0,28941:0:0:0:0:
182,192,28833,128,0,28941:0:0:0:0:
329,192,28941,128,0,29049:0:0:0:0:
36,192,28941,128,0,29049:0:0:0:0:
256,192,28941,1,8,0:0:0:0:
402,192,29049,128,0,29157:0:0:0:0:
109,192,29049,128,0,29157:0:0:0:0:
182,192,29157,128,0,29265:0:0:0:0:
329,192,29157,1,8,0:0:0:0:
475,192,29157,128,0,29265:0:0:0:0:
402,192,29265,1,8,0:0:0:0:
109,192,29265,128,0,29373:0:0:0:0:
36,192,29265,128,0,29373:0:0:0:0:
182,192,29373,128,0,29481:0:0:0:0:
256,192,29373,128,0,29481:0:0:0:0:
329,192,29481,128,0,29589:0:0:0:0:
402,192,29481,128,0,29589:0:0:0:0:
109,192,29589,128,0,29697:0:0:0:0:
182,192,29589,128,0,29697:0:0:0:0:
36,192,29589,1,8,0:0:0:0:
256,192,29697,128,0,29806:0:0:0:0:
329,192,29697,128,0,29806:0:0:0:0:
402,192,29806,128,0,29914:0:0:0:0:
475,192,29806,128,0,29914:0:0:0:0:
36,192,29914,128,0,30022:0:0:0:0:
109,192,29914,128,0,30022:0:0:0:0:
329,192,29914,1,8,0:0:0:0:
182,192,30022,128,0,30130:0:0:0:0:
256,192,30022,128,0,30130:0:0:0:0:
329,192,30130,128,0,30238:0:0:0:0:
402,192,30130,128,0,30238:0:0:0:0:
109,192,30238,128,0,30346:0:0:0:0:
182,192,30238,128,0,30346:0:0:0:0:
36,192,30238,1,8,0:0:0:0:
329,192,30346,128,0,30454:0:0:0:0:
256,192,30346,128,0,30454:0:0:0:0:
402,192,30454,128,0,30562:0:0:0:0:
475,192,30454,128,0,30562:0:0:0:0:
109,192,30454,1,8,0:0:0:0:
36,192,30562,128,0,30670:0:0:0:0:
256,192,30562,128,0,30670:0:0:0:0:
182,192,30562,1,8,0:0:0:0:
329,192,30670,128,0,30779:0:0:0:0:
109,192,30670,128,0,30779:0:0:0:0:
402,192,30779,128,0,30887:0:0:0:0:
182,192,30779,128,0,30887:0:0:0:0:
256,192,30887,128,0,30995:0:0:0:0:
475,192,30887,128,0,30995:0:0:0:0:
109,192,30887,1,8,0:0:0:0:
329,192,30995,128,0,31103:0:0:0:0:
36,192,30995,128,0,31103:0:0:0:0:
402,192,31103,128,0,31211:0:0:0:0:
109,192,31103,128,0,31211:0:0:0:0:
182,192,31211,128,0,31319:0:0:0:0:
475,192,31211,128,0,31319:0:0:0:0:
329,192,31211,1,8,0:0:0:0:
256,192,31319,128,0,31427:0:0:0:0:
36,192,31319,128,0,31427:0:0:0:0:
329,192,31427,128,0,31535:0:0:0:0:
109,192,31427,128,0,31535:0:0:0:0:
402,192,31535,128,0,31643:0:0:0:0:
182,192,31535,128,0,31643:0:0:0:0:
36,192,31535,1,8,0:0:0:0:
475,192,31643,128,0,31752:0:0:0:0:
256,192,31643,128,0,31752:0:0:0:0:
329,192,31752,128,0,31860:0:0:0:0:
402,192,31860,128,0,31968:0:0:0:0:
475,192,31860,128,0,31968:0:0:0:0:
36,192,31860,1,8,0:0:0:0:
329,192,31968,128,0,32076:0:0:0:0:
256,192,31968,128,0,32076:0:0:0:0:
182,192,32076,128,0,32184:0:0:0:0:
109,192,32076,128,0,32184:0:0:0:0:
475,192,32076,1,8,0:0:0:0:
329,192,32184,128,0,32292:0:0:0:0:
402,192,32184,128,0,32292:0:0:0:0:
36,192,32184,1,8,0:0:0:0:
256,192,32292,128,0,32400:0:0:0:0:
182,192,32292,128,0,32400:0:0:0:0:
109,192,32400,128,0,32508:0:0:0:0:
36,192,32400,128,0,32508:0:0:0:0:
329,192,32400,1,8,0:0:0:0:
402,192,32508,128,0,32616:0:0:0:0:
475,192,32508,128,0,32616:0:0:0:0:
182,192,32508,1,8,0:0:0:0:
329,192,32616,128,0,32724:0:0:0:0:
256,192,32616,128,0,32724:0:0:0:0:
182,192,32724,128,0,32833:0:0:0:0:
109,192,32724,128,0,32833:0:0:0:0:
475,192,32724,1,8,0:0:0:0:
402,192,32833,128,0,32941:0:0:0:0:
329,192,32833,128,0,32941:0:0:0:0:
36,192,32833,1,8,0:0:0:0:
256,192,32941,128,0,33049:0:0:0:0:
182,192,32941,128,0,33049:0:0:0:0:
109,192,33049,128,0,33157:0:0:0:0:
36,192,33049,128,0,33157:0:0:0:0:
329,192,33049,1,8,0:0:0:0:
182,192,33157,1,8,0:0:0:0:
402,192,33157,1,8,0:0:0:0:
475,192,33157,128,0,33373:0:0:0:0:
256,192,33265,1,8,0:0:0:0:
329,192,33265,128,0,33481:0:0:0:0:
109,192,33373,1,8,0:0:0:0:
182,192,33373,128,0,33589:0:0:0:0:
475,192,33481,1,8,0:0:0:0:
36,192,33481,128,0,33697:0:0:0:0:
256,192,33589,1,8,0:0:0:0:
329,192,33589,128,0,33806:0:0:0:0:
402,192,33697,1,8,0:0:0:0:
475,192,33697,128,0,33914:0:0:0:0:
36,192,33806,1,8,0:0:0:0:
109,192,33806,128,0,34022:0:0:0:0:
182,192,33914,1,8,0:0:0:0:
256,192,33914,128,0,34130:0:0:0:0:
329,192,34022,1,8,0:0:0:0:
402,192,34022,128,0,34238:0:0:0:0:
475,192,34130,1,8,0:0:0:0:
36,192,34130,128,0,34346:0:0:0:0:
109,192,34238,1,8,0:0:0:0:
182,192,34238,128,0,34454:0:0:0:0:
256,192,34346,1,8,0:0:0:0:
329,192,34346,128,0,34454:0:0:0:0:
475,192,34454,1,0,0:0:0:0:
109,192,34454,1,8,0:0:0:0:
36,192,34454,1,8,0:0:0:0:
256,192,34670,1,0,0:0:0:0:
402,192,34779,1,0,0:0:0:0:
109,192,35103,1,8,0:0:0:0:
36,192,35103,1,8,0:0:0:0:
256,192,35427,1,0,0:0:0:0:
329,192,35535,1,0,0:0:0:0:
402,192,35643,1,0,0:0:0:0:
109,192,35752,1,8,0:0:0:0:
36,192,35752,1,8,0:0:0:0:
475,192,35752,1,0,0:0:0:0:
256,192,35968,1,0,0:0:0:0:
402,192,36076,1,0,0:0:0:0:
182,192,36292,1,0,0:0:0:0:
109,192,36400,1,8,0:0:0:0:
36,192,36400,1,8,0:0:0:0:
256,192,36400,1,0,0:0:0:0:
329,192,36508,1,0,0:0:0:0:
402,192,36616,1,0,0:0:0:0:
109,192,36724,1,0,0:0:0:0:
182,192,36833,1,0,0:0:0:0:
256,192,36941,1,0,0:0:0:0:
402,192,37049,1,8,0:0:0:0:
475,192,37049,1,8,0:0:0:0:
329,192,37049,1,0,0:0:0:0:
109,192,37265,1,0,0:0:0:0:
256,192,37373,1,0,0:0:0:0:
402,192,37697,1,8,0:0:0:0:
475,192,37697,1,8,0:0:0:0:
256,192,38022,1,0,0:0:0:0:
182,192,38130,1,0,0:0:0:0:
109,192,38238,1,0,0:0:0:0:
402,192,38346,1,8,0:0:0:0:
475,192,38346,1,8,0:0:0:0:
36,192,38346,1,0,0:0:0:0:
256,192,38562,1,0,0:0:0:0:
109,192,38670,1,0,0:0:0:0:
329,192,38779,1,0,0:0:0:0:
256,192,38887,1,0,0:0:0:0:
402,192,38995,1,8,0:0:0:0:
475,192,38995,1,8,0:0:0:0:
182,192,38995,1,0,0:0:0:0:
109,192,39103,1,0,0:0:0:0:
36,192,39211,1,0,0:0:0:0:
182,192,39319,1,0,0:0:0:0:
109,192,39427,1,0,0:0:0:0:
256,192,39535,1,0,0:0:0:0:
182,192,39643,1,8,0:0:0:0:
475,192,39643,128,0,39752:0:0:0:0:
402,192,39752,128,0,39860:0:0:0:0:
329,192,39860,128,0,39968:0:0:0:0:
182,192,39968,128,0,40076:0:0:0:0:
256,192,40076,128,0,40184:0:0:0:0:
329,192,40184,128,0,40292:0:0:0:0:
109,192,40292,1,8,0:0:0:0:
402,192,40292,128,0,40400:0:0:0:0:
329,192,40400,128,0,40508:0:0:0:0:
256,192,40508,128,0,40616:0:0:0:0:
109,192,40616,128,0,40724:0:0:0:0:
182,192,40724,128,0,40833:0:0:0:0:
256,192,40833,128,0,40941:0:0:0:0:
329,192,40941,128,0,41049:0:0:0:0:
36,192,40941,1,8,0:0:0:0:
256,192,41049,128,0,41157:0:0:0:0:
182,192,41157,128,0,41265:0:0:0:0:
36,192,41265,128,0,41373:0:0:0:0:
109,192,41373,128,0,41481:0:0:0:0:
182,192,41481,128,0,41589:0:0:0:0:
329,192,41589,128,0,41697:0:0:0:0:
256,192,41589,1,8,0:0:0:0:
402,192,41697,128,0,41806:0:0:0:0:
475,192,41806,128,0,41914:0:0:0:0:
109,192,41914,128,0,42022:0:0:0:0:
182,192,42022,128,0,42130:0:0:0:0:
36,192,42022,1,8,0:0:0:0:
256,192,42130,128,0,42238:0:0:0:0:
475,192,42238,128,0,42346:0:0:0:0:
109,192,42238,1,8,0:0:0:0:
402,192,42346,128,0,42454:0:0:0:0:
329,192,42454,128,0,42562:0:0:0:0:
109,192,42562,128,0,42670:0:0:0:0:
182,192,42670,128,0,42779:0:0:0:0:
256,192,42779,128,0,42887:0:0:0:0:
329,192,42887,128,0,42995:0:0:0:0:
475,192,42887,1,8,0:0:0:0:
256,192,42995,128,0,43103:0:0:0:0:
182,192,43103,128,0,43211:0:0:0:0:
36,192,43211,128,0,43319:0:0:0:0:
109,192,43319,128,0,43427:0:0:0:0:
182,192,43427,128,0,43535:0:0:0:0:
329,192,43535,128,0,43643:0:0:0:0:
36,192,43535,1,8,0:0:0:0:
109,192,43535,1,2,0:0:0:0:
402,192,43643,128,0,43752:0:0:0:0:
182,192,43643,1,2,0:0:0:0:
475,192,43752,128,0,43860:0:0:0:0:
256,192,43752,1,2,0:0:0:0:
109,192,43860,128,0,43968:0:0:0:0:
182,192,43968,128,0,44076:0:0:0:0:
256,192,44076,128,0,44184:0:0:0:0:
36,192,44076,1,2,0:0:0:0:
475,192,44184,128,0,44292:0:0:0:0:
109,192,44184,1,2,0:0:0:0:
182,192,44184,1,8,0:0:0:0:
402,192,44292,128,0,44400:0:0:0:0:
329,192,44400,128,0,44508:0:0:0:0:
182,192,44508,128,0,44616:0:0:0:0:
475,192,44508,1,2,0:0:0:0:
256,192,44616,128,0,44724:0:0:0:0:
329,192,44724,128,0,44833:0:0:0:0:
475,192,44833,1,8,0:0:0:0:
36,192,44833,1,2,0:0:0:0:
182,192,44833,1,0,0:0:0:0:
402,192,45049,1,0,0:0:0:0:
475,192,45157,1,8,0:0:0:0:
36,192,45157,1,2,0:0:0:0:
182,192,45157,1,0,0:0:0:0:
109,192,45373,1,2,0:0:0:0:
475,192,45481,1,8,0:0:0:0:
182,192,45481,1,2,0:0:0:0:
475,192,45806,1,8,0:0:0:0:
182,192,45806,1,2,0:0:0:0:
256,192,45806,1,0,0:0:0:0:
329,192,45914,1,0,0:0:0:0:
182,192,46022,1,2,0:0:0:0:
402,192,46022,1,0,0:0:0:0:
36,192,46130,1,8,0:0:0:0:
256,192,46130,1,2,0:0:0:0:
475,192,46130,1,0,0:0:0:0:
329,192,46346,1,0,0:0:0:0:
36,192,46454,1,8,0:0:0:0:
256,192,46454,1,2,0:0:0:0:
475,192,46454,1,0,0:0:0:0:
256,192,46670,1,2,0:0:0:0:
109,192,46670,1,0,0:0:0:0:
36,192,46779,1,8,0:0:0:0:
329,192,46779,1,2,0:0:0:0:
182,192,46779,1,0,0:0:0:0:
256,192,46887,1,0,0:0:0:0:
182,192,46995,1,0,0:0:0:0:
36,192,47103,1,8,0:0:0:0:
329,192,47103,1,2,0:0:0:0:
109,192,47103,1,0,0:0:0:0:
182,192,47211,1,0,0:0:0:0:
402,192,47319,1,2,0:0:0:0:
256,192,47319,1,0,0:0:0:0:
475,192,47427,1,8,0:0:0:0:
36,192,47427,1,0,0:0:0:0:
329,192,47427,1,0,0:0:0:0:
182,192,47643,1,0,0:0:0:0:
475,192,47752,1,8,0:0:0:0:
36,192,47752,1,2,0:0:0:0:
329,192,47752,1,0,0:0:0:0:
36,192,47968,1,2,0:0:0:0:
475,192,48076,1,8,0:0:0:0:
109,192,48076,1,2,0:0:0:0:
475,192,48400,1,8,0:0:0:0:
109,192,48400,1,2,0:0:0:0:
256,192,48400,1,0,0:0:0:0:
329,192,48508,1,0,0:0:0:0:
182,192,48616,1,2,0:0:0:0:
402,192,48616,1,0,0:0:0:0:
36,192,48724,1,8,0:0:0:0:
256,192,48724,1,2,0:0:0:0:
109,192,48724,1,0,0:0:0:0:
329,192,48833,1,2,0:0:0:0:
402,192,48941,1,2,0:0:0:0:
256,192,48941,1,0,0:0:0:0:
36,192,49049,1,8,0:0:0:0:
475,192,49049,1,2,0:0:0:0:
109,192,49049,1,0,0:0:0:0:
109,192,49265,1,2,0:0:0:0:
402,192,49265,1,0,0:0:0:0:
36,192,49373,1,8,0:0:0:0:
182,192,49373,1,2,0:0:0:0:
475,192,49373,1,0,0:0:0:0:
329,192,49481,1,0,0:0:0:0:
402,192,49589,1,0,0:0:0:0:
36,192,49697,1,8,0:0:0:0:
182,192,49697,1,2,0:0:0:0:
256,192,49697,1,0,0:0:0:0:
329,192,49806,1,0,0:0:0:0:
182,192,49914,1,2,0:0:0:0:
402,192,49914,1,0,0:0:0:0:
256,192,50022,1,2,0:0:0:0:
36,192,50022,128,0,50130:0:0:0:0:
109,192,50130,128,0,50238:0:0:0:0:
182,192,50238,128,0,50346:0:0:0:0:
475,192,50346,1,2,0:0:0:0:
402,192,50346,128,0,50454:0:0:0:0:
329,192,50454,128,0,50562:0:0:0:0:
36,192,50562,1,2,0:0:0:0:
256,192,50562,128,0,50670:0:0:0:0:
475,192,50670,1,2,0:0:0:0:
109,192,50670,128,0,50779:0:0:0:0:
182,192,50779,128,0,50887:0:0:0:0:
256,192,50887,128,0,50995:0:0:0:0:
36,192,50995,1,2,0:0:0:0:
475,192,50995,128,0,51103:0:0:0:0:
402,192,51103,128,0,51211:0:0:0:0:
475,192,51211,1,2,0:0:0:0:
329,192,51211,128,0,51319:0:0:0:0:
36,192,51319,1,2,0:0:0:0:
109,192,51319,128,0,51427:0:0:0:0:
182,192,51427,128,0,51535:0:0:0:0:
256,192,51535,128,0,51643:0:0:0:0:
475,192,51643,1,2,0:0:0:0:
402,192,51643,128,0,51752:0:0:0:0:
329,192,51752,128,0,51860:0:0:0:0:
36,192,51860,1,2,0:0:0:0:
256,192,51860,128,0,51968:0:0:0:0:
475,192,51968,1,2,0:0:0:0:
109,192,51968,128,0,52076:0:0:0:0:
182,192,52076,128,0,52184:0:0:0:0:
256,192,52184,128,0,52292:0:0:0:0:
36,192,52292,1,2,0:0:0:0:
402,192,52292,128,0,52400:0:0:0:0:
329,192,52400,128,0,52508:0:0:0:0:
475,192,52508,1,2,0:0:0:0:
256,192,52508,128,0,52616:0:0:0:0:
36,192,52616,1,2,0:0:0:0:
109,192,52616,128,0,52724:0:0:0:0:
182,192,52724,128,0,52833:0:0:0:0:
256,192,52833,128,0,52941:0:0:0:0:
475,192,52941,1,2,0:0:0:0:
182,192,52941,128,0,53049:0:0:0:0:
109,192,53049,128,0,53157:0:0:0:0:
36,192,53157,1,2,0:0:0:0:
402,192,53157,128,0,53265:0:0:0:0:
475,192,53265,1,2,0:0:0:0:
329,192,53265,128,0,53373:0:0:0:0:
256,192,53373,128,0,53481:0:0:0:0:
329,192,53481,128,0,53589:0:0:0:0:
36,192,53589,1,2,0:0:0:0:
402,192,53589,128,0,53697:0:0:0:0:
109,192,53697,128,0,53806:0:0:0:0:
475,192,53806,1,2,0:0:0:0:
182,192,53806,128,0,53914:0:0:0:0:
36,192,53914,1,2,0:0:0:0:
329,192,53914,128,0,54130:0:0:0:0:
256,192,53914,128,0,54022:0:0:0:0:
109,192,54022,128,0,54238:0:0:0:0:
182,192,54022,128,0,54130:0:0:0:0:
402,192,54130,128,0,54346:0:0:0:0:
475,192,54130,128,0,54238:0:0:0:0:
182,192,54238,128,0,54346:0:0:0:0:
36,192,54238,128,0,54346:0:0:0:0:
256,192,54238,128,0,55211:0:0:0:0:
329,192,54346,128,0,54454:0:0:0:0:
182,192,54454,128,0,54562:0:0:0:0:
109,192,54562,128,0,55211:0:0:0:0:
475,192,54562,128,0,54670:0:0:0:0:
36,192,54670,128,0,54779:0:0:0:0:
475,192,54779,128,0,54887:0:0:0:0:
402,192,54887,128,0,55211:0:0:0:0:
182,192,54887,128,0,54995:0:0:0:0:
329,192,54995,128,0,55103:0:0:0:0:
182,192,55103,128,0,55211:0:0:0:0:
475,192,55211,128,0,56508:0:0:0:0:
329,192,55535,128,0,56508:0:0:0:0:
182,192,55860,128,0,56508:0:0:0:0:
256,192,56508,1,8,0:0:0:0:
36,192,56508,1,8,0:0:0:0:
402,192,56508,1,0,0:0:0:0:
475,192,56616,1,8,0:0:0:0:
182,192,56616,1,8,0:0:0:0:
36,192,56724,1,8,0:0:0:0:
329,192,56724,1,8,0:0:0:0:
475,192,56833,1,8,0:0:0:0:
182,192,56833,1,8,0:0:0:0:
109,192,56833,1,8,0:0:0:0:
329,192,57049,128,0,57157:0:0:0:0:
36,192,57481,128,0,57589:0:0:0:0:
36,192,57697,128,0,57806:0:0:0:0:
475,192,57806,128,0,58130:0:0:0:0:
109,192,57806,1,0,0:0:0:0:
402,192,58022,128,0,58130:0:0:0:0:
256,192,58130,1,8,0:0:0:0:
36,192,58130,1,8,0:0:0:0:
475,192,58454,1,0,0:0:0:0:
329,192,58454,128,0,58562:0:0:0:0:
182,192,58779,128,0,58887:0:0:0:0:
36,192,58887,128,0,58995:0:0:0:0:
402,192,59103,1,0,0:0:0:0:
109,192,59103,1,8,0:0:0:0:
256,192,59103,1,8,0:0:0:0:
182,192,59103,128,0,59427:0:0:0:0:
36,192,59427,1,0,0:0:0:0:
475,192,59427,128,0,59752:0:0:0:0:
36,192,59535,1,0,0:0:0:0:
36,192,59643,1,0,0:0:0:0:
109,192,59752,128,0,60076:0:0:0:0:
402,192,60076,128,0,60400:0:0:0:0:
36,192,60292,1,8,0:0:0:0:
109,192,60400,1,8,0:0:0:0:
475,192,60400,128,0,61049:0:0:0:0:
182,192,60400,128,0,60616:0:0:0:0:
329,192,60508,128,0,60724:0:0:0:0:
109,192,60616,128,0,60833:0:0:0:0:
256,192,60724,128,0,60941:0:0:0:0:
402,192,60833,128,0,61049:0:0:0:0:
182,192,60941,128,0,61157:0:0:0:0:
36,192,61049,128,0,61697:0:0:0:0:
329,192,61049,128,0,61265:0:0:0:0:
475,192,61157,128,0,61373:0:0:0:0:
109,192,61157,128,0,61373:0:0:0:0:
256,192,61265,128,0,61481:0:0:0:0:
402,192,61373,128,0,61589:0:0:0:0:
182,192,61481,128,0,61697:0:0:0:0:
329,192,61589,128,0,61806:0:0:0:0:
475,192,61697,128,0,62346:0:0:0:0:
109,192,61697,128,0,62022:0:0:0:0:
256,192,61806,128,0,62130:0:0:0:0:
402,192,61914,128,0,62238:0:0:0:0:
36,192,62022,128,0,62238:0:0:0:0:
182,192,62130,128,0,62346:0:0:0:0:
329,192,62238,128,0,62454:0:0:0:0:
36,192,62346,128,0,62995:0:0:0:0:
109,192,62346,128,0,62562:0:0:0:0:
256,192,62454,128,0,62670:0:0:0:0:
402,192,62562,128,0,62779:0:0:0:0:
182,192,62670,128,0,62887:0:0:0:0:
329,192,62779,128,0,62995:0:0:0:0:
109,192,62887,128,0,63211:0:0:0:0:
475,192,62995,128,0,63211:0:0:0:0:
256,192,62995,128,0,63319:0:0:0:0:
402,192,63103,128,0,63427:0:0:0:0:
36,192,63211,128,0,63535:0:0:0:0:
475,192,63319,128,0,63535:0:0:0:0:
182,192,63319,128,0,63643:0:0:0:0:
329,192,63427,128,0,63752:0:0:0:0:
36,192,63643,128,0,63860:0:0:0:0:
109,192,63643,128,0,63860:0:0:0:0:
256,192,63752,128,0,63968:0:0:0:0:
402,192,63860,128,0,64076:0:0:0:0:
36,192,63968,128,0,64184:0:0:0:0:
182,192,63968,128,0,64184:0:0:0:0:
329,192,64076,128,0,64292:0:0:0:0:
475,192,64184,128,0,64292:0:0:0:0:
182,192,64292,1,8,0:0:0:0:
36,192,64292,1,8,0:0:0:0:
36,192,64400,1,8,0:0:0:0:
182,192,64400,1,8,0:0:0:0:
182,192,64508,1,8,0:0:0:0:
36,192,64508,1,8,0:0:0:0:
36,192,64616,1,8,0:0:0:0:
182,192,64616,1,8,0:0:0:0:
182,192,64724,1,8,0:0:0:0:
36,192,64724,1,8,0:0:0:0:
36,192,64833,1,8,0:0:0:0:
182,192,64833,1,8,0:0:0:0:
182,192,64941,1,8,0:0:0:0:
36,192,64941,1,8,0:0:0:0:
475,192,64941,1,8,0:0:0:0:
36,192,65049,1,8,0:0:0:0:
182,192,65049,1,8,0:0:0:0:
475,192,65049,1,8,0:0:0:0:
182,192,65157,1,8,0:0:0:0:
36,192,65157,1,8,0:0:0:0:
475,192,65157,1,8,0:0:0:0:
36,192,65265,1,8,0:0:0:0:
182,192,65265,1,8,0:0:0:0:
475,192,65265,1,8,0:0:0:0:
182,192,65373,1,8,0:0:0:0:
36,192,65373,1,8,0:0:0:0:
475,192,65373,1,8,0:0:0:0:
36,192,65481,1,8,0:0:0:0:
182,192,65481,1,8,0:0:0:0:
475,192,65481,1,8,0:0:0:0:
475,192,65589,128,0,65697:0:0:0:0:
182,192,65589,128,0,65697:0:0:0:0:
329,192,65697,128,0,65806:0:0:0:0:
36,192,65697,128,0,65806:0:0:0:0:
475,192,65806,128,0,65914:0:0:0:0:
182,192,65806,128,0,65914:0:0:0:0:
402,192,65914,128,0,66022:0:0:0:0:
109,192,65914,128,0,66022:0:0:0:0:
329,192,66022,128,0,66130:0:0:0:0:
36,192,66022,128,0,66130:0:0:0:0:
402,192,66130,128,0,66238:0:0:0:0:
109,192,66130,128,0,66238:0:0:0:0:
475,192,66238,128,0,66346:0:0:0:0:
182,192,66238,128,0,66346:0:0:0:0:
36,192,66346,128,0,66454:0:0:0:0:
256,192,66346,128,0,66454:0:0:0:0:
109,192,66454,128,0,66562:0:0:0:0:
329,192,66454,128,0,66562:0:0:0:0:
182,192,66562,128,0,66670:0:0:0:0:
402,192,66562,128,0,66670:0:0:0:0:
36,192,66562,1,8,0:0:0:0:
256,192,66670,128,0,66779:0:0:0:0:
475,192,66670,128,0,66779:0:0:0:0:
182,192,66779,128,0,66887:0:0:0:0:
402,192,66779,128,0,66887:0:0:0:0:
329,192,66779,1,8,0:0:0:0:
36,192,66887,128,0,67103:0:0:0:0:
256,192,66887,1,8,0:0:0:0:
475,192,66887,1,8,0:0:0:0:
109,192,66887,1,0,0:0:0:0:
329,192,67103,128,0,67211:0:0:0:0:
109,192,67211,128,0,67427:0:0:0:0:
182,192,67211,1,8,0:0:0:0:
402,192,67211,1,8,0:0:0:0:
256,192,67211,1,0,0:0:0:0:
402,192,67427,128,0,67535:0:0:0:0:
182,192,67535,128,0,67752:0:0:0:0:
329,192,67535,1,8,0:0:0:0:
109,192,67535,1,8,0:0:0:0:
256,192,67535,1,0,0:0:0:0:
475,192,67752,128,0,67860:0:0:0:0:
256,192,67860,128,0,68076:0:0:0:0:
182,192,67860,1,8,0:0:0:0:
402,192,67860,1,8,0:0:0:0:
329,192,67860,1,0,0:0:0:0:
36,192,68076,128,0,68184:0:0:0:0:
329,192,68184,128,0,68400:0:0:0:0:
256,192,68184,1,8,0:0:0:0:
475,192,68184,1,8,0:0:0:0:
402,192,68184,1,0,0:0:0:0:
109,192,68400,128,0,68508:0:0:0:0:
402,192,68508,128,0,68724:0:0:0:0:
329,192,68508,1,8,0:0:0:0:
182,192,68508,1,8,0:0:0:0:
36,192,68508,1,0,0:0:0:0:
329,192,68724,128,0,68833:0:0:0:0:
36,192,68724,128,0,68833:0:0:0:0:
475,192,68833,128,0,68941:0:0:0:0:
182,192,68833,128,0,68941:0:0:0:0:
109,192,68833,1,8,0:0:0:0:
402,192,68833,1,8,0:0:0:0:
329,192,68941,128,0,69049:0:0:0:0:
36,192,68941,128,0,69049:0:0:0:0:
475,192,69049,128,0,69157:0:0:0:0:
182,192,69049,128,0,69157:0:0:0:0:
36,192,69157,128,0,69265:0:0:0:0:
329,192,69157,128,0,69265:0:0:0:0:
402,192,69157,1,8,0:0:0:0:
109,192,69157,1,8,0:0:0:0:
182,192,69265,128,0,69373:0:0:0:0:
475,192,69265,128,0,69373:0:0:0:0:
109,192,69373,128,0,69481:0:0:0:0:
402,192,69373,128,0,69481:0:0:0:0:
329,192,69373,1,8,0:0:0:0:
475,192,69481,128,0,69697:0:0:0:0:
256,192,69481,1,8,0:0:0:0:
36,192,69481,1,8,0:0:0:0:
182,192,69481,1,0,0:0:0:0:
182,192,69697,128,0,69806:0:0:0:0:
402,192,69806,128,0,70022:0:0:0:0:
329,192,69806,1,8,0:0:0:0:
109,192,69806,1,8,0:0:0:0:
256,192,69806,1,0,0:0:0:0:
109,192,70022,128,0,70130:0:0:0:0:
329,192,70130,128,0,70346:0:0:0:0:
182,192,70130,1,8,0:0:0:0:
402,192,70130,1,8,0:0:0:0:
256,192,70130,1,0,0:0:0:0:
36,192,70346,128,0,70454:0:0:0:0:
256,192,70454,128,0,70670:0:0:0:0:
329,192,70454,1,8,0:0:0:0:
109,192,70454,1,8,0:0:0:0:
182,192,70454,1,0,0:0:0:0:
475,192,70670,128,0,70779:0:0:0:0:
182,192,70779,128,0,70995:0:0:0:0:
256,192,70779,1,8,0:0:0:0:
36,192,70779,1,8,0:0:0:0:
109,192,70779,1,0,0:0:0:0:
402,192,70995,128,0,71103:0:0:0:0:
109,192,71103,128,0,71319:0:0:0:0:
182,192,71103,1,8,0:0:0:0:
329,192,71103,1,8,0:0:0:0:
256,192,71103,1,0,0:0:0:0:
182,192,71319,128,0,71427:0:0:0:0:
475,192,71319,128,0,71427:0:0:0:0:
36,192,71427,128,0,71535:0:0:0:0:
329,192,71427,128,0,71535:0:0:0:0:
402,192,71427,1,8,0:0:0:0:
109,192,71427,1,8,0:0:0:0:
182,192,71535,128,0,71643:0:0:0:0:
475,192,71535,128,0,71643:0:0:0:0:
36,192,71643,128,0,71752:0:0:0:0:
329,192,71643,128,0,71752:0:0:0:0:
475,192,71752,128,0,71860:0:0:0:0:
182,192,71752,128,0,71860:0:0:0:0:
109,192,71752,1,8,0:0:0:0:
402,192,71752,1,8,0:0:0:0:
329,192,71860,128,0,71968:0:0:0:0:
36,192,71860,128,0,71968:0:0:0:0:
402,192,71968,128,0,72076:0:0:0:0:
109,192,71968,128,0,72076:0:0:0:0:
256,192,71968,1,8,0:0:0:0:
475,192,72076,128,0,72184:0:0:0:0:
36,192,72076,128,0,72184:0:0:0:0:
329,192,72076,1,8,0:0:0:0:
182,192,72076,1,8,0:0:0:0:
256,192,72184,128,0,72292:0:0:0:0:
182,192,72292,128,0,72400:0:0:0:0:
329,192,72292,128,0,72400:0:0:0:0:
402,192,72400,128,0,72508:0:0:0:0:
109,192,72400,128,0,72508:0:0:0:0:
475,192,72400,1,8,0:0:0:0:
36,192,72400,1,8,0:0:0:0:
182,192,72508,128,0,72616:0:0:0:0:
329,192,72508,128,0,72616:0:0:0:0:
256,192,72616,128,0,72724:0:0:0:0:
36,192,72724,128,0,72833:0:0:0:0:
475,192,72724,128,0,72833:0:0:0:0:
329,192,72724,1,8,0:0:0:0:
182,192,72724,1,8,0:0:0:0:
109,192,72833,128,0,72941:0:0:0:0:
402,192,72833,128,0,72941:0:0:0:0:
182,192,72941,128,0,73049:0:0:0:0:
329,192,72941,128,0,73049:0:0:0:0:
109,192,73049,128,0,73157:0:0:0:0:
402,192,73049,128,0,73157:0:0:0:0:
256,192,73049,1,8,0:0:0:0:
36,192,73157,128,0,73265:0:0:0:0:
475,192,73157,128,0,73265:0:0:0:0:
329,192,73265,128,0,73373:0:0:0:0:
182,192,73265,128,0,73373:0:0:0:0:
256,192,73373,128,0,73481:0:0:0:0:
109,192,73373,128,0,73481:0:0:0:0:
402,192,73373,1,8,0:0:0:0:
475,192,73373,1,8,0:0:0:0:
182,192,73481,128,0,73589:0:0:0:0:
36,192,73481,128,0,73589:0:0:0:0:
109,192,73589,128,0,73697:0:0:0:0:
256,192,73589,128,0,73697:0:0:0:0:
329,192,73697,128,0,73806:0:0:0:0:
182,192,73697,128,0,73806:0:0:0:0:
475,192,73697,1,8,0:0:0:0:
36,192,73697,1,8,0:0:0:0:
256,192,73806,128,0,73914:0:0:0:0:
402,192,73806,128,0,73914:0:0:0:0:
329,192,73914,128,0,74022:0:0:0:0:
475,192,73914,128,0,74022:0:0:0:0:
402,192,74022,128,0,74130:0:0:0:0:
256,192,74022,128,0,74130:0:0:0:0:
36,192,74022,1,8,0:0:0:0:
109,192,74022,1,8,0:0:0:0:
329,192,74130,128,0,74238:0:0:0:0:
182,192,74130,128,0,74238:0:0:0:0:
256,192,74238,128,0,74346:0:0:0:0:
109,192,74238,128,0,74346:0:0:0:0:
182,192,74346,128,0,74454:0:0:0:0:
36,192,74346,128,0,74454:0:0:0:0:
475,192,74346,1,8,0:0:0:0:
402,192,74346,1,8,0:0:0:0:
109,192,74454,128,0,74562:0:0:0:0:
256,192,74454,128,0,74562:0:0:0:0:
329,192,74562,128,0,74670:0:0:0:0:
182,192,74562,128,0,74670:0:0:0:0:
402,192,74670,128,0,74779:0:0:0:0:
475,192,74670,128,0,74779:0:0:0:0:
256,192,74670,1,8,0:0:0:0:
109,192,74779,128,0,74887:0:0:0:0:
36,192,74779,128,0,74887:0:0:0:0:
182,192,74887,128,0,74995:0:0:0:0:
256,192,74887,128,0,74995:0:0:0:0:
475,192,74887,1,8,0:0:0:0:
329,192,74995,128,0,75103:0:0:0:0:
402,192,74995,128,0,75103:0:0:0:0:
36,192,74995,1,8,0:0:0:0:
109,192,74995,1,8,0:0:0:0:
256,192,75103,128,0,75211:0:0:0:0:
182,192,75103,128,0,75211:0:0:0:0:
109,192,75211,128,0,75319:0:0:0:0:
36,192,75211,128,0,75319:0:0:0:0:
329,192,75211,1,8,0:0:0:0:
475,192,75319,128,0,75427:0:0:0:0:
402,192,75319,128,0,75427:0:0:0:0:
182,192,75319,1,8,0:0:0:0:
256,192,75319,1,8,0:0:0:0:
329,192,75427,128,0,75535:0:0:0:0:
256,192,75427,128,0,75535:0:0:0:0:
475,192,75535,1,8,0:0:0:0:
182,192,75535,128,0,75643:0:0:0:0:
109,192,75535,128,0,75643:0:0:0:0:
36,192,75643,1,8,0:0:0:0:
329,192,75643,128,0,75752:0:0:0:0:
256,192,75643,128,0,75752:0:0:0:0:
402,192,75643,1,8,0:0:0:0:
402,192,75752,128,0,75860:0:0:0:0:
475,192,75752,128,0,75860:0:0:0:0:
109,192,75860,128,0,75968:0:0:0:0:
36,192,75860,128,0,75968:0:0:0:0:
256,192,75860,1,8,0:0:0:0:
182,192,75968,1,8,0:0:0:0:
475,192,75968,128,0,76184:0:0:0:0:
402,192,75968,128,0,76184:0:0:0:0:
329,192,75968,1,8,0:0:0:0:
256,192,76076,128,0,76292:0:0:0:0:
109,192,76184,128,0,76400:0:0:0:0:
402,192,76292,1,8,0:0:0:0:
329,192,76292,128,0,76616:0:0:0:0:
182,192,76400,128,0,76724:0:0:0:0:
36,192,76508,128,0,76833:0:0:0:0:
402,192,76616,128,0,76833:0:0:0:0:
475,192,76616,1,8,0:0:0:0:
256,192,76724,128,0,76941:0:0:0:0:
109,192,76833,128,0,77049:0:0:0:0:
402,192,76941,1,8,0:0:0:0:
329,192,76941,128,0,77265:0:0:0:0:
182,192,77049,128,0,77265:0:0:0:0:
475,192,77157,1,8,0:0:0:0:
36,192,77157,128,0,77265:0:0:0:0:
109,192,77265,128,0,77481:0:0:0:0:
402,192,77265,1,8,0:0:0:0:
256,192,77265,1,8,0:0:0:0:
475,192,77265,1,8,0:0:0:0:
402,192,77481,128,0,77589:0:0:0:0:
36,192,77589,128,0,77806:0:0:0:0:
329,192,77589,1,8,0:0:0:0:
182,192,77589,1,8,0:0:0:0:
256,192,77589,1,8,0:0:0:0:
329,192,77806,128,0,77914:0:0:0:0:
475,192,77914,128,0,78130:0:0:0:0:
256,192,77914,1,8,0:0:0:0:
109,192,77914,1,8,0:0:0:0:
182,192,77914,1,8,0:0:0:0:
256,192,78130,128,0,78238:0:0:0:0:
402,192,78238,128,0,78454:0:0:0:0:
182,192,78238,1,8,0:0:0:0:
36,192,78238,1,8,0:0:0:0:
109,192,78238,1,8,0:0:0:0:
182,192,78454,128,0,78562:0:0:0:0:
329,192,78562,128,0,78779:0:0:0:0:
109,192,78562,1,8,0:0:0:0:
475,192,78562,1,8,0:0:0:0:
402,192,78562,1,8,0:0:0:0:
109,192,78779,128,0,78887:0:0:0:0:
256,192,78887,128,0,79103:0:0:0:0:
36,192,78887,1,8,0:0:0:0:
402,192,78887,1,8,0:0:0:0:
329,192,78887,1,8,0:0:0:0:
182,192,79103,128,0,79211:0:0:0:0:
475,192,79103,128,0,79211:0:0:0:0:
109,192,79211,128,0,79319:0:0:0:0:
402,192,79211,128,0,79319:0:0:0:0:
256,192,79211,1,8,0:0:0:0:
36,192,79319,128,0,79427:0:0:0:0:
329,192,79319,128,0,79427:0:0:0:0:
182,192,79427,128,0,79535:0:0:0:0:
475,192,79427,128,0,79535:0:0:0:0:
329,192,79535,128,0,79643:0:0:0:0:
36,192,79535,128,0,79643:0:0:0:0:
256,192,79535,1,8,0:0:0:0:
402,192,79643,128,0,79752:0:0:0:0:
109,192,79643,128,0,79752:0:0:0:0:
475,192,79752,128,0,79860:0:0:0:0:
182,192,79752,128,0,79860:0:0:0:0:
329,192,79752,1,8,0:0:0:0:
402,192,79860,128,0,80076:0:0:0:0:
109,192,79860,1,8,0:0:0:0:
256,192,79860,1,8,0:0:0:0:
36,192,79860,1,8,0:0:0:0:
109,192,80076,128,0,80184:0:0:0:0:
182,192,80184,1,8,0:0:0:0:
329,192,80184,1,8,0:0:0:0:
475,192,80184,128,0,80400:0:0:0:0:
256,192,80184,1,8,0:0:0:0:
182,192,80400,128,0,80508:0:0:0:0:
36,192,80508,128,0,80724:0:0:0:0:
402,192,80508,1,8,0:0:0:0:
256,192,80508,1,8,0:0:0:0:
329,192,80508,1,8,0:0:0:0:
256,192,80724,128,0,80833:0:0:0:0:
475,192,80833,1,8,0:0:0:0:
329,192,80833,1,8,0:0:0:0:
109,192,80833,128,0,81049:0:0:0:0:
402,192,80833,1,8,0:0:0:0:
329,192,81049,128,0,81157:0:0:0:0:
36,192,81157,1,8,0:0:0:0:
182,192,81157,128,0,81373:0:0:0:0:
402,192,81157,1,8,0:0:0:0:
109,192,81157,1,8,0:0:0:0:
402,192,81373,128,0,81481:0:0:0:0:
109,192,81481,1,8,0:0:0:0:
256,192,81481,128,0,81697:0:0:0:0:
475,192,81481,1,8,0:0:0:0:
182,192,81481,1,8,0:0:0:0:
329,192,81697,128,0,81806:0:0:0:0:
36,192,81697,128,0,81806:0:0:0:0:
109,192,81806,128,0,81914:0:0:0:0:
256,192,81806,1,8,0:0:0:0:
402,192,81806,128,0,81914:0:0:0:0:
475,192,81914,128,0,82022:0:0:0:0:
182,192,81914,128,0,82022:0:0:0:0:
36,192,82022,128,0,82130:0:0:0:0:
329,192,82022,128,0,82130:0:0:0:0:
182,192,82130,128,0,82238:0:0:0:0:
475,192,82130,128,0,82238:0:0:0:0:
256,192,82130,1,8,0:0:0:0:
109,192,82238,128,0,82346:0:0:0:0:
402,192,82238,128,0,82346:0:0:0:0:
329,192,82346,128,0,82454:0:0:0:0:
256,192,82346,1,8,0:0:0:0:
36,192,82346,128,0,82454:0:0:0:0:
109,192,82454,1,8,0:0:0:0:
402,192,82454,128,0,82562:0:0:0:0:
475,192,82454,128,0,82562:0:0:0:0:
182,192,82454,1,8,0:0:0:0:
329,192,82562,128,0,82670:0:0:0:0:
256,192,82562,128,0,82670:0:0:0:0:
182,192,82670,128,0,82779:0:0:0:0:
109,192,82670,128,0,82779:0:0:0:0:
402,192,82779,128,0,82887:0:0:0:0:
329,192,82779,128,0,82887:0:0:0:0:
475,192,82779,1,8,0:0:0:0:
36,192,82779,1,8,0:0:0:0:
256,192,82887,128,0,82995:0:0:0:0:
182,192,82887,128,0,82995:0:0:0:0:
109,192,82995,128,0,83103:0:0:0:0:
36,192,82995,128,0,83103:0:0:0:0:
475,192,83103,128,0,83211:0:0:0:0:
402,192,83103,128,0,83211:0:0:0:0:
182,192,83103,1,8,0:0:0:0:
256,192,83103,1,8,0:0:0:0:
329,192,83211,128,0,83319:0:0:0:0:
256,192,83211,128,0,83319:0:0:0:0:
182,192,83319,128,0,83427:0:0:0:0:
109,192,83319,128,0,83427:0:0:0:0:
402,192,83427,128,0,83535:0:0:0:0:
329,192,83427,128,0,83535:0:0:0:0:
475,192,83427,1,8,0:0:0:0:
36,192,83427,1,8,0:0:0:0:
182,192,83535,128,0,83643:0:0:0:0:
256,192,83535,128,0,83643:0:0:0:0:
109,192,83643,128,0,83752:0:0:0:0:
36,192,83643,128,0,83752:0:0:0:0:
475,192,83643,1,8,0:0:0:0:
475,192,83752,128,0,83860:0:0:0:0:
256,192,83752,128,0,83860:0:0:0:0:
329,192,83752,1,8,0:0:0:0:
402,192,83752,1,8,0:0:0:0:
182,192,83860,128,0,83968:0:0:0:0:
402,192,83860,128,0,83968:0:0:0:0:
109,192,83968,128,0,84076:0:0:0:0:
329,192,83968,128,0,84076:0:0:0:0:
256,192,84076,128,0,84184:0:0:0:0:
36,192,84076,128,0,84184:0:0:0:0:
402,192,84076,1,8,0:0:0:0:
475,192,84076,1,8,0:0:0:0:
182,192,84184,128,0,84292:0:0:0:0:
475,192,84184,128,0,84292:0:0:0:0:
109,192,84292,128,0,84400:0:0:0:0:
402,192,84292,128,0,84400:0:0:0:0:
329,192,84400,128,0,84508:0:0:0:0:
36,192,84400,128,0,84508:0:0:0:0:
182,192,84400,1,8,0:0:0:0:
256,192,84400,1,8,0:0:0:0:
256,192,84508,128,0,84616:0:0:0:0:
475,192,84508,128,0,84616:0:0:0:0:
182,192,84616,128,0,84724:0:0:0:0:
402,192,84616,128,0,84724:0:0:0:0:
109,192,84724,128,0,84833:0:0:0:0:
329,192,84724,128,0,84833:0:0:0:0:
475,192,84724,1,8,0:0:0:0:
36,192,84724,1,8,0:0:0:0:
36,192,84833,128,0,84941:0:0:0:0:
256,192,84833,128,0,84941:0:0:0:0:
182,192,84941,128,0,85049:0:0:0:0:
109,192,85049,128,0,85157:0:0:0:0:
36,192,85049,128,0,85157:0:0:0:0:
475,192,85049,1,8,0:0:0:0:
329,192,85049,1,8,0:0:0:0:
182,192,85157,128,0,85265:0:0:0:0:
256,192,85157,128,0,85265:0:0:0:0:
329,192,85265,128,0,85373:0:0:0:0:
402,192,85265,128,0,85373:0:0:0:0:
36,192,85265,1,8,0:0:0:0:
182,192,85373,128,0,85481:0:0:0:0:
109,192,85373,128,0,85481:0:0:0:0:
475,192,85373,1,8,0:0:0:0:
36,192,85373,1,8,0:0:0:0:
256,192,85481,128,0,85589:0:0:0:0:
329,192,85481,128,0,85589:0:0:0:0:
402,192,85589,128,0,85697:0:0:0:0:
475,192,85589,128,0,85697:0:0:0:0:
182,192,85589,1,8,0:0:0:0:
109,192,85697,128,0,85806:0:0:0:0:
36,192,85697,128,0,85806:0:0:0:0:
329,192,85697,1,8,0:0:0:0:
182,192,85697,1,8,0:0:0:0:
182,192,85806,128,0,85914:0:0:0:0:
256,192,85806,128,0,85914:0:0:0:0:
329,192,85914,128,0,86022:0:0:0:0:
402,192,85914,128,0,86022:0:0:0:0:
36,192,85914,1,8,0:0:0:0:
109,192,86022,128,0,86130:0:0:0:0:
182,192,86022,128,0,86130:0:0:0:0:
475,192,86022,1,8,0:0:0:0:
36,192,86022,1,8,0:0:0:0:
256,192,86130,128,0,86238:0:0:0:0:
329,192,86130,128,0,86238:0:0:0:0:
402,192,86238,128,0,86346:0:0:0:0:
475,192,86238,128,0,86346:0:0:0:0:
109,192,86238,1,8,0:0:0:0:
329,192,86346,1,8,0:0:0:0:
109,192,86346,1,8,0:0:0:0:
36,192,86346,128,0,86562:0:0:0:0:
256,192,86454,1,8,0:0:0:0:
182,192,86454,128,0,86670:0:0:0:0:
402,192,86562,1,8,0:0:0:0:
329,192,86562,128,0,86779:0:0:0:0:
36,192,86670,1,8,0:0:0:0:
475,192,86670,128,0,86887:0:0:0:0:
256,192,86779,1,8,0:0:0:0:
182,192,86779,128,0,86995:0:0:0:0:
109,192,86887,1,8,0:0:0:0:
36,192,86887,128,0,87103:0:0:0:0:
475,192,86995,1,8,0:0:0:0:
402,192,86995,128,0,87211:0:0:0:0:
329,192,87103,1,8,0:0:0:0:
256,192,87103,128,0,87319:0:0:0:0:
182,192,87211,1,8,0:0:0:0:
109,192,87211,128,0,87427:0:0:0:0:
36,192,87319,1,8,0:0:0:0:
475,192,87319,128,0,87535:0:0:0:0:
402,192,87427,1,8,0:0:0:0:
329,192,87427,128,0,87643:0:0:0:0:
256,192,87535,1,8,0:0:0:0:
182,192,87535,128,0,87643:0:0:0:0:
36,192,87643,128,0,87968:0:0:0:0:
475,192,87643,128,0,88292:0:0:0:0:
256,192,88941,128,0,91535:0:0:0:0:
402,192,88941,128,0,91535:0:0:0:0:
109,192,88941,128,0,91535:0:0:0:0:
