osu file format v14

[General]
AudioFilename: Suzaku - Vanessa.mp3
AudioLeadIn: 0
PreviewTime: 66887
Countdown: 0
SampleSet: Soft
StackLeniency: 0.7
Mode: 3
LetterboxInBreaks: 0
SpecialStyle: 0
WidescreenStoryboard: 1

[Editor]
Bookmarks: 725,5914,11103,12400,13697,18887,22779,24076,26670,29265,33157,34454,44833,55211,65589,66887,87643,106350,126076,132651
DistanceSpacing: 0.6
BeatDivisor: 3
GridSize: 4
TimelineZoom: 2.899999

[Metadata]
Title:VANESSA
TitleUnicode:VANESSA
Artist:Suzaku
ArtistUnicode:Suzaku
Creator:Xenophilius
Version:4k Normal
Source:beatmania IIDX 14 GOLD
Tags:o2jam dance dance revolution mark101 nixo
BeatmapID:925615
BeatmapSetID:423665

[Difficulty]
HPDrainRate:8.5
CircleSize:4
OverallDifficulty:8
ApproachRate:5
SliderMultiplier:1.4
SliderTickRate:1

[Events]
//Background and Video events
0,0,"bg.jpg",0,0
//Break Periods
//Storyboard Layer 0 (Background)
//Storyboard Layer 1 (Fail)
//Storyboard Layer 2 (Pass)
//Storyboard Layer 3 (Foreground)
//Storyboard Sound Samples

[TimingPoints]
725,324.324324324324,4,2,1,30,1,0
13697,-100,4,2,1,30,0,1
22779,-100,4,2,1,30,0,0
24076,-100,4,2,1,30,0,1
33157,-100,4,2,1,30,0,0
66887,-100,4,2,1,30,0,1
75968,-100,4,2,1,30,0,0
77265,-100,4,2,1,30,0,1
86346,-100,4,2,1,30,0,0

[HitObjects]
448,192,725,5,4,0:0:0:0:
64,192,725,128,0,2022:0:0:0:0:
448,192,2022,128,0,3319:0:0:0:0:
320,192,3319,128,0,4616:0:0:0:0:
192,192,4616,128,0,5914:0:0:0:0:
448,192,5914,1,4,0:0:0:0:
64,192,5914,1,8,0:0:0:0:
320,192,6238,1,8,0:0:0:0:
64,192,6562,1,8,0:0:0:0:
448,192,6887,1,8,0:0:0:0:
448,192,7211,1,8,0:0:0:0:
192,192,7535,1,8,0:0:0:0:
448,192,7860,1,8,0:0:0:0:
64,192,8184,1,8,0:0:0:0:
320,192,8508,128,0,8724:0:0:0:0:
64,192,8833,128,0,9049:0:0:0:0:
448,192,9157,128,0,9373:0:0:0:0:
192,192,9481,128,0,9697:0:0:0:0:
64,192,9806,1,8,0:0:0:0:
448,192,9914,1,8,0:0:0:0:
64,192,10022,1,8,0:0:0:0:
448,192,10130,1,8,0:0:0:0:
64,192,10238,1,8,0:0:0:0:
448,192,10346,1,8,0:0:0:0:
192,192,10454,1,8,0:0:0:0:
320,192,10562,1,8,0:0:0:0:
192,192,10670,1,8,0:0:0:0:
320,192,10779,1,8,0:0:0:0:
192,192,10887,1,8,0:0:0:0:
320,192,10995,1,8,0:0:0:0:
448,192,11103,128,0,12400:0:0:0:0:
64,192,12400,1,0,0:0:0:0:
448,192,12508,1,0,0:0:0:0:
192,192,12616,1,0,0:0:0:0:
320,192,12724,1,0,0:0:0:0:
64,192,12833,1,0,0:0:0:0:
448,192,12941,1,0,0:0:0:0:
192,192,13049,1,0,0:0:0:0:
320,192,13157,1,0,0:0:0:0:
64,192,13265,1,0,0:0:0:0:
192,192,13373,1,0,0:0:0:0:
320,192,13481,1,0,0:0:0:0:
448,192,13589,1,0,0:0:0:0:
64,192,13697,128,0,14022:0:0:0:0:
192,192,14022,128,0,14346:0:0:0:0:
64,192,14346,128,0,14670:0:0:0:0:
192,192,14670,128,0,14995:0:0:0:0:
64,192,14995,128,0,15319:0:0:0:0:
192,192,15319,128,0,15643:0:0:0:0:
448,192,15643,1,0,0:0:0:0:
320,192,15752,1,0,0:0:0:0:
192,192,15860,1,0,0:0:0:0:
64,192,15968,1,0,0:0:0:0:
448,192,16076,1,0,0:0:0:0:
320,192,16184,1,0,0:0:0:0:
448,192,16292,128,0,16616:0:0:0:0:
192,192,16616,128,0,16941:0:0:0:0:
448,192,16941,128,0,17265:0:0:0:0:
192,192,17265,128,0,17589:0:0:0:0:
448,192,17589,128,0,17914:0:0:0:0:
192,192,17914,128,0,18238:0:0:0:0:
320,192,18238,1,0,0:0:0:0:
192,192,18346,1,0,0:0:0:0:
64,192,18454,1,0,0:0:0:0:
192,192,18562,1,0,0:0:0:0:
320,192,18670,1,0,0:0:0:0:
448,192,18779,1,0,0:0:0:0:
64,192,18887,1,0,0:0:0:0:
448,192,18995,1,0,0:0:0:0:
192,192,19103,1,0,0:0:0:0:
320,192,19211,1,0,0:0:0:0:
64,192,19319,1,0,0:0:0:0:
448,192,19427,1,0,0:0:0:0:
320,192,19535,1,0,0:0:0:0:
192,192,19643,1,0,0:0:0:0:
64,192,19752,1,0,0:0:0:0:
192,192,19860,1,0,0:0:0:0:
320,192,19968,1,0,0:0:0:0:
448,192,20076,1,0,0:0:0:0:
64,192,20184,128,0,20508:0:0:0:0:
192,192,20508,128,0,20833:0:0:0:0:
320,192,20833,128,0,21157:0:0:0:0:
448,192,21157,128,0,21481:0:0:0:0:
320,192,21481,128,0,21806:0:0:0:0:
64,192,21806,128,0,22130:0:0:0:0:
448,192,22130,128,0,22454:0:0:0:0:
192,192,22454,128,0,22779:0:0:0:0:
320,192,22779,1,0,0:0:0:0:
192,192,22887,1,0,0:0:0:0:
64,192,22995,1,0,0:0:0:0:
192,192,23103,1,0,0:0:0:0:
320,192,23211,1,0,0:0:0:0:
448,192,23319,1,0,0:0:0:0:
64,192,23427,1,0,0:0:0:0:
192,192,23535,1,0,0:0:0:0:
320,192,23643,1,0,0:0:0:0:
448,192,23752,1,0,0:0:0:0:
192,192,23860,1,0,0:0:0:0:
64,192,23968,1,0,0:0:0:0:
448,192,24076,128,0,24400:0:0:0:0:
320,192,24400,128,0,24724:0:0:0:0:
448,192,24724,128,0,25049:0:0:0:0:
320,192,25049,128,0,25373:0:0:0:0:
448,192,25373,128,0,25697:0:0:0:0:
320,192,25697,128,0,26022:0:0:0:0:
64,192,26022,1,0,0:0:0:0:
192,192,26130,1,0,0:0:0:0:
320,192,26238,1,0,0:0:0:0:
448,192,26346,1,0,0:0:0:0:
64,192,26454,1,0,0:0:0:0:
192,192,26562,1,0,0:0:0:0:
64,192,26670,128,0,26995:0:0:0:0:
320,192,26995,128,0,27319:0:0:0:0:
64,192,27319,128,0,27643:0:0:0:0:
320,192,27643,128,0,27968:0:0:0:0:
64,192,27968,128,0,28292:0:0:0:0:
320,192,28292,128,0,28616:0:0:0:0:
192,192,28616,1,0,0:0:0:0:
320,192,28724,1,0,0:0:0:0:
448,192,28833,1,0,0:0:0:0:
320,192,28941,1,0,0:0:0:0:
192,192,29049,1,0,0:0:0:0:
64,192,29157,1,0,0:0:0:0:
448,192,29265,128,0,29589:0:0:0:0:
320,192,29589,128,0,29914:0:0:0:0:
192,192,29914,128,0,30238:0:0:0:0:
64,192,30238,128,0,30562:0:0:0:0:
320,192,30562,128,0,30887:0:0:0:0:
64,192,30887,128,0,31211:0:0:0:0:
448,192,31211,128,0,31535:0:0:0:0:
192,192,31535,128,0,31860:0:0:0:0:
64,192,31860,128,0,32184:0:0:0:0:
448,192,32184,128,0,32508:0:0:0:0:
192,192,32508,128,0,32833:0:0:0:0:
64,192,32833,128,0,33157:0:0:0:0:
192,192,33157,1,0,0:0:0:0:
320,192,33265,1,0,0:0:0:0:
448,192,33373,1,0,0:0:0:0:
320,192,33481,1,0,0:0:0:0:
192,192,33589,1,0,0:0:0:0:
64,192,33697,1,0,0:0:0:0:
448,192,33806,1,0,0:0:0:0:
320,192,33914,1,0,0:0:0:0:
192,192,34022,1,0,0:0:0:0:
64,192,34130,1,0,0:0:0:0:
320,192,34238,1,0,0:0:0:0:
448,192,34346,1,0,0:0:0:0:
64,192,34454,128,0,35752:0:0:0:0:
448,192,35752,128,0,37049:0:0:0:0:
192,192,37049,128,0,38346:0:0:0:0:
448,192,38346,128,0,39643:0:0:0:0:
64,192,39643,128,0,40941:0:0:0:0:
448,192,40941,128,0,42238:0:0:0:0:
192,192,42238,128,0,43535:0:0:0:0:
448,192,43535,128,0,44833:0:0:0:0:
192,192,44833,1,0,0:0:0:0:
192,192,45157,1,0,0:0:0:0:
192,192,45373,1,0,0:0:0:0:
320,192,45481,1,0,0:0:0:0:
320,192,45806,1,0,0:0:0:0:
320,192,46022,1,0,0:0:0:0:
448,192,46130,1,0,0:0:0:0:
448,192,46454,1,0,0:0:0:0:
448,192,46670,1,0,0:0:0:0:
64,192,46779,1,0,0:0:0:0:
64,192,47103,1,0,0:0:0:0:
64,192,47319,1,0,0:0:0:0:
192,192,47427,1,0,0:0:0:0:
192,192,47752,1,0,0:0:0:0:
192,192,47968,1,0,0:0:0:0:
320,192,48076,1,0,0:0:0:0:
320,192,48400,1,0,0:0:0:0:
320,192,48616,1,0,0:0:0:0:
448,192,48724,1,0,0:0:0:0:
64,192,48833,1,0,0:0:0:0:
192,192,48941,1,0,0:0:0:0:
320,192,49049,1,0,0:0:0:0:
320,192,49265,1,0,0:0:0:0:
192,192,49373,1,0,0:0:0:0:
192,192,49697,1,0,0:0:0:0:
192,192,49914,1,0,0:0:0:0:
64,192,50022,1,0,0:0:0:0:
64,192,50346,1,0,0:0:0:0:
64,192,50562,1,0,0:0:0:0:
448,192,50670,1,0,0:0:0:0:
448,192,50995,1,0,0:0:0:0:
448,192,51211,1,0,0:0:0:0:
320,192,51319,1,0,0:0:0:0:
320,192,51643,1,0,0:0:0:0:
320,192,51860,1,0,0:0:0:0:
192,192,51968,1,0,0:0:0:0:
192,192,52292,1,0,0:0:0:0:
192,192,52508,1,0,0:0:0:0:
64,192,52616,1,0,0:0:0:0:
64,192,52941,1,0,0:0:0:0:
64,192,53157,1,0,0:0:0:0:
448,192,53265,1,0,0:0:0:0:
448,192,53589,1,0,0:0:0:0:
448,192,53806,1,0,0:0:0:0:
64,192,53914,128,0,54022:0:0:0:0:
192,192,54022,128,0,54130:0:0:0:0:
320,192,54130,128,0,54238:0:0:0:0:
448,192,54238,128,0,54562:0:0:0:0:
64,192,54562,128,0,54887:0:0:0:0:
320,192,54887,128,0,55211:0:0:0:0:
448,192,55211,128,0,56508:0:0:0:0:
64,192,56508,1,8,0:0:0:0:
192,192,56616,1,8,0:0:0:0:
320,192,56724,1,8,0:0:0:0:
448,192,56833,1,8,0:0:0:0:
64,192,57049,128,0,57157:0:0:0:0:
192,192,57481,128,0,57589:0:0:0:0:
192,192,57697,128,0,57806:0:0:0:0:
448,192,57806,128,0,58022:0:0:0:0:
320,192,58022,128,0,58130:0:0:0:0:
64,192,58130,1,8,0:0:0:0:
448,192,58454,128,0,58562:0:0:0:0:
192,192,58779,128,0,58887:0:0:0:0:
64,192,58887,128,0,58995:0:0:0:0:
320,192,59103,128,0,59427:0:0:0:0:
192,192,59103,1,8,0:0:0:0:
64,192,59427,128,0,59752:0:0:0:0:
448,192,59752,128,0,60076:0:0:0:0:
192,192,60076,128,0,60400:0:0:0:0:
320,192,60400,1,0,0:0:0:0:
448,192,60400,1,8,0:0:0:0:
192,192,60724,1,8,0:0:0:0:
64,192,60724,1,0,0:0:0:0:
192,192,61049,1,8,0:0:0:0:
448,192,61049,1,0,0:0:0:0:
320,192,61373,1,8,0:0:0:0:
64,192,61373,1,0,0:0:0:0:
64,192,61697,1,0,0:0:0:0:
192,192,61697,1,8,0:0:0:0:
320,192,62022,1,8,0:0:0:0:
448,192,62022,1,0,0:0:0:0:
320,192,62346,1,8,0:0:0:0:
64,192,62346,1,0,0:0:0:0:
192,192,62670,1,0,0:0:0:0:
448,192,62670,1,8,0:0:0:0:
64,192,62995,1,0,0:0:0:0:
192,192,63103,1,0,0:0:0:0:
320,192,63211,1,0,0:0:0:0:
448,192,63319,1,0,0:0:0:0:
320,192,63427,1,0,0:0:0:0:
192,192,63535,1,0,0:0:0:0:
64,192,63643,1,0,0:0:0:0:
448,192,63752,1,0,0:0:0:0:
320,192,63860,1,0,0:0:0:0:
192,192,63968,1,0,0:0:0:0:
64,192,64076,1,0,0:0:0:0:
448,192,64184,1,0,0:0:0:0:
64,192,64292,128,0,64400:0:0:0:0:
320,192,64400,128,0,64508:0:0:0:0:
64,192,64508,128,0,64616:0:0:0:0:
320,192,64616,128,0,64724:0:0:0:0:
64,192,64724,128,0,64833:0:0:0:0:
320,192,64833,128,0,64941:0:0:0:0:
192,192,64941,128,0,65049:0:0:0:0:
448,192,65049,128,0,65157:0:0:0:0:
192,192,65157,128,0,65265:0:0:0:0:
448,192,65265,128,0,65373:0:0:0:0:
192,192,65373,128,0,65481:0:0:0:0:
448,192,65481,128,0,65589:0:0:0:0:
192,192,65589,1,4,0:0:0:0:
320,192,65697,1,0,0:0:0:0:
448,192,65806,1,0,0:0:0:0:
64,192,65914,1,0,0:0:0:0:
192,192,66022,1,0,0:0:0:0:
320,192,66130,1,0,0:0:0:0:
192,192,66238,1,0,0:0:0:0:
64,192,66346,1,0,0:0:0:0:
448,192,66454,1,0,0:0:0:0:
320,192,66562,1,0,0:0:0:0:
192,192,66670,1,0,0:0:0:0:
64,192,66779,1,0,0:0:0:0:
448,192,66887,128,0,67211:0:0:0:0:
320,192,67211,128,0,67535:0:0:0:0:
448,192,67535,128,0,67860:0:0:0:0:
320,192,67860,128,0,68184:0:0:0:0:
448,192,68184,128,0,68508:0:0:0:0:
320,192,68508,128,0,68833:0:0:0:0:
64,192,68833,1,0,0:0:0:0:
192,192,68941,1,0,0:0:0:0:
320,192,69049,1,0,0:0:0:0:
448,192,69157,1,0,0:0:0:0:
64,192,69265,1,0,0:0:0:0:
192,192,69373,1,0,0:0:0:0:
64,192,69481,128,0,69806:0:0:0:0:
320,192,69806,128,0,70130:0:0:0:0:
64,192,70130,128,0,70454:0:0:0:0:
320,192,70454,128,0,70779:0:0:0:0:
64,192,70779,128,0,71103:0:0:0:0:
320,192,71103,128,0,71427:0:0:0:0:
192,192,71427,1,0,0:0:0:0:
320,192,71535,1,0,0:0:0:0:
448,192,71643,1,0,0:0:0:0:
320,192,71752,1,0,0:0:0:0:
192,192,71860,1,0,0:0:0:0:
64,192,71968,1,0,0:0:0:0:
448,192,72076,1,0,0:0:0:0:
64,192,72184,1,0,0:0:0:0:
320,192,72292,1,0,0:0:0:0:
192,192,72400,1,0,0:0:0:0:
448,192,72508,1,0,0:0:0:0:
64,192,72616,1,0,0:0:0:0:
192,192,72724,1,0,0:0:0:0:
320,192,72833,1,0,0:0:0:0:
448,192,72941,1,0,0:0:0:0:
320,192,73049,1,0,0:0:0:0:
192,192,73157,1,0,0:0:0:0:
64,192,73265,1,0,0:0:0:0:
448,192,73373,128,0,73697:0:0:0:0:
320,192,73697,128,0,74022:0:0:0:0:
192,192,74022,128,0,74346:0:0:0:0:
64,192,74346,128,0,74670:0:0:0:0:
192,192,74670,128,0,74995:0:0:0:0:
448,192,74995,128,0,75319:0:0:0:0:
64,192,75319,128,0,75643:0:0:0:0:
320,192,75643,128,0,75968:0:0:0:0:
192,192,75968,1,0,0:0:0:0:
320,192,76076,1,0,0:0:0:0:
448,192,76184,1,0,0:0:0:0:
320,192,76292,1,0,0:0:0:0:
192,192,76400,1,0,0:0:0:0:
64,192,76508,1,0,0:0:0:0:
448,192,76616,1,0,0:0:0:0:
320,192,76724,1,0,0:0:0:0:
192,192,76833,1,0,0:0:0:0:
64,192,76941,1,0,0:0:0:0:
320,192,77049,1,0,0:0:0:0:
448,192,77157,1,0,0:0:0:0:
64,192,77265,128,0,77589:0:0:0:0:
192,192,77589,128,0,77914:0:0:0:0:
64,192,77914,128,0,78238:0:0:0:0:
192,192,78238,128,0,78562:0:0:0:0:
64,192,78562,128,0,78887:0:0:0:0:
192,192,78887,128,0,79211:0:0:0:0:
448,192,79211,1,0,0:0:0:0:
320,192,79319,1,0,0:0:0:0:
192,192,79427,1,0,0:0:0:0:
64,192,79535,1,0,0:0:0:0:
448,192,79643,1,0,0:0:0:0:
320,192,79752,1,0,0:0:0:0:
448,192,79860,128,0,80184:0:0:0:0:
192,192,80184,128,0,80508:0:0:0:0:
448,192,80508,128,0,80833:0:0:0:0:
192,192,80833,128,0,81157:0:0:0:0:
448,192,81157,128,0,81481:0:0:0:0:
192,192,81481,128,0,81806:0:0:0:0:
320,192,81806,1,0,0:0:0:0:
192,192,81914,1,0,0:0:0:0:
64,192,82022,1,0,0:0:0:0:
192,192,82130,1,0,0:0:0:0:
320,192,82238,1,0,0:0:0:0:
448,192,82346,1,0,0:0:0:0:
64,192,82454,128,0,82779:0:0:0:0:
192,192,82779,128,0,83103:0:0:0:0:
320,192,83103,128,0,83427:0:0:0:0:
448,192,83427,128,0,83752:0:0:0:0:
192,192,83752,128,0,84076:0:0:0:0:
448,192,84076,128,0,84400:0:0:0:0:
64,192,84400,128,0,84724:0:0:0:0:
320,192,84724,128,0,85049:0:0:0:0:
448,192,85049,128,0,85373:0:0:0:0:
64,192,85373,128,0,85697:0:0:0:0:
320,192,85697,128,0,86022:0:0:0:0:
448,192,86022,128,0,86346:0:0:0:0:
320,192,86346,1,0,0:0:0:0:
192,192,86454,1,0,0:0:0:0:
64,192,86562,1,0,0:0:0:0:
192,192,86670,1,0,0:0:0:0:
320,192,86779,1,0,0:0:0:0:
448,192,86887,1,0,0:0:0:0:
64,192,86995,1,0,0:0:0:0:
192,192,87103,1,0,0:0:0:0:
320,192,87211,1,0,0:0:0:0:
448,192,87319,1,0,0:0:0:0:
192,192,87427,1,0,0:0:0:0:
64,192,87535,1,0,0:0:0:0:
448,192,87643,128,0,88292:0:0:0:0:
320,192,88941,1,4,0:0:0:0:
64,192,88941,128,0,91535:0:0:0:0:
