osu file format v14

[General]
AudioFilename: audio.mp3
AudioLeadIn: 0
PreviewTime: 12344
Countdown: 0
SampleSet: Soft
StackLeniency: 0.3
Mode: 0
LetterboxInBreaks: 0
WidescreenStoryboard: 1

[Editor]
DistanceSpacing: 1.5
BeatDivisor: 3
GridSize: 8
TimelineZoom: 4.099998

[Metadata]
Title:VANESSA
TitleUnicode:VANESSA
Artist:Suzaku
ArtistUnicode:朱雀
Creator:Luscent
Version:Insane
Source:beatmania IIDX 14 GOLD
Tags:DJ YOSHITAKA DECEPTIVE GABBA Dance Revolution X2 ミライダガッキ Future Tom Ver.2 Original SoundTrack OST Bemani Konami Digital Entertainment 2007 instrumental video game EvilElvis EvilElvisv2 Jounzan Natteke desu down electronic
BeatmapID:2520362
BeatmapSetID:1208907

[Difficulty]
HPDrainRate:5
CircleSize:4
OverallDifficulty:7
ApproachRate:8.5
SliderMultiplier:1.6
SliderTickRate:1

[Events]
//Background and Video events
0,0,"Suzaku.jpg",0,0
//Break Periods
//Storyboard Layer 0 (Background)
//Storyboard Layer 1 (Fail)
//Storyboard Layer 2 (Pass)
//Storyboard Layer 3 (Foreground)
//Storyboard Layer 4 (Overlay)
//Storyboard Sound Samples

[TimingPoints]
723,324.324324324324,4,2,0,40,1,0
5912,-100,4,2,0,60,0,0
7533,-125,4,2,0,60,0,0
7858,-166.666666666667,4,2,0,60,0,0
9804,-166.666666666667,4,2,0,75,0,0
12398,-166.666666666667,4,2,0,60,0,0
13371,-125,4,2,0,60,0,0
13695,-100,4,2,0,80,0,1
22777,-100,4,2,0,70,0,0
23425,-100,4,2,0,50,0,0
24074,-100,4,2,0,80,0,1
33804,-100,4,1,0,70,0,1
34452,-133.333333333333,4,1,0,70,0,0
35101,-133.333333333333,4,1,0,50,0,0
53912,-133.333333333333,4,1,0,65,0,0
54560,-133.333333333333,4,2,0,70,0,0
55209,-117.647058823529,4,2,0,60,0,0
62993,-117.647058823529,4,2,0,65,0,0
63317,-117.647058823529,4,2,0,70,0,0
63641,-117.647058823529,4,2,0,75,0,0
63966,-117.647058823529,4,2,0,80,0,0
66236,-117.647058823529,4,2,0,60,0,0
66560,-100,4,2,0,65,0,0
66885,-100,4,2,0,85,0,1
74668,-100,4,2,0,70,0,0
77263,-100,4,2,0,85,0,1
85047,-100,4,2,0,88,0,1
85371,-100,4,2,0,91,0,1
85695,-100,4,2,0,94,0,1
86020,-100,4,2,0,97,0,1
86344,-100,4,2,0,100,0,1
87641,-100,4,2,0,85,0,0

[Colours]
Combo1 : 163,160,160
Combo2 : 251,171,106
Combo3 : 255,88,100
Combo4 : 253,214,189
Combo5 : 255,206,206
Combo6 : 255,255,255

[HitObjects]
38,345,723,85,4,1:0:0:0:
112,336,1371,1,0,3:0:0:0:
186,327,2020,1,0,3:0:0:0:
260,318,2668,1,0,3:0:0:0:
481,228,3155,69,0,1:0:0:0:
481,228,3317,1,0,1:0:0:0:
407,219,3965,1,0,3:0:0:0:
333,210,4614,1,0,3:0:0:0:
259,201,5262,1,0,3:0:0:0:
57,137,5912,54,0,P|48:85|70:22,1,106.666666666667,0|0,1:0|0:0,0:0:0:0:
99,3,6236,1,0,1:0:0:0:
146,3,6344,1,0,0:0:0:0:
191,17,6452,1,0,0:0:0:0:
213,59,6560,2,0,L|203:183,1,106.666666666667,0|0,1:0|0:0,0:0:0:0:
128,181,6885,2,0,L|136:74,1,106.666666666667,0|0,1:0|0:0,0:0:0:0:
310,121,7209,6,0,P|279:178|270:242,1,106.666666666667,0|0,1:0|0:0,0:0:0:0:
158,327,7533,2,0,P|198:296|251:280,1,85.3333333333333,0|0,1:0|0:0,0:0:0:0:
358,183,7858,2,0,P|342:226|342:262,1,63.9999980468751,0|0,1:0|0:0,0:0:0:0:
283,334,8182,2,0,P|312:322|344:318,1,63.9999980468751,0|0,1:0|0:0,0:0:0:0:
427,340,8506,70,0,L|425:359,2,15.9999995117188,2|0|0,1:2|0:0|0:0,0:0:0:0:
498,283,8831,2,0,L|496:302,2,15.9999995117188,2|0|0,1:2|0:0|0:0,0:0:0:0:
488,206,9155,2,0,L|489:190,4,15.9999995117188,2|0|0|0|0,1:2|0:0|0:0|0:0|0:0,0:0:0:0:
423,153,9479,2,0,L|424:137,4,15.9999995117188,2|0|0|0|0,1:2|0:0|0:0|0:0|0:0,0:0:0:0:
357,239,9804,5,0,1:0:0:0:
325,244,9912,1,0,1:0:0:0:
293,249,10020,1,0,1:0:0:0:
235,188,10128,37,0,1:0:0:0:
267,183,10236,1,0,1:0:0:0:
299,178,10344,1,0,1:0:0:0:
334,102,10452,5,0,1:0:0:0:
302,107,10560,1,0,1:0:0:0:
270,112,10668,1,0,1:0:0:0:
212,51,10776,37,0,1:0:0:0:
244,46,10884,1,0,1:0:0:0:
276,41,10992,1,0,1:0:0:0:
348,29,11101,53,6,1:2:0:0:
188,209,12398,38,0,P|173:231|169:258,2,31.9999990234375,2|2|2,0:0|0:0|0:0,0:0:0:0:
103,258,12722,2,0,P|114:281|135:298,2,31.9999990234375,2|2|2,0:0|0:0|0:0,0:0:0:0:
102,356,13047,2,0,P|128:357|153:347,2,31.9999990234375,2|2|2,0:0|0:0|0:0,0:0:0:0:
191,306,13371,2,0,L|266:296,1,42.6666666666667,2|0,1:2|2:2,0:0:0:0:
345,324,13587,1,0,1:0:0:0:
345,324,13695,6,0,P|358:300|367:275,1,53.3333333333333,6|0,1:2|0:0,0:0:0:0:
369,243,13912,1,0,1:2:0:0:
444,242,14020,6,0,P|436:215|424:191,1,53.3333333333333,2|0,1:2|0:0,0:0:0:0:
403,167,14237,1,0,1:2:0:0:
456,114,14344,70,0,P|431:100|406:91,1,53.3333333333333,2|0,1:2|0:0,0:0:0:0:
373,89,14560,1,0,1:2:0:0:
373,15,14668,6,0,P|345:22|321:34,1,53.3333333333333,2|0,1:2|0:0,0:0:0:0:
297,55,14885,1,0,1:2:0:0:
226,84,14993,70,0,B|238:138|238:138|218:216,1,106.666666666667,2|0,1:2|1:0,0:0:0:0:
166,338,15317,2,0,B|154:284|154:284|174:206,1,106.666666666667,2|0,1:2|1:0,0:0:0:0:
58,64,15641,5,2,1:2:0:0:
66,83,15750,1,2,0:0:0:0:
74,102,15858,1,2,0:0:0:0:
44,130,15966,69,6,1:2:0:0:
52,149,16075,1,2,2:2:0:0:
60,168,16183,1,2,1:2:0:0:
13,225,16290,6,0,P|38:234|64:239,1,53.3333333333333,6|0,1:2|0:0,0:0:0:0:
96,236,16507,1,0,1:0:0:0:
109,309,16615,70,0,P|134:296|156:281,1,53.3333333333333,2|0,1:2|0:0,0:0:0:0:
177,257,16832,1,0,1:0:0:0:
237,301,16938,6,0,P|246:274|251:248,1,53.3333333333333,2|0,1:2|0:0,0:0:0:0:
249,215,17155,1,0,1:0:0:0:
322,204,17263,70,0,P|310:177|295:155,1,53.3333333333333,2|0,1:2|0:0,0:0:0:0:
271,135,17480,1,0,1:0:0:0:
154,151,17587,6,0,B|141:101|141:101|153:47,1,106.666666666667,2|0,1:2|1:0,0:0:0:0:
255,22,17912,2,0,B|304:34|304:34|358:22,1,106.666666666667,2|0,1:2|1:0,0:0:0:0:
476,37,18236,69,2,1:2:0:0:
473,58,18344,1,2,0:0:0:0:
470,79,18452,1,2,0:0:0:0:
432,103,18560,5,6,1:2:0:0:
435,124,18668,1,2,0:0:0:0:
438,145,18776,1,2,1:2:0:0:
412,210,18885,70,0,B|361:220|361:220|282:200,1,106.666666666667,4|2,1:2|0:2,0:0:0:0:
179,203,19209,1,2,1:2:0:0:
186,222,19317,1,2,0:2:0:0:
193,241,19425,1,2,0:2:0:0:
200,260,19533,2,0,B|216:308|216:308|191:391,1,106.666666666667,0|0,1:0|0:0,0:0:0:0:
62,283,19858,2,0,L|82:158,1,106.666666666667,4|0,1:2|0:0,0:0:0:0:
109,84,20182,6,0,L|44:89,2,53.3333333333333,4|0|2,1:2|0:0|0:2,0:0:0:0:
181,117,20506,1,0,1:0:0:0:
187,91,20614,1,0,0:0:0:0:
193,65,20722,1,2,0:0:0:0:
266,118,20831,70,0,L|254:170,2,53.3333333333333,0|0|2,1:0|0:0|0:0,0:0:0:0:
327,64,21155,2,0,L|315:12,2,53.3333333333333,4|0|2,1:2|0:0|0:0,0:0:0:0:
419,51,21479,5,4,1:2:0:0:
424,77,21587,1,2,0:2:0:0:
429,103,21695,1,2,0:2:0:0:
469,127,21804,69,0,1:2:0:0:
454,148,21912,1,2,0:2:0:0:
439,170,22020,1,2,0:2:0:0:
450,216,22128,5,0,1:2:0:0:
425,220,22236,1,2,0:2:0:0:
398,225,22344,1,2,0:2:0:0:
373,265,22452,69,4,1:2:0:0:
353,250,22560,1,2,0:2:0:0:
330,235,22668,1,2,0:2:0:0:
283,245,22777,54,0,L|218:251,2,53.3333333333333,4|0|0,1:2|1:2|1:2,0:0:0:0:
220,353,23101,2,0,B|237:304|237:304|229:249,1,106.666666666667,4|0,1:2|0:0,0:0:0:0:
52,305,23425,2,0,L|158:295,1,106.666666666667,6|0,0:2|0:0,0:0:0:0:
159,219,23750,1,0,1:0:0:0:
14,229,23966,1,0,1:0:0:0:
14,229,24074,22,0,L|4:169,1,53.3333333333333,6|0,1:2|0:0,0:0:0:0:
0,146,24290,1,0,1:0:0:0:
85,187,24398,6,0,L|75:127,1,53.3333333333333,2|0,1:2|0:0,0:0:0:0:
71,104,24614,1,0,1:0:0:0:
156,145,24723,70,0,L|146:85,1,53.3333333333333,2|0,1:2|0:0,0:0:0:0:
142,62,24939,1,0,1:0:0:0:
227,103,25047,6,0,L|217:43,1,53.3333333333333,2|0,1:2|0:0,0:0:0:0:
213,20,25263,1,0,1:0:0:0:
331,69,25371,70,0,B|308:119|308:119|314:170,1,106.666666666667,2|0,1:2|1:0,0:0:0:0:
365,313,25695,2,0,B|388:263|388:263|382:212,1,106.666666666667,2|0,1:2|1:0,0:0:0:0:
230,353,26020,5,2,1:2:0:0:
222,334,26129,1,2,0:0:0:0:
214,315,26237,1,2,0:0:0:0:
244,287,26345,69,6,1:2:0:0:
236,268,26452,1,2,2:2:0:0:
228,249,26560,1,2,1:2:0:0:
156,212,26668,6,0,L|166:152,1,53.3333333333333,6|0,1:2|0:0,0:0:0:0:
170,129,26884,1,0,1:0:0:0:
237,178,26993,70,0,L|247:118,1,53.3333333333333,2|0,1:2|0:0,0:0:0:0:
251,95,27209,1,0,1:0:0:0:
318,144,27317,6,0,L|328:84,1,53.3333333333333,2|0,1:2|0:0,0:0:0:0:
332,61,27533,1,0,1:0:0:0:
399,110,27641,70,0,L|409:50,1,53.3333333333333,2|0,1:2|0:0,0:0:0:0:
413,27,27857,1,0,1:0:0:0:
506,79,27966,6,0,B|505:137|505:137|460:224,1,106.666666666667,2|0,1:2|1:0,0:0:0:0:
328,239,28290,2,0,B|386:240|386:240|429:262,1,106.666666666667,2|0,1:2|1:0,0:0:0:0:
384,363,28614,69,2,1:2:0:0:
357,360,28722,1,2,0:0:0:0:
330,357,28831,1,2,0:0:0:0:
287,324,28939,5,6,1:2:0:0:
260,327,29048,1,2,0:0:0:0:
233,330,29156,1,2,1:2:0:0:
182,352,29263,70,0,B|132:328|132:328|80:329,1,106.666666666667,4|2,1:2|0:2,0:0:0:0:
14,262,29587,1,2,1:2:0:0:
18,235,29695,1,2,0:2:0:0:
22,208,29804,1,2,0:2:0:0:
26,181,29912,2,0,L|39:67,1,106.666666666667,0|0,1:0|0:0,0:0:0:0:
114,29,30236,2,0,B|165:46|165:46|217:39,1,106.666666666667,4|0,1:2|0:0,0:0:0:0:
306,62,30560,6,0,L|313:7,2,53.3333333333333,4|0|2,1:2|0:0|0:2,0:0:0:0:
239,119,30885,1,0,1:0:0:0:
212,124,30993,1,0,0:0:0:0:
185,129,31101,1,2,0:0:0:0:
113,159,31209,70,0,B|113:187|113:187|122:210,2,53.3333333333333,4|0|2,1:2|0:0|0:0,0:0:0:0:
188,259,31533,2,0,B|188:287|188:287|178:310,2,53.3333333333333,4|0|2,1:2|0:0|0:0,0:0:0:0:
272,277,31858,37,6,1:2:0:0:
298,281,31966,1,0,0:2:0:0:
324,286,32074,1,0,1:2:0:0:
389,251,32182,69,2,1:2:0:0:
405,230,32290,1,0,0:2:0:0:
422,210,32398,1,0,1:2:0:0:
424,136,32506,53,6,1:2:0:0:
414,112,32614,1,0,0:2:0:0:
405,87,32722,1,0,1:2:0:0:
341,48,32831,5,2,1:2:0:0:
316,44,32939,1,0,0:2:0:0:
289,40,33047,1,0,1:2:0:0:
223,75,33155,22,0,L|153:86,2,53.3333333333333,6|2|2,1:2|1:2|1:2,0:0:0:0:
163,157,33479,2,0,L|93:168,2,53.3333333333333,2|2|2,1:2|1:2|1:2,0:0:0:0:
57,232,33804,2,0,L|41:207,5,26.6666666666667,6|0|2|0|2|0,1:2|1:0|1:2|1:0|1:2|1:0,1:0:0:0:
130,234,34128,69,0,1:0:0:0:
127,265,34236,1,0,1:0:0:0:
124,296,34344,1,0,1:0:0:0:
122,327,34452,22,0,B|185:338|185:338|243:377,1,120.000004577637,4|0,1:0|2:0,0:0:0:0:
366,308,35101,2,0,L|378:160,1,120.000004577637
202,110,35641,1,0,0:0:0:0:
202,110,35750,6,0,B|246:70|246:70|316:61,1,120.000004577637
62,52,36398,2,0,B|120:41|120:41|170:-7,1,120.000004577637
53,254,37047,70,0,B|17:204|17:204|14:125,1,120.000004577637,4|0,0:2|0:0,0:0:0:0:
170,261,37695,2,0,B|134:311|134:311|131:390,1,120.000004577637
276,301,38236,1,0,0:0:0:0:
276,301,38344,6,0,L|398:290,1,120.000004577637
494,332,38993,2,0,L|516:189,1,120.000004577637
469,11,39641,70,0,B|439:49|439:49|425:126,1,120.000004577637,4|0,0:2|0:0,0:0:0:0:
312,205,40290,2,0,B|342:167|342:167|356:90,1,120.000004577637
164,14,40831,1,0,0:0:0:0:
164,14,40939,6,0,L|175:149,1,120.000004577637
108,230,41587,2,0,L|98:110,1,120.000004577637
0,297,42236,70,0,B|60:292|60:292|126:325,1,120.000004577637,4|0,0:2|0:0,0:0:0:0:
205,365,42885,2,0,B|265:370|265:370|318:343,1,120.000004577637
405,256,43533,1,2,0:2:0:0:
399,228,43641,1,2,0:2:0:0:
393,200,43750,1,2,0:2:0:0:
388,172,43858,2,0,L|371:93,1,80.0000030517579,2|2,0:2|0:2,0:0:0:0:
353,23,44182,2,0,B|415:37|415:37|498:14,1,120.000004577637,2|2,0:2|0:2,0:0:0:0:
512,125,44722,1,0,0:0:0:0:
512,125,44831,6,0,L|504:216,1,80.0000030517579,4|0,0:0|0:0,0:0:0:0:
502,235,45155,1,2,0:2:0:0:
427,355,45371,1,2,0:2:0:0:
427,355,45479,2,0,B|389:346|389:346|357:312,1,80.0000030517579,2|0,0:2|0:0,0:0:0:0:
344,295,45804,1,2,0:2:0:0:
171,263,46020,1,2,0:2:0:0:
171,263,46128,2,0,B|209:254|209:254|241:220,1,80.0000030517579,2|0,0:2|0:0,0:0:0:0:
254,203,46453,1,2,0:2:0:0:
17,161,46669,1,2,0:2:0:0:
17,161,46777,2,0,L|28:273,1,80.0000030517579,2|0,0:2|0:0,0:0:0:0:
28,271,47101,1,2,0:2:0:0:
163,342,47317,1,2,0:2:0:0:
163,342,47425,70,0,L|174:230,1,80.0000030517579,2|0,0:2|0:0,0:0:0:0:
174,232,47749,1,2,0:2:0:0:
307,152,47966,1,2,0:2:0:0:
307,152,48074,2,0,L|318:264,1,80.0000030517579,2|0,0:2|0:0,0:0:0:0:
318,262,48398,1,2,0:2:0:0:
457,335,48614,1,2,0:2:0:0:
461,307,48722,1,2,0:2:0:0:
465,279,48831,1,0,0:0:0:0:
469,251,48939,1,0,0:0:0:0:
473,223,49047,2,0,B|477:183|477:183|443:127,1,80.0000030517579,2|2,0:2|0:2,0:0:0:0:
378,128,49371,2,0,B|418:81|418:81|427:4,1,120.000004577637,2|2,0:2|0:2,0:0:0:0:
259,32,49912,1,2,0:2:0:0:
259,32,50020,6,0,L|147:40,1,80.0000030517579,6|0,0:2|0:0,0:0:0:0:
150,42,50344,1,2,0:2:0:0:
51,137,50560,1,2,0:2:0:0:
51,137,50668,2,0,L|163:145,1,80.0000030517579,2|0,0:2|0:2,0:0:0:0:
160,147,50992,1,2,0:2:0:0:
225,239,51209,1,2,0:2:0:0:
225,239,51317,2,0,L|113:247,1,80.0000030517579,2|0,0:2|0:2,0:0:0:0:
116,249,51641,1,2,0:2:0:0:
39,342,51858,1,2,0:2:0:0:
39,342,51966,2,0,L|151:350,1,80.0000030517579,2|0,0:2|0:2,0:0:0:0:
148,352,52290,1,2,0:2:0:0:
277,359,52506,1,2,0:2:0:0:
277,359,52614,70,0,B|279:316|279:316|295:282,1,80.0000030517579,2|0,0:2|0:0,0:0:0:0:
310,257,52939,1,2,0:2:0:0:
448,264,53155,1,2,0:2:0:0:
448,264,53263,2,0,B|446:221|446:221|429:187,1,80.0000030517579,2|0,0:2|0:0,0:0:0:0:
415,162,53588,1,2,0:2:0:0:
238,128,53804,1,2,0:2:0:0:
272,119,53912,5,2,0:2:0:0:
306,110,54020,1,4,0:3:0:0:
328,82,54128,1,4,0:3:0:0:
350,54,54236,1,12,0:3:0:0:
146,16,54560,2,0,B|136:79|136:79|152:132,1,120.000004577637,8|0,3:0|1:0,0:0:0:0:
0,218,55209,37,4,1:2:0:0:
26,294,55425,1,2,0:2:0:0:
26,294,55533,2,0,B|69:305|69:305|128:292,1,90.6666683959961
182,326,55858,2,0,B|203:283|203:283|182:175,1,136.000002593994,2|2,0:0|0:0,0:0:0:0:
323,204,56398,1,2,0:0:0:0:
318,235,56506,5,0,1:0:0:0:
313,266,56614,1,0,1:0:0:0:
308,297,56723,1,0,1:0:0:0:
303,328,56831,1,0,1:0:0:0:
415,345,57047,1,2,0:0:0:0:
415,345,57479,1,2,0:0:0:0:
493,265,57695,1,2,0:0:0:0:
493,265,57804,70,0,B|472:228|472:228|485:154,1,90.6666683959961,6|2,0:2|0:2,0:0:0:0:
475,103,58128,2,0,B|416:115|416:115|398:190,1,136.000002593994,2|2,1:2|0:0,0:0:0:0:
316,22,58777,1,2,0:0:0:0:
249,75,58993,1,2,0:0:0:0:
249,75,59101,6,0,L|154:79,1,90.6666683959961,0|0,1:0|0:0,0:0:0:0:
112,85,59425,1,0,1:0:0:0:
120,110,59533,1,0,0:0:0:0:
128,135,59641,1,0,0:0:0:0:
136,161,59750,2,0,B|80:176|80:176|34:223,1,90.6666683959961,2|0,0:0|1:0,0:0:0:0:
22,265,60074,2,0,B|26:318|26:318|69:370,1,90.6666683959961,2|0,0:0|1:0,0:0:0:0:
117,320,60398,70,0,L|111:259,2,45.3333341979981,4|0|0,1:2|0:0|0:0,0:0:0:0:
189,319,60722,2,0,L|195:258,2,45.3333341979981,2|2|2,1:2|0:2|0:2,0:0:0:0:
268,345,61047,2,0,L|262:284,2,45.3333341979981,2|0|0,1:2|0:0|0:0,0:0:0:0:
340,314,61371,2,0,L|346:253,2,45.3333341979981,6|0|0,1:2|0:0|0:0,0:0:0:0:
467,362,61695,5,4,1:2:0:0:
473,340,61804,1,0,1:0:0:0:
479,318,61912,1,0,1:0:0:0:
485,296,62020,2,0,L|477:238,2,45.3333341979981,0|0|2,1:0|0:0|0:0,0:0:0:0:
409,226,62344,2,0,L|417:168,2,45.3333341979981,0|0|2,1:0|0:0|0:0,0:0:0:0:
484,148,62668,2,0,L|476:90,2,45.3333341979981,4|0|2,1:2|0:0|0:0,0:0:0:0:
405,107,62993,69,4,1:2:0:0:
382,109,63101,1,0,1:0:0:0:
359,111,63209,1,0,1:0:0:0:
309,163,63317,5,0,1:0:0:0:
286,161,63425,1,0,1:0:0:0:
263,159,63533,1,0,1:0:0:0:
210,110,63641,37,4,1:2:0:0:
187,112,63749,1,0,1:0:0:0:
164,114,63857,1,0,1:0:0:0:
99,142,63966,5,0,1:0:0:0:
76,140,64074,1,0,1:0:0:0:
53,138,64182,1,0,1:0:0:0:
51,218,64290,5,2,1:3:0:0:
74,216,64398,1,2,1:3:0:0:
97,214,64506,1,2,1:3:0:0:
166,186,64614,5,2,1:3:0:0:
179,204,64722,1,2,1:3:0:0:
192,223,64830,1,2,1:3:0:0:
251,269,64939,37,6,1:3:0:0:
242,289,65047,1,6,1:3:0:0:
232,310,65155,1,6,1:3:0:0:
202,377,65263,5,6,1:3:0:0:
180,379,65371,1,6,1:3:0:0:
156,381,65479,1,6,1:3:0:0:
83,380,65587,5,4,1:0:0:0:
466,310,66560,6,0,B|453:255|453:255|479:167,1,106.666666666667,4|0,1:2|1:0,0:0:0:0:
475,176,66885,38,0,L|406:181,1,53.3333333333333,6|0,1:2|0:0,0:0:0:0:
395,207,67101,1,0,1:0:0:0:
392,118,67209,6,0,L|323:123,1,53.3333333333333,2|0,1:2|0:0,0:0:0:0:
312,149,67425,1,0,1:0:0:0:
309,60,67533,70,0,L|240:65,1,53.3333333333333,2|0,1:2|0:0,0:0:0:0:
229,91,67749,1,0,1:0:0:0:
226,2,67858,6,0,L|157:7,1,53.3333333333333,2|0,1:2|0:0,0:0:0:0:
146,33,68074,1,0,1:0:0:0:
61,45,68182,70,0,B|76:98|76:98|65:173,1,106.666666666667,2|0,1:2|1:0,0:0:0:0:
142,172,68506,2,0,B|133:228|133:228|152:302,1,106.666666666667,2|0,1:2|1:0,0:0:0:0:
30,335,68831,5,2,1:2:0:0:
56,332,68939,1,2,0:0:0:0:
82,329,69047,1,2,0:0:0:0:
122,360,69155,69,6,1:2:0:0:
148,357,69263,1,2,2:2:0:0:
174,354,69371,1,2,1:2:0:0:
249,326,69479,6,0,L|256:250,1,53.3333333333333,6|0,1:2|0:0,0:0:0:0:
238,241,69695,1,0,1:0:0:0:
325,279,69804,70,0,L|332:203,1,53.3333333333333,2|0,1:2|0:0,0:0:0:0:
314,194,70020,1,0,1:0:0:0:
401,232,70128,6,0,L|408:156,1,53.3333333333333,2|0,1:2|0:0,0:0:0:0:
390,147,70344,1,0,1:0:0:0:
477,185,70452,70,0,L|484:109,1,53.3333333333333,2|0,1:2|0:0,0:0:0:0:
466,100,70668,1,0,1:0:0:0:
430,28,70777,6,0,B|379:47|379:47|327:38,1,106.666666666667,2|0,1:2|1:0,0:0:0:0:
254,24,71101,2,0,B|202:15|202:15|151:34,1,106.666666666667,2|0,1:2|1:0,0:0:0:0:
70,20,71425,69,2,1:2:0:0:
74,46,71533,1,2,0:0:0:0:
78,72,71641,1,2,0:0:0:0:
97,115,71750,5,6,1:2:0:0:
93,141,71858,1,2,0:0:0:0:
89,167,71966,1,2,1:2:0:0:
37,225,72074,70,0,L|147:213,1,106.666666666667,4|2,1:2|0:2,0:0:0:0:
253,220,72398,1,2,1:2:0:0:
246,239,72506,1,2,0:2:0:0:
239,258,72614,1,2,0:2:0:0:
232,277,72722,2,0,B|216:325|216:325|241:408,1,106.666666666667,0|0,1:0|1:0,0:0:0:0:
370,300,73047,2,0,L|350:175,1,106.666666666667,4|0,1:2|1:0,0:0:0:0:
244,145,73371,6,0,L|176:151,2,53.3333333333333,4|0|2,1:2|0:0|0:2,0:0:0:0:
319,115,73695,1,0,1:0:0:0:
321,88,73803,1,0,0:0:0:0:
323,61,73911,1,2,0:0:0:0:
405,69,74020,70,0,L|399:137,2,53.3333333333333,0|0|2,1:0|0:0|0:0,0:0:0:0:
489,53,74344,2,0,L|484:0,2,53.3333333333333,4|0|2,1:2|0:0|0:0,0:0:0:0:
489,128,74668,21,4,1:2:0:0:
484,154,74776,1,0,0:0:0:0:
479,180,74884,1,0,0:0:0:0:
508,216,74993,5,0,1:0:0:0:
486,231,75101,1,0,0:0:0:0:
465,246,75209,1,0,0:0:0:0:
458,293,75317,69,4,1:2:0:0:
434,287,75425,1,0,0:0:0:0:
407,282,75533,1,0,0:0:0:0:
369,311,75641,5,0,1:0:0:0:
356,290,75749,1,0,0:0:0:0:
339,267,75857,1,0,0:0:0:0:
292,260,75966,54,0,L|223:269,2,53.3333333333333,0|0|0,1:0|1:0|1:0,0:0:0:0:
253,343,76290,2,0,B|215:302|215:302|146:281,1,106.666666666667,0|0,1:0|0:0,0:0:0:0:
83,309,76614,2,0,B|148:261|148:261|170:177,1,160,2|4,0:2|1:2,0:0:0:0:
11,90,77155,1,0,1:0:0:0:
11,90,77263,70,0,L|16:143,1,53.3333333333333,6|0,1:2|0:0,0:0:0:0:
19,171,77479,1,0,1:0:0:0:
102,131,77587,6,0,L|97:78,1,53.3333333333333,2|0,1:2|0:0,0:0:0:0:
94,50,77803,1,0,1:0:0:0:
184,67,77912,70,0,L|189:120,1,53.3333333333333,2|0,1:2|0:0,0:0:0:0:
192,148,78128,1,0,1:0:0:0:
275,108,78236,6,0,L|270:55,1,53.3333333333333,2|0,1:2|0:0,0:0:0:0:
267,27,78452,1,0,1:0:0:0:
364,65,78560,70,0,B|346:117|346:117|351:208,1,106.666666666667,2|0,1:2|1:0,0:0:0:0:
401,315,78885,2,0,B|419:263|419:263|414:172,1,106.666666666667,2|0,1:2|1:0,0:0:0:0:
279,211,79209,5,2,1:2:0:0:
282,237,79317,1,2,0:0:0:0:
285,263,79425,1,2,0:0:0:0:
319,300,79533,69,6,1:2:0:0:
316,326,79641,1,2,2:2:0:0:
313,352,79749,1,2,1:2:0:0:
237,343,79858,6,0,L|184:350,1,53.3333333333333,6|0,1:2|0:0,0:0:0:0:
156,353,80074,1,0,1:0:0:0:
114,282,80182,70,0,L|166:274,1,53.3333333333333,2|0,1:2|0:0,0:0:0:0:
195,272,80398,1,0,1:0:0:0:
171,195,80506,6,0,L|118:202,1,53.3333333333333,2|0,1:2|0:0,0:0:0:0:
90,205,80722,1,0,1:0:0:0:
48,134,80830,70,0,L|100:126,1,53.3333333333333,2|0,1:2|0:0,0:0:0:0:
129,124,81046,1,0,1:0:0:0:
179,60,81155,6,0,B|231:74|231:74|307:62,1,106.666666666667,2|0,1:2|1:0,0:0:0:0:
376,6,81479,2,0,B|362:58|362:58|374:134,1,106.666666666667,2|0,1:2|1:0,0:0:0:0:
464,94,81804,69,2,1:2:0:0:
460,120,81912,1,2,0:0:0:0:
457,146,82020,1,2,0:0:0:0:
480,188,82128,5,6,1:2:0:0:
456,199,82236,1,2,0:0:0:0:
432,211,82344,1,2,1:2:0:0:
371,251,82452,70,0,B|321:237|321:237|244:246,1,106.666666666667,4|2,1:2|1:2,0:0:0:0:
122,201,82777,1,2,1:2:0:0:
125,227,82885,1,2,0:2:0:0:
128,253,82993,1,2,0:2:0:0:
132,279,83101,2,0,L|146:393,1,106.666666666667,0|0,1:0|0:0,0:0:0:0:
13,284,83425,2,0,B|-2:244|-2:244|20:167,1,106.666666666667,4|0,1:2|0:0,0:0:0:0:
63,112,83750,22,0,L|-9:105,2,53.3333333333333,4|0|2,1:2|0:0|0:2,0:0:0:0:
149,144,84074,1,0,1:0:0:0:
149,117,84182,1,0,0:0:0:0:
149,90,84290,1,2,0:0:0:0:
224,61,84398,6,0,B|221:31|221:31|231:-4,2,53.3333333333333,4|0|2,1:2|0:0|0:0,0:0:0:0:
307,117,84722,2,0,B|313:139|313:139|310:169,2,53.3333333333333,4|0|2,1:2|0:0|0:0,0:0:0:0:
360,46,85047,37,6,1:2:0:0:
386,42,85155,1,2,0:2:0:0:
412,37,85263,1,2,1:2:0:0:
477,72,85371,5,6,1:2:0:0:
493,93,85479,1,2,0:2:0:0:
510,113,85587,1,2,1:2:0:0:
512,187,85695,5,6,1:2:0:0:
502,211,85803,1,2,0:2:0:0:
493,236,85911,1,2,1:2:0:0:
429,275,86020,5,6,1:2:0:0:
404,279,86128,1,2,0:2:0:0:
377,283,86236,1,2,1:2:0:0:
311,248,86344,38,0,L|241:237,2,53.3333333333333,6|2|2,1:2|1:2|1:2,0:0:0:0:
389,355,86668,2,0,L|441:363,2,53.3333333333333,2|2|2,1:2|1:2|1:2,0:0:0:0:
216,301,86993,6,0,L|224:353,2,53.3333333333333,6|2|2,1:2|1:2|1:2,0:0:0:0:
376,207,87317,2,0,L|367:154,2,53.3333333333333,4|0|0,1:2|1:0|1:0,0:0:0:0:
291,317,87641,5,6,1:2:0:0:
256,192,87750,12,6,88939,1:2:0:0:
256,192,89047,12,0,91533,0:0:0:0:
