osu file format v14

[General]
AudioFilename: audio.mp3
AudioLeadIn: 0
PreviewTime: 10717
Countdown: 0
SampleSet: Soft
StackLeniency: 0.2
Mode: 0
LetterboxInBreaks: 0
WidescreenStoryboard: 1

[Editor]
DistanceSpacing: 1
BeatDivisor: 4
GridSize: 4
TimelineZoom: 1.5

[Metadata]
Title:Anisakis -somatic mutation type "Forza"-
TitleUnicode:Anisakis -somatic mutation type "Forza"-
Artist:Suzaku
ArtistUnicode:朱雀
Creator:Koalazy
Version:Koa%wer
Source:Beatmania IIDX
Tags:i19 Konami Beatmania IIDX 15 DJ Troopers DJ YOSHITAKA
BeatmapID:1241359
BeatmapSetID:586116

[Difficulty]
HPDrainRate:4
CircleSize:4
OverallDifficulty:9
ApproachRate:9
SliderMultiplier:1.85
SliderTickRate:1

[Events]
//Background and Video events
0,0,"1919bg.jpg",0,0
//Break Periods
2,55025,59414
//Storyboard Layer 0 (Background)
//Storyboard Layer 1 (Fail)
//Storyboard Layer 2 (Pass)
//Storyboard Layer 3 (Foreground)
//Storyboard Sound Samples

[TimingPoints]
339,324.324324324324,4,2,1,70,1,0
10717,-100,4,1,1,70,0,1
13311,-100,4,1,1,70,0,0
24987,-200,4,1,1,70,0,0
26284,-100,4,1,1,70,0,0
27582,-50,4,1,1,70,0,0
28230,-25,4,1,1,70,0,0
28879,-100,4,1,1,70,0,0
31474,-66.6666666666667,4,1,1,70,0,0
32771,-100,4,1,1,70,0,0
37960,-66.6666666666667,4,1,1,70,0,0
38284,-80,4,1,1,70,0,0
38609,-100,4,1,1,70,0,0
53203,-66.6666666666667,4,1,1,70,0,0
53852,-80,4,1,1,70,0,0
54176,-100,4,1,1,70,0,0
54825,-100,4,1,1,70,0,1
57420,-100,4,1,1,70,0,0
60014,-100,4,2,1,40,0,0
70068,-100,4,1,1,70,0,0
80771,-100,4,1,1,70,0,1
83366,-66.6666666666667,4,1,1,70,0,0
83528,-66.6666666666667,4,1,1,5,0,0
83690,-44.4444444444444,4,1,1,70,0,0
83852,-44.4444444444444,4,1,1,5,0,0
84014,-29.6296296296296,4,1,1,70,0,0
84176,-29.6296296296296,4,1,1,5,0,0
84338,-19.7530864197531,4,1,1,70,0,0
84501,-19.7530864197531,4,1,1,5,0,0
84663,-19.7530864197531,4,1,1,70,0,0
87257,-100,4,1,1,70,0,0
88555,-66.6666666666667,4,1,1,70,0,1
106717,-50,4,1,1,70,0,1
109311,-100,4,1,1,70,0,0
117176,-100,4,1,1,20,0,0
117420,-100,4,1,1,30,0,0
117744,-100,4,1,1,40,0,0
118068,-100,4,1,1,50,0,0
118393,-100,4,1,1,70,0,0
119690,-66.6666666666667,4,1,1,70,0,1
125203,-33.3333333333333,4,1,1,70,0,1
126501,-25,4,1,1,70,0,1
128771,-100,4,1,1,70,0,1
129960,-100,4,1,1,70,0,0
130068,-100,4,1,1,70,0,1
134284,-100,4,1,1,10,0,0

[Colours]
Combo1 : 255,128,192
Combo2 : 90,225,255

[HitObjects]
372,100,339,5,2,0:0:0:0:
336,185,1636,5,2,0:0:0:0:
301,270,2933,5,2,0:0:0:0:
169,250,4230,6,0,P|263:192|354:187,1,185,2|0,0:0|0:0,0:0:0:0:
475,296,4879,2,0,P|377:243|327:167,1,185,2|0,0:0|0:0,0:0:0:0:
301,270,5528,5,2,0:0:0:0:
335,184,6825,5,2,0:0:0:0:
169,250,8122,5,2,0:0:0:0:
317,334,9420,6,0,P|220:314|162:226,1,185,2|0,0:0|0:0,0:0:0:0:
167,79,10068,2,0,P|198:173|150:267,1,185
512,0,10717,5,8,0:0:0:0:
175,198,13311,5,2,0:0:0:0:
310,161,13474,1,0,0:0:0:0:
431,229,13636,1,2,0:0:0:0:
468,362,13798,1,0,0:0:0:0:
175,198,13960,2,0,B|310:161|310:161|381:200,1,185,2|2,0:0|0:0,0:0:0:0:
107,319,14447,5,0,0:0:0:0:
175,198,14609,2,0,B|310:161|310:161|381:200,1,185,2|2,0:0|0:0,0:0:0:0:
431,229,15095,1,0,0:0:0:0:
468,362,15257,5,2,0:0:0:0:
431,229,15420,1,0,0:0:0:0:
310,161,15582,1,2,0:0:0:0:
175,198,15744,1,0,0:0:0:0:
107,319,15906,5,2,0:0:0:0:
175,198,16068,1,0,0:0:0:0:
175,198,16230,1,2,0:0:0:0:
137,64,16392,1,0,0:0:0:0:
137,64,16555,2,0,L|305:158,1,185,2|2,0:0|0:0,0:0:0:0:
175,198,17041,5,0,0:0:0:0:
137,64,17203,2,0,L|305:158,1,185,2|2,0:0|0:0,0:0:0:0:
175,198,17690,1,0,0:0:0:0:
137,64,17852,1,2,0:0:0:0:
310,161,18014,1,0,0:0:0:0:
431,229,18176,1,2,0:0:0:0:
468,362,18339,1,0,0:0:0:0:
431,229,18501,5,6,0:0:0:0:
394,96,18663,1,0,0:0:0:0:
303,200,18825,1,2,0:0:0:0:
266,67,18987,1,0,0:0:0:0:
303,200,19149,2,0,B|266:67|266:67|247:110,1,185,2|2,0:0|0:0,0:0:0:0:
303,200,19636,5,0,0:0:0:0:
247,110,19798,2,0,B|266:67|266:67|303:200,1,185,2|2,0:0|0:0,0:0:0:0:
247,110,20284,1,0,0:0:0:0:
24,243,20447,1,2,0:0:0:0:
51,140,20609,1,0,0:0:0:0:
143,85,20771,1,2,0:0:0:0:
51,140,20933,1,0,0:0:0:0:
247,110,21095,5,2,0:0:0:0:
143,85,21257,1,0,0:0:0:0:
51,140,21419,1,2,0:0:0:0:
24,243,21581,1,0,0:0:0:0:
247,110,21744,2,0,B|143:85|143:85|51:140,1,185,2|2,0:0|0:0,0:0:0:0:
51,140,22230,1,0,0:0:0:0:
24,243,22392,5,2,0:0:0:0:
303,200,22555,1,4,0:0:0:0:
303,200,23041,5,2,0:0:0:0:
247,110,23203,1,0,0:0:0:0:
143,85,23365,1,2,0:0:0:0:
247,110,23528,1,2,0:0:0:0:
51,140,23690,5,2,0:0:0:0:
188,120,23852,1,0,0:0:0:0:
299,202,24014,1,10,0:0:0:0:
319,338,24176,1,0,0:0:0:0:
51,140,24338,2,0,B|92:103|121:48|121:48|131:120|92:127,1,185,2|10,0:0|0:0,0:0:0:0:
188,120,24825,5,0,0:0:0:0:
112,114,24987,2,0,B|129:97|121:48|121:48|92:103|51:140,1,185,2|0,0:0|0:0,0:0:0:0:
51,139,25717,1,0,0:0:0:0:
51,139,25798,1,0,0:0:0:0:
299,202,25960,1,10,0:0:0:0:
188,120,26122,1,0,0:0:0:0:
51,140,26284,5,2,0:0:0:0:
112,291,26447,1,0,0:0:0:0:
261,354,26609,1,10,0:0:0:0:
412,293,26771,1,0,0:0:0:0:
51,140,26933,2,0,B|112:291|112:291|153:311,1,185,2|10,0:0|0:0,0:0:0:0:
261,354,27420,5,0,0:0:0:0:
51,140,27582,2,0,B|112:291|112:291|153:311,1,185,2|0,0:0|0:0,0:0:0:0:
261,354,27906,1,10,0:0:0:0:
261,354,28068,1,0,0:0:0:0:
51,140,28230,2,0,B|112:291|112:291|153:311,1,185,2|0,0:0|0:0,0:0:0:0:
261,354,28393,1,0,0:0:0:0:
445,192,28555,1,10,0:0:0:0:
445,192,28717,1,0,0:0:0:0:
445,192,28879,6,0,B|294:253|294:253|274:294,1,185,6|10,0:0|0:0,0:0:0:0:
261,354,29366,1,0,0:0:0:0:
149,169,29528,2,0,B|192:224|192:224|191:247,1,92.5,2|0,0:0|0:0,0:0:0:0:
363,83,29852,2,0,B|319:137|319:137|320:160,1,92.5,10|0,0:0|0:0,0:0:0:0:
213,40,30176,5,2,0:0:0:0:
248,174,30338,1,0,0:0:0:0:
367,244,30501,1,10,0:0:0:0:
500,209,30663,1,0,0:0:0:0:
367,244,30825,2,0,L|420:230,1,46.25,2|0,0:0|0:0,0:0:0:0:
500,209,30987,1,0,0:0:0:0:
367,244,31149,1,10,0:0:0:0:
297,362,31311,1,0,0:0:0:0:
208,258,31474,6,0,B|174:223|182:171|182:171|70:169|32:37,1,277.500010585785,6|2,0:0|0:0,0:0:0:0:
256,350,31960,1,0,0:0:0:0:
304,258,32122,2,0,B|338:223|330:171|330:171|442:169|480:37,1,277.500010585785,6|10,0:0|0:0,0:0:0:0:
256,350,32609,1,2,0:0:0:0:
256,34,32771,5,0,0:0:0:0:
256,57,32852,1,0,0:0:0:0:
256,80,32933,1,0,0:0:0:0:
256,103,33014,1,0,0:0:0:0:
256,126,33095,1,0,0:0:0:0:
256,149,33176,1,0,0:0:0:0:
256,172,33257,1,0,0:0:0:0:
256,195,33338,1,0,0:0:0:0:
256,218,33420,5,0,0:0:0:0:
299,201,33501,1,0,0:0:0:0:
317,158,33582,1,0,0:0:0:0:
299,115,33663,1,0,0:0:0:0:
256,97,33744,1,0,0:0:0:0:
213,115,33825,1,0,0:0:0:0:
196,158,33906,1,0,0:0:0:0:
213,201,33988,1,0,0:0:0:0:
256,218,34069,5,2,0:0:0:0:
323,228,34149,1,0,0:0:0:0:
386,203,34230,1,0,0:0:0:0:
428,149,34311,1,0,0:0:0:0:
438,82,34393,1,10,0:0:0:0:
256,218,34555,5,0,0:0:0:0:
189,228,34635,1,0,0:0:0:0:
126,203,34716,1,2,0:0:0:0:
84,149,34797,1,0,0:0:0:0:
74,82,34879,1,0,0:0:0:0:
256,218,35041,5,10,0:0:0:0:
296,272,35121,1,0,0:0:0:0:
358,299,35202,1,0,0:0:0:0:
426,290,35283,1,0,0:0:0:0:
480,250,35365,1,2,0:0:0:0:
256,218,35528,5,0,0:0:0:0:
216,272,35608,1,0,0:0:0:0:
154,299,35689,1,10,0:0:0:0:
86,290,35770,1,0,0:0:0:0:
32,250,35852,1,0,0:0:0:0:
256,218,36014,5,2,0:0:0:0:
300,233,36095,1,0,0:0:0:0:
327,195,36176,1,0,0:0:0:0:
300,158,36257,1,0,0:0:0:0:
256,172,36338,1,10,0:0:0:0:
190,194,36420,1,0,0:0:0:0:
149,137,36501,1,0,0:0:0:0:
190,82,36582,1,0,0:0:0:0:
256,103,36663,5,2,0:0:0:0:
300,118,36744,1,0,0:0:0:0:
327,80,36825,1,0,0:0:0:0:
300,43,36906,1,0,0:0:0:0:
256,57,36987,1,10,0:0:0:0:
256,281,37149,5,0,0:0:0:0:
212,266,37230,1,0,0:0:0:0:
185,304,37311,1,2,0:0:0:0:
212,341,37392,1,0,0:0:0:0:
256,327,37473,1,0,0:0:0:0:
77,206,37636,5,10,0:0:0:0:
50,168,37717,1,0,0:0:0:0:
77,131,37798,1,0,0:0:0:0:
121,145,37879,1,0,0:0:0:0:
173,222,37960,6,0,P|182:266|176:304,1,69.3750026464463,2|0,0:0|0:0,0:0:0:0:
332,290,38122,2,0,P|330:255|339:222,1,69.3750026464463
197,83,38284,2,0,P|204:138|202:166,1,57.8125,10|0,0:0|0:0,0:0:0:0:
308,140,38447,2,0,P|309:111|315:83,1,57.8125
256,28,38609,5,2,0:0:0:0:
192,54,38690,1,0,0:0:0:0:
166,118,38771,1,0,0:0:0:0:
192,183,38852,1,0,0:0:0:0:
256,209,38933,1,10,0:0:0:0:
312,232,39014,1,0,0:0:0:0:
335,287,39095,1,0,0:0:0:0:
312,343,39176,1,0,0:0:0:0:
256,366,39257,5,2,0:0:0:0:
186,360,39338,1,0,0:0:0:0:
129,321,39420,1,0,0:0:0:0:
97,258,39501,1,0,0:0:0:0:
102,188,39582,1,10,0:0:0:0:
256,366,39744,5,0,0:0:0:0:
326,360,39825,1,0,0:0:0:0:
383,321,39907,1,2,0:0:0:0:
415,258,39988,1,0,0:0:0:0:
410,188,40069,1,0,0:0:0:0:
186,360,40230,5,10,0:0:0:0:
128,320,40311,1,0,0:0:0:0:
83,266,40393,1,0,0:0:0:0:
52,202,40474,1,0,0:0:0:0:
39,132,40555,1,2,0:0:0:0:
326,360,40717,5,0,0:0:0:0:
384,320,40798,1,0,0:0:0:0:
429,266,40880,1,10,0:0:0:0:
460,202,40961,1,0,0:0:0:0:
473,132,41042,1,0,0:0:0:0:
199,151,41203,5,2,0:0:0:0:
221,85,41284,1,0,0:0:0:0:
290,85,41365,1,0,0:0:0:0:
312,151,41446,1,0,0:0:0:0:
256,192,41527,1,10,0:0:0:0:
218,228,41609,1,0,0:0:0:0:
256,266,41690,1,0,0:0:0:0:
292,228,41771,1,0,0:0:0:0:
256,192,41852,5,2,0:0:0:0:
189,171,41933,1,0,0:0:0:0:
141,119,42014,1,0,0:0:0:0:
72,134,42095,1,0,0:0:0:0:
20,181,42176,1,10,0:0:0:0:
256,192,42338,5,0,0:0:0:0:
323,171,42419,1,0,0:0:0:0:
371,119,42500,1,2,0:0:0:0:
440,134,42581,1,0,0:0:0:0:
492,181,42662,1,0,0:0:0:0:
124,305,42825,5,10,0:0:0:0:
188,281,42906,1,0,0:0:0:0:
256,274,42987,1,0,0:0:0:0:
324,281,43068,1,0,0:0:0:0:
388,305,43149,1,2,0:0:0:0:
256,320,43311,6,0,L|256:241,5,46.25,4|0|0|0|0|0,0:0|0:0|0:0|0:0|0:0|0:0,0:0:0:0:
290,213,43798,5,2,0:0:0:0:
339,164,43879,1,0,0:0:0:0:
340,95,43960,1,0,0:0:0:0:
291,46,44041,1,0,0:0:0:0:
215,65,44122,1,2,0:0:0:0:
178,102,44203,1,0,0:0:0:0:
178,154,44285,1,2,0:0:0:0:
214,191,44366,1,0,0:0:0:0:
290,213,44447,5,2,0:0:0:0:
339,164,44528,1,0,0:0:0:0:
406,146,44609,1,0,0:0:0:0:
472,163,44690,1,0,0:0:0:0:
434,176,44771,1,10,0:0:0:0:
214,191,44933,5,0,0:0:0:0:
231,124,45014,1,0,0:0:0:0:
280,74,45095,1,2,0:0:0:0:
346,56,45176,1,0,0:0:0:0:
320,86,45257,1,0,0:0:0:0:
137,209,45420,5,10,0:0:0:0:
118,143,45501,1,0,0:0:0:0:
135,75,45582,1,0,0:0:0:0:
183,27,45663,1,0,0:0:0:0:
176,66,45744,1,2,0:0:0:0:
79,263,45906,5,0,0:0:0:0:
30,215,45987,1,0,0:0:0:0:
11,148,46068,1,10,0:0:0:0:
29,82,46149,1,0,0:0:0:0:
42,119,46230,1,0,0:0:0:0:
178,308,46393,5,2,0:0:0:0:
219,288,46474,1,0,0:0:0:0:
265,290,46555,1,0,0:0:0:0:
304,314,46636,1,0,0:0:0:0:
324,355,46717,1,10,0:0:0:0:
364,298,46798,1,0,0:0:0:0:
370,228,46879,1,0,0:0:0:0:
340,164,46960,1,0,0:0:0:0:
283,124,47041,5,2,0:0:0:0:
219,152,47122,1,0,0:0:0:0:
149,144,47203,1,0,0:0:0:0:
92,102,47284,1,0,0:0:0:0:
64,38,47366,1,10,0:0:0:0:
283,124,47528,5,0,0:0:0:0:
241,180,47609,1,0,0:0:0:0:
176,208,47690,1,2,0:0:0:0:
106,200,47771,1,0,0:0:0:0:
50,159,47853,1,0,0:0:0:0:
283,124,48014,5,10,0:0:0:0:
275,193,48095,1,0,0:0:0:0:
233,250,48176,1,0,0:0:0:0:
168,278,48257,1,0,0:0:0:0:
99,270,48338,6,0,P|58:255|35:236,1,46.25,2|0,0:0|0:0,0:0:0:0:
168,278,48501,2,0,P|124:274|97:261,1,46.25
233,250,48663,2,0,P|189:257|160:252,1,46.25,10|0,0:0|0:0,0:0:0:0:
275,193,48825,2,0,P|235:211|205:214,1,46.25
283,124,48987,5,2,0:0:0:0:
275,193,49068,1,0,0:0:0:0:
233,250,49149,1,0,0:0:0:0:
168,278,49230,1,0,0:0:0:0:
99,270,49311,1,10,0:0:0:0:
144,257,49393,1,0,0:0:0:0:
190,261,49474,1,0,0:0:0:0:
231,281,49555,1,0,0:0:0:0:
261,315,49636,5,2,0:0:0:0:
329,301,49717,1,0,0:0:0:0:
395,322,49798,1,0,0:0:0:0:
446,275,49879,1,0,0:0:0:0:
467,209,49960,1,10,0:0:0:0:
251,315,50122,5,0,0:0:0:0:
183,301,50203,1,0,0:0:0:0:
117,322,50284,1,2,0:0:0:0:
66,275,50365,1,0,0:0:0:0:
45,209,50446,1,0,0:0:0:0:
256,219,50609,5,10,0:0:0:0:
324,211,50690,1,0,0:0:0:0:
387,186,50771,1,0,0:0:0:0:
441,145,50852,1,0,0:0:0:0:
483,91,50933,1,2,0:0:0:0:
256,219,51095,5,0,0:0:0:0:
188,211,51176,1,0,0:0:0:0:
125,186,51257,1,10,0:0:0:0:
71,145,51338,1,0,0:0:0:0:
29,91,51419,1,0,0:0:0:0:
375,49,51582,6,0,L|360:126,3,46.25,2|0|0|0,0:0|0:0|0:0|0:0,0:0:0:0:
137,49,51906,6,0,L|152:126,3,46.25,10|0|0|0,0:0|0:0|0:0|0:0,0:0:0:0:
140,219,52230,5,2,0:0:0:0:
189,269,52311,1,0,0:0:0:0:
256,287,52393,1,0,0:0:0:0:
323,269,52474,1,0,0:0:0:0:
372,219,52555,1,10,0:0:0:0:
162,192,52717,5,0,0:0:0:0:
196,252,52798,1,0,0:0:0:0:
256,287,52880,1,2,0:0:0:0:
316,252,52960,1,0,0:0:0:0:
350,192,53041,1,0,0:0:0:0:
256,122,53203,6,0,L|256:192,3,69.3750026464463,10|0|0|0,0:0|0:0|0:0|0:0,0:0:0:0:
122,254,53528,6,0,P|133:310|147:345,1,69.3750026464463,2|0,0:0|0:0,0:0:0:0:
390,254,53690,2,0,P|379:310|365:345,1,69.3750026464463,2|0,0:0|0:0,0:0:0:0:
68,106,53852,2,0,P|79:162|93:197,1,57.8125,10|0,0:0|0:0,0:0:0:0:
444,106,54014,2,0,P|433:162|419:197,1,57.8125,2|0,0:0|0:0,0:0:0:0:
173,161,54176,5,2,0:0:0:0:
222,210,54257,1,0,0:0:0:0:
292,210,54338,1,0,0:0:0:0:
340,160,54420,1,0,0:0:0:0:
256,123,54501,5,10,0:0:0:0:
256,127,54582,1,0,0:0:0:0:
256,131,54663,1,0,0:0:0:0:
256,135,54744,1,0,0:0:0:0:
256,320,54825,5,4,0:0:0:0:
279,313,60014,5,0,0:0:0:0:
75,363,60176,1,0,0:0:0:0:
115,229,60338,1,0,0:0:0:0:
211,330,60501,1,0,0:0:0:0:
95,296,60663,1,0,0:0:0:0:
279,313,60987,5,0,0:0:0:0:
133,161,61311,1,0,0:0:0:0:
279,313,62609,5,0,0:0:0:0:
75,363,62771,1,0,0:0:0:0:
115,229,62933,1,0,0:0:0:0:
211,330,63096,1,0,0:0:0:0:
95,296,63258,1,0,0:0:0:0:
279,313,63582,5,0,0:0:0:0:
133,161,63906,1,0,0:0:0:0:
115,229,64230,1,0,0:0:0:0:
211,330,64555,1,0,0:0:0:0:
279,313,65203,5,0,0:0:0:0:
75,363,65365,1,0,0:0:0:0:
115,229,65527,1,0,0:0:0:0:
211,330,65690,1,0,0:0:0:0:
95,296,65852,1,0,0:0:0:0:
279,313,66176,5,0,0:0:0:0:
133,161,66500,1,0,0:0:0:0:
211,330,67798,5,0,0:0:0:0:
115,229,68122,1,0,0:0:0:0:
301,54,68447,5,0,0:0:0:0:
397,155,68771,1,0,0:0:0:0:
115,229,69095,5,0,0:0:0:0:
206,214,69257,1,0,0:0:0:0:
397,155,69420,5,0,0:0:0:0:
306,170,69582,1,0,0:0:0:0:
256,320,69744,2,0,L|256:143,1,138.75
256,109,70068,6,0,L|256:145,5,30.8333333333333
256,181,70393,2,0,B|305:179|330:139|330:139|390:145|421:204,1,185,4|0,0:0|0:0,0:0:0:0:
410,186,71041,1,0,0:0:0:0:
333,58,71257,1,0,0:0:0:0:
256,109,71366,6,0,L|256:145,5,30.8333333333333
256,181,71690,2,0,B|207:179|182:139|182:139|122:145|91:204,1,185,4|0,0:0|0:0,0:0:0:0:
102,186,72338,1,0,0:0:0:0:
179,58,72554,1,0,0:0:0:0:
256,109,72663,6,0,L|256:145,5,30.8333333333333
256,181,72987,2,0,B|309:169|318:117|318:117|361:115|408:159,1,185,4|0,0:0|0:0,0:0:0:0:
398,150,73636,1,0,0:0:0:0:
333,58,73852,1,0,0:0:0:0:
256,109,73960,6,0,L|256:145,5,30.8333333333333
256,181,74284,2,0,B|203:169|194:117|194:117|151:115|104:159,1,185,4|0,0:0|0:0,0:0:0:0:
114,150,74933,1,0,0:0:0:0:
179,58,75149,1,0,0:0:0:0:
256,109,75257,6,0,L|256:145,5,30.8333333333333
256,181,75582,2,0,B|305:179|330:139|330:139|390:145|421:204,1,185,4|0,0:0|0:0,0:0:0:0:
256,181,76230,2,0,B|207:179|182:139|182:139|122:145|91:204,1,185,4|0,0:0|0:0,0:0:0:0:
256,181,76879,6,0,B|309:169|318:117|318:117|361:115|408:159,1,185,4|0,0:0|0:0,0:0:0:0:
256,181,77528,2,0,B|203:169|194:117|194:117|151:115|104:159,1,185,4|0,0:0|0:0,0:0:0:0:
208,274,78176,5,0,0:0:0:0:
167,227,78284,1,0,0:0:0:0:
131,175,78393,2,0,L|101:134,1,30.8333333333333,2|0,0:0|0:0,0:0:0:0:
304,274,78501,5,0,0:0:0:0:
345,227,78609,1,0,0:0:0:0:
381,175,78718,2,0,L|411:134,1,30.8333333333333,2|0,0:0|0:0,0:0:0:0:
187,291,78825,5,0,0:0:0:0:
157,229,78933,1,0,0:0:0:0:
134,164,79042,2,0,L|114:112,1,30.8333333333333,2|0,0:0|0:0,0:0:0:0:
324,291,79149,5,0,0:0:0:0:
354,229,79257,1,0,0:0:0:0:
377,164,79366,2,0,L|397:112,1,30.8333333333333,2|0,0:0|0:0,0:0:0:0:
256,17,79474,5,0,0:0:0:0:
226,71,79582,2,0,P|214:79|197:82,1,30.8333333333333
280,117,79690,5,0,0:0:0:0:
298,176,79798,2,0,P|308:186|330:195,1,30.8333333333333
239,221,79906,5,0,0:0:0:0:
184,262,80014,2,0,L|173:226,1,30.8333333333333
273,287,80122,5,0,0:0:0:0:
328,328,80230,2,0,L|339:292,1,30.8333333333333
231,348,80338,5,0,0:0:0:0:
266,315,80447,2,0,B|272:306|272:306|273:286,1,30.8333333333333
225,259,80555,5,0,0:0:0:0:
239,221,80663,2,0,B|235:204|235:204|239:178,1,30.8333333333333
240,192,80771,6,0,L|272:192,46,30.8333333333333
179,261,83366,6,0,B|219:252|219:252|278:270|278:270|334:261,1,138.750005292893,2|0,0:0|0:0,0:0:0:0:
154,267,83690,6,0,B|219:252|219:252|278:270|278:270|345:258|345:258|366:236,1,208.125007939339,2|0,0:0|0:0,0:0:0:0:
134,272,84014,6,0,B|219:252|219:252|278:270|278:270|345:258|345:258|372:222|372:222|371:169,1,312.187505210191,2|0,0:0|0:0,0:0:0:0:
109,279,84338,6,0,B|219:252|219:252|278:270|278:270|345:258|345:258|372:222|372:222|371:161|371:161|344:111|344:111|295:167,1,468.281257815287,2|0,0:0|0:0,0:0:0:0:
85,285,84663,6,0,B|219:252|219:252|420:315,1,312.187505210191,2|2,0:0|0:0,0:0:0:0:
462,331,84879,1,2,0:0:0:0:
430,149,84987,5,0,0:0:0:0:
322,306,85095,1,0,0:0:0:0:
398,148,85203,1,2,0:0:0:0:
138,100,85311,6,0,B|254:124|254:124|324:311,1,312.187505210191
238,302,85527,1,2,0:0:0:0:
366,147,85636,5,2,0:0:0:0:
219,37,85744,1,0,0:0:0:0:
40,78,85852,1,2,0:0:0:0:
113,218,85960,5,6,0:0:0:0:
256,192,86041,12,0,86933,0:0:0:0:
218,47,87257,5,0,0:0:0:0:
204,91,87338,1,0,0:0:0:0:
201,137,87420,1,0,0:0:0:0:
210,182,87501,1,0,0:0:0:0:
296,191,87582,5,0,0:0:0:0:
306,224,87663,1,0,0:0:0:0:
308,258,87745,1,0,0:0:0:0:
302,292,87826,1,0,0:0:0:0:
217,328,87906,6,0,L|230:375,3,46.25
143,265,88230,2,0,L|155:312,3,46.25
68,202,88555,6,0,L|108:52,1,138.750005292893,4|0,0:0|0:0,0:0:0:0:
134,49,88798,1,0,0:0:0:0:
134,49,88879,2,0,L|169:183,1,138.750005292893,8|0,0:0|0:0,0:0:0:0:
285,326,89203,2,0,L|264:251,1,69.3750026464463
229,182,89366,2,0,L|188:331,1,138.750005292893,0|8,0:0|0:0,0:0:0:0:
362,110,89690,1,0,0:0:0:0:
362,110,89771,1,0,0:0:0:0:
362,110,89852,6,0,P|239:100|194:125,1,138.750005292893
150,274,90095,1,0,0:0:0:0:
150,274,90176,2,0,P|272:283|317:258,1,138.750005292893,8|0,0:0|0:0,0:0:0:0:
362,110,90420,1,0,0:0:0:0:
362,110,90501,5,0,0:0:0:0:
312,93,90582,1,0,0:0:0:0:
261,94,90663,1,0,0:0:0:0:
213,112,90744,1,0,0:0:0:0:
180,151,90825,1,8,0:0:0:0:
146,212,90906,1,0,0:0:0:0:
76,211,90987,1,0,0:0:0:0:
41,151,91068,1,0,0:0:0:0:
76,91,91149,6,0,B|126:92|126:92|226:115,1,138.750005292893
215,252,91393,1,0,0:0:0:0:
215,252,91474,2,0,B|263:263|263:263|366:267,1,138.750005292893,8|0,0:0|0:0,0:0:0:0:
312,93,91798,2,0,L|290:172,1,69.3750026464463
352,267,91960,2,0,L|390:123,1,138.750005292893,0|8,0:0|0:0,0:0:0:0:
124,132,92284,1,0,0:0:0:0:
124,132,92366,1,0,0:0:0:0:
124,132,92447,6,0,L|160:267,1,138.750005292893
256,306,92690,1,0,0:0:0:0:
352,267,92771,2,0,L|390:123,1,138.750005292893,8|0,0:0|0:0,0:0:0:0:
256,11,93095,1,0,0:0:0:0:
192,37,93176,1,0,0:0:0:0:
166,101,93258,1,0,0:0:0:0:
192,166,93339,1,0,0:0:0:0:
256,192,93419,1,8,0:0:0:0:
320,218,93500,1,0,0:0:0:0:
346,282,93582,1,0,0:0:0:0:
320,347,93663,1,0,0:0:0:0:
256,373,93744,5,0,0:0:0:0:
157,274,93906,1,0,0:0:0:0:
256,176,94069,1,8,0:0:0:0:
354,274,94231,1,0,0:0:0:0:
256,373,94393,5,0,0:0:0:0:
137,254,94555,1,0,0:0:0:0:
256,136,94718,1,8,0:0:0:0:
373,254,94879,2,0,L|313:313,1,69.3750026464463
256,373,95041,5,0,0:0:0:0:
113,230,95203,1,0,0:0:0:0:
256,88,95366,1,8,0:0:0:0:
396,230,95528,1,0,0:0:0:0:
256,373,95690,5,0,0:0:0:0:
84,201,95852,1,0,0:0:0:0:
256,30,96015,1,8,0:0:0:0:
424,201,96177,1,0,0:0:0:0:
256,373,96338,6,0,L|109:333,1,138.750005292893
0,287,96582,1,0,0:0:0:0:
36,228,96663,2,0,L|182:188,1,138.750005292893,8|0,0:0|0:0,0:0:0:0:
336,259,96906,1,0,0:0:0:0:
401,284,96987,2,0,L|440:137,1,138.750005292893
320,92,97230,1,0,0:0:0:0:
256,64,97311,2,0,L|295:210,1,138.750005292893,8|0,0:0|0:0,0:0:0:0:
319,281,97555,1,0,0:0:0:0:
319,281,97636,5,4,0:0:0:0:
130,310,97798,2,0,L|220:297,1,69.3750026464463,4|0,0:0|0:0,0:0:0:0:
319,281,97960,1,0,0:0:0:0:
382,252,98041,1,0,0:0:0:0:
400,185,98122,1,0,0:0:0:0:
360,127,98203,1,0,0:0:0:0:
290,120,98284,5,2,0:0:0:0:
253,189,98366,1,0,0:0:0:0:
176,213,98447,1,0,0:0:0:0:
106,177,98528,1,0,0:0:0:0:
81,101,98609,1,10,0:0:0:0:
145,76,98690,1,0,0:0:0:0:
213,86,98771,1,2,0:0:0:0:
267,128,98852,1,0,0:0:0:0:
292,192,98933,6,0,P|278:275|203:336,1,138.750005292893
176,303,99176,1,0,0:0:0:0:
243,314,99257,2,0,L|392:344,1,138.750005292893,8|0,0:0|0:0,0:0:0:0:
457,70,99582,1,0,0:0:0:0:
389,81,99663,1,0,0:0:0:0:
321,92,99744,2,0,L|172:121,1,138.750005292893,0|8,0:0|0:0,0:0:0:0:
108,292,100068,1,0,0:0:0:0:
176,303,100149,1,0,0:0:0:0:
243,314,100230,6,0,L|392:344,1,138.750005292893
389,81,100474,1,0,0:0:0:0:
321,92,100555,2,0,L|172:121,1,138.750005292893,8|0,0:0|0:0,0:0:0:0:
68,237,100879,1,0,0:0:0:0:
108,292,100960,1,0,0:0:0:0:
176,303,101041,1,0,0:0:0:0:
231,262,101122,1,0,0:0:0:0:
281,147,101203,1,8,0:0:0:0:
321,92,101284,1,0,0:0:0:0:
389,81,101365,1,0,0:0:0:0:
444,122,101446,1,0,0:0:0:0:
491,216,101528,6,0,L|348:270,1,138.750005292893
256,205,101771,1,0,0:0:0:0:
150,265,101852,2,0,L|21:216,1,138.750005292893,8|0,0:0|0:0,0:0:0:0:
361,265,102176,2,0,L|286:293,1,69.3750026464463
150,265,102338,2,0,L|21:216,1,138.750005292893,0|8,0:0|0:0,0:0:0:0:
256,13,102663,1,0,0:0:0:0:
256,13,102744,1,0,0:0:0:0:
256,13,102825,6,0,L|293:154,1,138.750005292893
256,371,103068,1,0,0:0:0:0:
256,371,103149,2,0,L|219:230,1,138.750005292893,8|0,0:0|0:0,0:0:0:0:
192,135,103393,1,0,0:0:0:0:
192,135,103474,5,0,0:0:0:0:
142,183,103555,1,0,0:0:0:0:
72,173,103636,1,0,0:0:0:0:
37,112,103717,1,0,0:0:0:0:
62,47,103798,1,8,0:0:0:0:
129,27,103879,1,0,0:0:0:0:
189,40,103960,1,0,0:0:0:0:
237,67,104041,1,0,0:0:0:0:
275,99,104122,5,0,0:0:0:0:
294,278,104284,1,0,0:0:0:0:
174,144,104447,1,8,0:0:0:0:
349,182,104609,1,0,0:0:0:0:
166,268,104771,5,0,0:0:0:0:
279,75,104933,1,0,0:0:0:0:
303,299,105095,1,8,0:0:0:0:
153,132,105258,1,0,0:0:0:0:
399,173,105420,5,0,0:0:0:0:
143,287,105582,1,0,0:0:0:0:
285,46,105744,1,8,0:0:0:0:
315,326,105906,1,0,0:0:0:0:
89,94,106068,5,0,0:0:0:0:
435,168,106230,1,0,0:0:0:0:
115,311,106392,1,8,0:0:0:0:
293,10,106554,1,0,0:0:0:0:
189,364,106717,6,0,P|139:278|157:170,1,185,4|0,0:0|0:0,0:0:0:0:
256,164,106960,1,0,0:0:0:0:
366,195,107041,2,0,P|371:286|323:364,1,185,8|0,0:0|0:0,0:0:0:0:
189,364,107284,1,0,0:0:0:0:
189,364,107366,2,0,B|122:299|125:208|125:208|87:226,1,185
256,164,107609,1,0,0:0:0:0:
396,212,107690,2,0,B|387:208|387:208|390:299|323:364,1,185,8|0,0:0|0:0,0:0:0:0:
189,364,107933,1,0,0:0:0:0:
189,364,108014,5,4,0:0:0:0:
98,348,108095,1,0,0:0:0:0:
39,277,108176,1,4,0:0:0:0:
39,184,108258,1,0,0:0:0:0:
98,113,108339,1,8,0:0:0:0:
189,97,108420,1,0,0:0:0:0:
270,144,108501,1,0,0:0:0:0:
301,231,108582,1,0,0:0:0:0:
256,312,108663,5,2,0:0:0:0:
211,231,108744,1,0,0:0:0:0:
242,144,108825,1,2,0:0:0:0:
323,97,108906,1,0,0:0:0:0:
414,113,108987,1,10,0:0:0:0:
473,184,109068,1,0,0:0:0:0:
473,277,109150,1,2,0:0:0:0:
414,348,109231,1,0,0:0:0:0:
323,364,109311,5,6,0:0:0:0:
230,134,109636,1,0,0:0:0:0:
177,210,109960,1,0,0:0:0:0:
233,284,110285,1,0,0:0:0:0:
320,253,110609,5,0,0:0:0:0:
408,225,110933,1,0,0:0:0:0:
462,300,111257,1,0,0:0:0:0:
408,375,111582,1,4,0:0:0:0:
104,375,111906,5,4,0:0:0:0:
50,300,112231,1,0,0:0:0:0:
104,225,112555,1,0,0:0:0:0:
192,253,112879,1,0,0:0:0:0:
442,150,113203,5,4,0:0:0:0:
498,76,113528,1,0,0:0:0:0:
176,52,113852,1,4,0:0:0:0:
360,315,114176,1,4,0:0:0:0:
445,0,114501,5,4,0:0:0:0:
357,27,114825,1,0,0:0:0:0:
355,119,115149,1,0,0:0:0:0:
157,265,115474,1,4,0:0:0:0:
498,308,115798,5,4,0:0:0:0:
444,233,116122,1,0,0:0:0:0:
356,261,116447,1,0,0:0:0:0:
156,261,116771,1,4,0:0:0:0:
256,53,117095,6,0,L|256:129,15,46.25,4|0|0|0|0|0|0|0|0|0|0|0|0|0|0|0,0:0|0:0|0:0|0:0|0:0|0:0|0:0|0:0|0:0|0:0|0:0|0:0|0:0|0:0|0:0|0:0,0:0:0:0:
256,139,118393,5,2,0:0:0:0:
256,162,118474,1,0,0:0:0:0:
256,185,118555,1,2,0:0:0:0:
256,208,118636,1,0,0:0:0:0:
256,231,118717,1,0,0:0:0:0:
256,254,118798,1,0,0:0:0:0:
256,277,118879,1,0,0:0:0:0:
256,300,118960,1,0,0:0:0:0:
256,323,119041,5,2,0:0:0:0:
192,297,119122,1,0,0:0:0:0:
166,232,119203,1,2,0:0:0:0:
192,168,119284,1,0,0:0:0:0:
256,208,119365,5,2,0:0:0:0:
320,182,119447,1,0,0:0:0:0:
346,118,119528,1,2,0:0:0:0:
320,53,119609,1,0,0:0:0:0:
256,27,119690,5,2,0:0:0:0:
203,72,119771,1,0,0:0:0:0:
134,84,119852,1,0,0:0:0:0:
68,59,119933,1,0,0:0:0:0:
23,6,120014,1,8,0:0:0:0:
256,27,120176,5,0,0:0:0:0:
309,72,120257,1,0,0:0:0:0:
378,84,120338,1,0,0:0:0:0:
444,59,120419,1,0,0:0:0:0:
489,6,120500,1,0,0:0:0:0:
184,253,120663,6,0,P|128:234|107:215,1,69.3750026464463,8|0,0:0|0:0,0:0:0:0:
78,174,120825,1,0,0:0:0:0:
328,253,120987,5,0,0:0:0:0:
392,228,121068,1,0,0:0:0:0:
434,174,121149,1,0,0:0:0:0:
444,106,121230,1,0,0:0:0:0:
419,42,121311,1,8,0:0:0:0:
184,253,121474,5,0,0:0:0:0:
120,228,121555,1,0,0:0:0:0:
78,174,121636,1,0,0:0:0:0:
68,106,121717,1,0,0:0:0:0:
93,42,121798,1,0,0:0:0:0:
256,212,121960,5,8,0:0:0:0:
297,155,122041,1,0,0:0:0:0:
256,99,122122,1,0,0:0:0:0:
215,155,122203,1,0,0:0:0:0:
256,212,122284,6,0,P|305:279|320:337,1,138.750005292893
256,212,122609,2,0,P|207:279|192:337,1,138.750005292893,8|0,0:0|0:0,0:0:0:0:
256,212,122933,2,0,L|256:139,1,69.3750026464463
256,4,123095,1,0,0:0:0:0:
256,350,123257,2,0,L|256:212,1,138.750005292893,8|0,0:0|0:0,0:0:0:0:
217,153,123501,1,0,0:0:0:0:
185,216,123582,5,0,0:0:0:0:
327,216,123744,1,0,0:0:0:0:
327,216,123825,1,0,0:0:0:0:
327,216,123906,2,0,L|256:80,1,138.750005292893,8|2,0:0|0:0,0:0:0:0:
226,33,124149,1,0,0:0:0:0:
226,33,124230,5,2,0:0:0:0:
161,57,124311,1,0,0:0:0:0:
132,119,124393,1,2,0:0:0:0:
156,184,124474,1,0,0:0:0:0:
218,212,124555,1,10,0:0:0:0:
283,188,124636,1,0,0:0:0:0:
345,216,124717,1,2,0:0:0:0:
369,281,124798,1,0,0:0:0:0:
340,343,124879,5,2,0:0:0:0:
72,271,125041,1,0,0:0:0:0:
340,343,125203,2,0,L|66:269,1,277.500010585785,8|0,0:0|0:0,0:0:0:0:
278,231,125528,5,0,0:0:0:0:
9,158,125690,1,0,0:0:0:0:
278,231,125852,2,0,L|3:156,1,277.500010585785,8|0,0:0|0:0,0:0:0:0:
494,193,126176,5,0,0:0:0:0:
225,120,126338,1,0,0:0:0:0:
414,373,126501,2,0,L|312:-6,1,370,8|0,0:0|0:0,0:0:0:0:
98,373,126825,1,0,0:0:0:0:
193,15,126987,1,0,0:0:0:0:
98,373,127149,2,0,L|199:-6,1,370,8|0,0:0|0:0,0:0:0:0:
256,256,127474,6,0,B|197:260|160:161|160:161|36:178|-12:347,1,370
256,256,127798,2,0,B|315:260|352:161|352:161|476:178|524:347,1,370
256,256,128122,2,0,B|205:218|190:160|190:160|18:232|-27:30,1,370
256,256,128447,2,0,B|307:218|322:160|322:160|494:232|539:30,1,370
256,26,128771,5,0,0:0:0:0:
194,132,128879,1,0,0:0:0:0:
318,132,128987,1,0,0:0:0:0:
256,97,129095,5,0,0:0:0:0:
200,192,129203,1,0,0:0:0:0:
311,192,129311,1,0,0:0:0:0:
256,162,129420,5,0,0:0:0:0:
205,247,129528,1,0,0:0:0:0:
305,247,129636,1,0,0:0:0:0:
256,220,129744,5,0,0:0:0:0:
210,296,129852,1,0,0:0:0:0:
300,296,129960,1,0,0:0:0:0:
256,53,130393,5,4,0:0:0:0:
256,192,130474,12,0,134284,0:0:0:0:
