osu file format v14

[General]
AudioFilename: audio.mp3
AudioLeadIn: 0
PreviewTime: 55281
Countdown: 0
SampleSet: Normal
StackLeniency: 0.7
Mode: 0
LetterboxInBreaks: 0
WidescreenStoryboard: 1

[Editor]
DistanceSpacing: 1
BeatDivisor: 4
GridSize: 4
TimelineZoom: 2.4

[Metadata]
Title:Dramatic Market Ride (TV Size)
TitleUnicode:ドラマチックマーケットライド (TV Size)
Artist:Suzaki Aya
ArtistUnicode:洲崎綾
Creator:kinematik
Version:Normal
Source:Tamako Market
Tags:tamako market op love story dramatic ride tv size
BeatmapID:2146300
BeatmapSetID:1011769

[Difficulty]
HPDrainRate:4
CircleSize:2.8
OverallDifficulty:5
ApproachRate:6
SliderMultiplier:1
SliderTickRate:1

[Events]
//Background and Video events
0,0,"tamako-market-op.jpg",0,0
Video,0,"tamako-market-op.mp4"
//Break Periods
//Storyboard Layer 0 (Background)
//Storyboard Layer 1 (Fail)
//Storyboard Layer 2 (Pass)
//Storyboard Layer 3 (Foreground)
//Storyboard Layer 4 (Overlay)
//Storyboard Sound Samples

[TimingPoints]
544,350.877192982456,4,1,0,40,1,0
18789,-100,4,1,0,35,0,0
39842,-100,4,1,0,45,0,0
41245,-100,4,1,0,40,0,0
84754,-166.666666666667,4,1,0,25,0,0
89754,-166.666666666667,4,1,0,5,0,0

[HitObjects]
168,81,1947,6,0,P|234:68|283:76,1,100,4|0,0:0|0:0,0:0:0:0:
359,108,2649,2,0,L|365:219,1,100
305,289,3351,2,0,L|192:284,1,100,2|0,0:0|0:0,0:0:0:0:
207,184,4052,2,0,L|327:176,1,100
405,158,4754,6,0,P|403:101|376:58,1,100,2|0,0:0|0:0,0:0:0:0:
281,65,5456,2,0,L|173:70,1,100
108,139,6158,1,2,0:0:0:0:
91,237,6508,1,2,0:0:0:0:
167,301,6859,1,2,0:0:0:0:
263,274,7210,1,2,0:0:0:0:
384,167,7561,6,0,P|399:218|394:280,1,100,4|0,0:0|0:0,0:0:0:0:
314,320,8263,2,0,L|198:315,1,100
133,256,8965,2,0,L|138:136,1,100,2|0,0:0|0:0,0:0:0:0:
218,98,9666,2,0,B|274:83|274:83|323:124,1,100
384,172,10368,6,0,L|388:281,1,100,2|0,0:0|0:0,0:0:0:0:
292,304,11070,2,0,L|169:296,1,100
148,272,11596,1,8,0:0:0:0:
103,182,11947,1,8,0:0:0:0:
157,97,12298,2,0,B|203:61|262:129|314:84,1,150
442,61,13175,6,0,B|480:108|480:108|450:206,1,150,4|0,0:0|0:0,0:0:0:0:
403,193,13877,2,0,L|373:299,1,100
325,289,14403,2,0,L|298:187,1,100,4|0,0:0|0:0,0:0:0:0:
249,192,14929,2,0,B|219:295|219:295|113:303,1,200
256,192,15982,12,0,18087,0:0:0:0:
404,66,18789,5,4,0:0:0:0:
458,149,19140,1,0,0:0:0:0:
400,230,19491,1,0,0:0:0:0:
299,229,19842,1,0,0:0:0:0:
267,134,20193,2,0,P|225:91|166:80,1,100
88,91,20894,2,0,L|82:207,1,100
125,281,21596,5,4,0:0:0:0:
225,281,21947,1,0,0:0:0:0:
174,194,22298,1,0,0:0:0:0:
274,194,22649,1,0,0:0:0:0:
228,105,23000,2,0,P|323:114|383:197,1,200
226,319,24403,5,4,0:0:0:0:
135,275,24754,1,0,0:0:0:0:
135,174,25105,1,0,0:0:0:0:
224,128,25456,1,0,0:0:0:0:
311,79,25807,2,0,P|401:109|441:203,1,200
297,338,27210,5,4,0:0:0:0:
363,263,27561,1,0,0:0:0:0:
302,183,27912,1,0,0:0:0:0:
302,183,28087,1,0,0:0:0:0:
232,111,28438,2,0,B|103:129|103:129|99:319,1,300
295,332,30017,6,0,P|343:303|367:254,1,100,4|0,0:0|0:0,0:0:0:0:
397,171,30719,2,0,B|396:118|396:118|341:82,1,100
258,71,31421,1,0,0:0:0:0:
163,105,31772,1,0,0:0:0:0:
142,202,32122,2,0,B|163:264|163:264|210:291,1,100
281,328,32824,1,4,0:0:0:0:
377,213,33350,1,0,0:0:0:0:
377,213,33526,1,0,0:0:0:0:
242,64,34228,1,4,0:0:0:0:
114,142,34754,1,0,0:0:0:0:
114,142,34930,1,0,0:0:0:0:
234,301,35631,6,0,P|277:290|327:250,1,100,4|0,0:0|0:0,0:0:0:0:
320,165,36333,2,0,P|278:127|220:117,1,100
145,158,37035,1,0,0:0:0:0:
153,307,37561,1,4,0:0:0:0:
153,307,37736,1,4,0:0:0:0:
364,306,38438,6,0,L|370:194,1,100
329,113,39140,2,0,L|208:118,1,100
133,148,39842,2,0,L|137:254,1,100,4|0,0:0|0:0,0:0:0:0:
151,295,40368,2,0,B|199:328|258:276|314:313,1,150,8|0,0:0|0:0,0:0:0:0:
388,262,41245,5,4,0:0:0:0:
416,165,41596,1,0,0:0:0:0:
376,67,41947,1,0,0:0:0:0:
348,163,42298,1,0,0:0:0:0:
376,258,42649,2,0,P|276:313|227:311,1,150,2|0,0:0|0:0,0:0:0:0:
193,304,43351,1,0,0:0:0:0:
123,232,43701,1,0,0:0:0:0:
175,146,44052,6,0,P|200:131|241:125,2,50,2|0|0,0:0|0:0|0:0,0:0:0:0:
100,159,44579,2,0,P|100:129|116:91,2,50,2|0|0,0:0|0:0|0:0,0:0:0:0:
145,218,45105,2,0,P|120:233|79:239,2,50,2|0|0,0:0|0:0|0:0,0:0:0:0:
209,178,45631,2,0,P|220:204|220:246,2,50,2|0|0,0:0|0:0|0:0,0:0:0:0:
159,134,46158,1,0,0:0:0:0:
225,76,46508,1,0,0:0:0:0:
328,113,46859,6,0,L|334:223,1,100,4|0,0:0|0:0,0:0:0:0:
297,306,47561,2,0,P|249:317|190:294,1,100
148,217,48263,1,4,0:0:0:0:
215,143,48614,2,0,P|258:197|259:245,2,100,2|2|2,0:0|0:0|0:0,0:0:0:0:
116,124,49666,1,2,0:0:0:0:
116,124,49841,1,2,0:0:0:0:
109,224,50193,1,0,0:0:0:0:
358,241,51070,5,2,0:0:0:0:
370,91,51596,2,0,P|299:101|264:184,1,150,8|0,0:0|0:0,0:0:0:0:
262,264,52473,5,4,0:0:0:0:
262,264,52649,1,4,0:0:0:0:
188,332,53000,1,4,0:0:0:0:
188,332,53175,2,0,L|183:225,1,100
188,131,53877,2,0,P|241:154|275:208,1,100
278,285,54579,1,0,0:0:0:0:
372,316,54929,1,0,0:0:0:0:
432,236,55280,6,0,L|425:122,1,100,4|0,0:0|0:0,0:0:0:0:
389,100,55807,1,2,0:0:0:0:
296,61,56158,1,2,0:0:0:0:
199,84,56508,2,0,P|154:143|133:221,1,150,4|0,0:0|0:0,0:0:0:0:
189,298,57386,2,0,P|216:254|231:193,1,100
221,108,58087,6,0,B|269:79|269:79|325:86,1,100,4|0,0:0|0:0,0:0:0:0:
357,108,58614,1,2,0:0:0:0:
401,197,58965,1,2,0:0:0:0:
366,290,59315,2,0,B|288:326|288:326|217:311,1,150,4|0,0:0|0:0,0:0:0:0:
130,279,60193,2,0,L|133:170,1,100
275,78,60894,5,2,0:0:0:0:
363,124,61245,1,2,0:0:0:0:
271,164,61596,1,2,0:0:0:0:
359,210,61947,1,2,0:0:0:0:
267,249,62298,1,2,0:0:0:0:
267,249,62473,1,0,0:0:0:0:
178,202,62824,1,2,0:0:0:0:
178,202,63000,1,0,0:0:0:0:
271,164,63351,1,0,0:0:0:0:
353,219,63701,6,0,P|373:167|366:111,1,100,2|0,0:0|0:0,0:0:0:0:
287,66,64403,1,8,0:0:0:0:
287,66,64579,1,8,0:0:0:0:
193,99,64929,2,0,P|162:157|159:250,1,150,2|0,0:0|0:0,0:0:0:0:
224,313,65807,2,0,P|248:268|245:203,1,100
235,120,66508,6,0,P|280:98|336:101,1,100,4|0,0:0|0:0,0:0:0:0:
374,120,67035,1,2,0:0:0:0:
418,209,67386,1,2,0:0:0:0:
375,299,67736,2,0,B|297:310|297:310|218:305,1,150,4|0,0:0|0:0,0:0:0:0:
136,259,68614,2,0,L|139:149,1,100
62,75,69315,6,0,L|65:182,1,100,4|0,0:0|0:0,0:0:0:0:
73,224,69842,1,2,0:0:0:0:
135,302,70193,1,2,0:0:0:0:
230,331,70543,2,0,P|302:318|371:257,1,150,4|0,0:0|0:0,0:0:0:0:
382,173,71421,2,0,P|327:183|289:218,1,100
217,274,72122,6,0,P|181:269|151:278,2,50,2|0|0,0:0|0:0|0:0,0:0:0:0:
260,300,72649,1,2,0:0:0:0:
351,340,73000,2,0,P|384:344|415:342,2,50,0|0|2,0:0|0:0|0:0,0:0:0:0:
210,286,73701,2,0,P|188:222|198:177,1,100,4|0,0:0|0:0,0:0:0:0:
210,144,74228,1,0,0:0:0:0:
290,84,74579,1,0,0:0:0:0:
422,171,74929,5,2,0:0:0:0:
422,171,75105,1,0,0:0:0:0:
342,232,75456,1,2,0:0:0:0:
342,232,75632,1,0,0:0:0:0:
283,150,75982,1,2,0:0:0:0:
93,87,76684,1,8,0:0:0:0:
17,272,77386,1,0,0:0:0:0:
90,339,77736,6,0,B|142:362|142:362|231:334,1,150,4|0,0:0|0:0,0:0:0:0:
270,303,78438,2,0,L|240:197,1,100
228,158,78964,2,0,L|330:131,1,100,4|0,0:0|0:0,0:0:0:0:
372,146,79491,2,0,B|429:179|429:179|436:315,1,200
256,192,80543,12,0,83000,0:0:0:0:
224,66,83701,5,0,0:0:0:0:
324,66,84052,1,0,0:0:0:0:
404,124,84403,1,0,0:0:0:0:
367,222,84754,2,0,P|282:253|191:227,1,179.999994506836
256,192,86158,12,0,89842,0:0:0:0:
