osu file format v14

[General]
AudioFilename: audio.mp3
AudioLeadIn: 0
PreviewTime: 55281
Countdown: 0
SampleSet: Normal
StackLeniency: 0.7
Mode: 0
LetterboxInBreaks: 0
WidescreenStoryboard: 0

[Editor]
Bookmarks: 45106
DistanceSpacing: 1.4
BeatDivisor: 4
GridSize: 4
TimelineZoom: 2.4

[Metadata]
Title:Dramatic Market Ride (TV Size)
TitleUnicode:ドラマチックマーケットライド (TV Size)
Artist:Suzaki Aya
ArtistUnicode:洲崎綾
Creator:kinematik
Version:Hashiridasu
Source:Tamako Market
Tags:tamako market op love story dramatic ride tv size
BeatmapID:2117614
BeatmapSetID:1011769

[Difficulty]
HPDrainRate:5.2
CircleSize:4
OverallDifficulty:9.2
ApproachRate:9.3
SliderMultiplier:1.4
SliderTickRate:1

[Events]
//Background and Video events
0,0,"tamako-market-op.jpg",0,0
Video,0,"tamako-market-op.mp4"
//Break Periods
//Storyboard Layer 0 (Background)
//Storyboard Layer 1 (Fail)
//Storyboard Layer 2 (Pass)
//Storyboard Layer 3 (Foreground)
//Storyboard Layer 4 (Overlay)
//Storyboard Sound Samples

[TimingPoints]
544,350.877192982456,4,1,0,35,1,0
1947,-100,4,1,0,45,0,0
11597,-133.333333333333,4,1,0,45,0,0
12299,-333.333333333333,4,1,0,45,0,0
13176,-100,4,1,0,35,0,0
15982,-100,4,1,0,53,0,0
18789,-100,4,1,0,30,0,0
26685,-100,4,1,0,30,0,0
28439,-83.3333333333333,4,1,0,45,0,0
29492,-100,4,1,0,53,0,0
30017,-100,4,1,0,30,0,0
34579,-100,4,1,0,50,0,0
35632,-66.6666666666667,4,1,0,35,0,0
36158,-80,4,1,0,35,0,0
38264,-100,4,1,0,35,0,0
39666,-100,4,1,0,53,0,0
41245,-100,4,1,0,40,0,0
51597,-83.3333333333333,4,1,0,65,0,0
55281,-100,4,1,0,45,0,0
62474,-66.6666666666667,4,1,0,65,0,0
63702,-100,4,1,0,45,0,0
64579,-66.6666666666667,4,1,0,53,0,0
64930,-100,4,1,0,65,0,0
66508,-100,4,1,0,45,0,0
67035,-83.3333333333333,4,1,0,45,0,0
67386,-62.5,4,1,0,53,0,0
67737,-83.3333333333333,4,1,0,65,0,0
69315,-83.3333333333333,4,1,0,45,0,0
69842,-100,4,1,0,45,0,0
70193,-66.6666666666667,4,1,0,53,0,0
70544,-100,4,1,0,65,0,0
71070,-100,4,1,0,53,0,0
72122,-100,4,1,0,45,0,0
73351,-83.3333333333333,4,1,0,45,0,0
73614,-83.3333333333333,4,1,0,53,0,0
74930,-71.4285714285714,4,1,0,65,0,0
75983,-83.3333333333333,4,1,0,65,0,0
77736,-83.3333333333333,4,1,0,45,0,0
80542,-83.3333333333333,4,1,0,53,0,0
84755,-125,4,1,0,65,0,0
85543,-125,4,1,0,45,0,0
85807,-166.666666666667,4,1,0,35,0,0
87035,-166.666666666667,4,1,0,30,0,0
88438,-166.666666666667,4,1,0,15,0,0
89491,-166.666666666667,4,1,0,5,0,0

[HitObjects]
416,264,544,5,4,0:0:0:0:
393,94,720,1,0,0:0:0:0:
393,94,807,2,0,P|382:143|384:176,1,70
416,264,1071,1,4,0:0:0:0:
272,193,1245,1,0,0:0:0:0:
272,193,1334,2,0,P|230:220|208:245,1,70
143,317,1597,2,0,L|137:349,6,17.5,4|0|0|0|0|0|0,0:0|0:0|0:0|0:0|0:0|0:0|0:0,0:0:0:0:
93,145,1948,5,2,0:0:0:0:
168,344,2123,1,0,0:0:0:0:
174,121,2299,5,2,0:0:0:0:
95,322,2474,1,0,0:0:0:0:
92,104,2649,5,2,0:0:0:0:
171,301,2825,1,0,0:0:0:0:
175,70,3000,5,2,0:0:0:0:
94,282,3176,1,0,0:0:0:0:
74,56,3351,5,2,0:0:0:0:
264,152,3527,1,0,0:0:0:0:
101,150,3702,5,2,0:0:0:0:
307,55,3878,1,0,0:0:0:0:
141,56,4053,5,2,0:0:0:0:
331,152,4229,1,0,0:0:0:0:
168,150,4404,5,2,0:0:0:0:
368,54,4580,1,0,0:0:0:0:
341,318,4755,6,0,P|368:272|371:239,1,70,2|0,0:0|0:0,0:0:0:0:
305,44,5106,2,0,P|281:89|278:118,1,70,2|0,0:0|0:0,0:0:0:0:
167,315,5456,2,0,P|194:269|197:236,1,70,2|0,0:0|0:0,0:0:0:0:
131,41,5807,2,0,P|107:86|104:115,1,70,2|0,0:0|0:0,0:0:0:0:
88,254,6158,1,4,0:0:0:0:
204,132,6334,1,0,0:0:0:0:
232,312,6509,1,0,0:0:0:0:
356,168,6685,2,0,B|354:247|424:217|419:312,1,140,4|0,0:0|0:0,0:0:0:0:
411,84,7211,1,2,0:0:0:0:
322,343,7386,1,0,0:0:0:0:
188,44,7562,5,2,0:0:0:0:
264,308,7737,1,0,0:0:0:0:
332,44,7913,5,2,0:0:0:0:
176,284,8088,1,0,0:0:0:0:
256,36,8264,5,2,0:0:0:0:
340,336,8439,1,0,0:0:0:0:
364,44,8614,5,2,0:0:0:0:
236,320,8790,1,0,0:0:0:0:
132,112,8965,5,2,0:0:0:0:
320,272,9141,1,0,0:0:0:0:
312,112,9316,5,2,0:0:0:0:
152,324,9492,1,0,0:0:0:0:
192,68,9667,5,2,0:0:0:0:
268,344,9842,1,0,0:0:0:0:
300,36,10018,5,2,0:0:0:0:
176,292,10193,1,0,0:0:0:0:
435,48,10369,5,2,0:0:0:0:
462,267,10544,1,0,0:0:0:0:
318,49,10720,5,2,0:0:0:0:
336,294,10895,1,0,0:0:0:0:
200,48,11071,5,2,0:0:0:0:
186,324,11246,1,0,0:0:0:0:
93,50,11421,5,2,0:0:0:0:
92,232,11597,2,0,B|104:272|154:302,1,78.7500030040742,2|0,0:0|0:0,0:0:0:0:
254,304,11948,2,0,P|235:265|206:242,1,78.7500030040742,8|0,0:0|0:0,0:0:0:0:
92,232,12299,2,0,B|106:274|150:301,1,83.9999974365235,8|0,0:0|0:0,0:0:0:0:
404,120,13176,6,0,P|368:108|304:104,1,70,2|0,0:0|0:0,0:0:0:0:
92,232,13527,1,0,0:0:0:0:
164,56,13702,1,2,0:0:0:0:
164,56,13878,2,0,P|228:60|260:72,1,70,2|0,0:0|0:0,0:0:0:0:
372,120,14228,1,0,0:0:0:0:
163,180,14404,6,0,P|218:148|252:141,1,70,2|0,0:0|0:0,0:0:0:0:
372,120,14754,1,0,0:0:0:0:
230,285,14930,6,0,P|259:228|283:203,1,70,2|0,0:0|0:0,0:0:0:0:
372,120,15280,1,0,0:0:0:0:
329,334,15456,6,0,P|327:269|336:236,1,70,2|0,0:0|0:0,0:0:0:0:
372,120,15806,1,0,0:0:0:0:
408,336,15983,5,8,0:0:0:0:
292,40,16158,1,2,0:0:0:0:
176,336,16334,1,2,0:0:0:0:
408,112,16509,1,8,0:0:0:0:
152,136,16685,1,2,0:0:0:0:
336,280,16860,1,2,0:0:0:0:
152,136,17035,5,8,0:0:0:0:
420,164,17211,1,2,0:0:0:0:
232,328,17386,1,2,0:0:0:0:
420,164,17562,1,8,0:0:0:0:
152,136,17737,1,2,0:0:0:0:
420,164,17912,1,2,0:0:0:0:
132,324,18088,1,8,0:0:0:0:
296,48,18264,1,2,0:0:0:0:
412,200,18439,1,4,0:0:0:0:
404,248,18527,1,4,0:0:0:0:
384,292,18614,1,4,0:0:0:0:
352,328,18702,1,4,0:0:0:0:
308,352,18790,6,0,P|276:356|212:344,1,70,4|0,0:0|0:0,0:0:0:0:
96,244,19141,2,0,P|141:204|176:191,1,70,0|0,0:0|0:0,0:0:0:0:
80,84,19492,2,0,P|140:76|176:84,1,70,2|0,0:0|0:0,0:0:0:0:
304,92,19842,1,0,0:0:0:0:
196,168,20018,1,0,0:0:0:0:
320,176,20193,6,0,P|364:192|392:212,1,70,4|0,0:0|0:0,0:0:0:0:
184,192,20544,2,0,P|144:180|104:144,1,70
252,52,20895,2,0,P|292:44|344:56,1,70,2|0,0:0|0:0,0:0:0:0:
440,132,21246,2,0,L|436:212,1,70
212,332,21597,6,0,P|196:288|196:244,1,70,4|0,0:0|0:0,0:0:0:0:
196,144,21948,1,0,0:0:0:0:
304,244,22123,1,0,0:0:0:0:
304,244,22299,2,0,P|316:200|316:152,1,70,2|0,0:0|0:0,0:0:0:0:
272,40,22649,1,0,0:0:0:0:
104,56,22825,1,0,0:0:0:0:
104,56,23000,2,0,P|96:112|96:144,1,70,4|0,0:0|0:0,0:0:0:0:
92,288,23351,1,0,0:0:0:0:
200,160,23527,1,0,0:0:0:0:
200,160,23702,6,0,P|204:208|204:244,1,70,2|0,0:0|0:0,0:0:0:0:
320,104,24053,1,0,0:0:0:0:
380,256,24228,2,0,P|328:311|356:239,1,210,4|0,0:0|0:0,0:0:0:0:
324,76,24930,1,0,0:0:0:0:
324,76,25106,2,0,P|272:60|236:56,1,70,2|0,0:0|0:0,0:0:0:0:
132,312,25632,1,4,0:0:0:0:
120,184,25807,2,0,B|248:176|240:336|376:312,1,280,0|2,0:0|0:0,0:0:0:0:
392,68,26685,6,0,P|348:56|324:56,1,70
128,76,27035,2,0,B|132:104|96:132|96:132|140:132|188:144|196:208,1,210,4|0,0:0|0:0,0:0:0:0:
208,316,27737,1,0,0:0:0:0:
316,148,27913,1,2,0:0:0:0:
316,352,28088,1,0,0:0:0:0:
104,76,28439,6,4,B|152:48|224:40|292:68,1,167.999994873047
304,76,28878,1,4,0:0:0:0:
304,76,28966,1,4,0:0:0:0:
200,304,29141,1,8,0:0:0:0:
200,304,29492,1,8,0:0:0:0:
192,80,29667,1,4,0:0:0:0:
224,56,29755,1,4,0:0:0:0:
264,48,29842,1,4,0:0:0:0:
312,48,29930,1,4,0:0:0:0:
352,60,30018,6,4,P|392:96|408:128,1,70,4|0,0:0|0:0,0:0:0:0:
324,312,30369,2,0,P|292:272|280:244,1,70
256,108,30720,1,2,0:0:0:0:
184,272,30895,1,0,0:0:0:0:
148,140,31071,2,0,P|148:88|168:56,1,70
304,48,31421,5,8,0:0:0:0:
416,160,31597,2,0,P|440:240|428:312,2,140,4|0|0,0:0|0:0|0:0,0:0:0:0:
292,56,32474,1,0,0:0:0:0:
292,56,32649,1,0,0:0:0:0:
128,68,32825,2,0,P|108:128|104:160,1,70,4|0,0:0|0:0,0:0:0:0:
140,300,33176,5,0,0:0:0:0:
332,140,33351,1,0,0:0:0:0:
300,332,33527,5,2,0:0:0:0:
272,156,33702,1,0,0:0:0:0:
176,328,33878,1,0,0:0:0:0:
236,64,34053,1,0,0:0:0:0:
300,332,34228,2,0,P|352:324|384:288,1,70,4|0,0:0|0:0,0:0:0:0:
416,148,34579,5,2,0:0:0:0:
432,172,34667,1,0,0:0:0:0:
448,200,34755,1,0,0:0:0:0:
316,96,34930,5,2,0:0:0:0:
304,120,35018,1,0,0:0:0:0:
292,148,35106,1,0,0:0:0:0:
432,56,35281,5,2,0:0:0:0:
448,80,35369,1,0,0:0:0:0:
464,108,35457,1,0,0:0:0:0:
208,48,35632,6,0,B|156:40|128:56|128:56|152:92|168:132|168:196,1,210.000008010865,4|0,0:0|0:0,0:0:0:0:
184,332,36158,1,0,0:0:0:0:
184,332,36334,2,0,L|288:324,1,87.5,2|0,0:0|0:0,0:0:0:0:
420,260,36860,6,0,P|412:156|372:96,1,175,4|0,0:0|0:0,0:0:0:0:
236,40,37386,1,0,0:0:0:0:
64,120,37562,1,0,0:0:0:0:
216,288,37737,1,2,0:0:0:0:
196,72,37913,1,0,0:0:0:0:
216,288,38088,1,0,0:0:0:0:
196,72,38264,2,0,P|123:126|191:127,1,210,4|0,0:0|0:0,0:0:0:0:
372,180,39141,1,0,0:0:0:0:
296,332,39316,1,0,0:0:0:0:
252,36,39667,2,4,P|332:68|380:116,1,140
392,140,40106,1,4,0:0:0:0:
392,140,40193,1,4,0:0:0:0:
168,192,40369,1,2,0:0:0:0:
168,192,40720,1,8,0:0:0:0:
332,312,40895,5,4,0:0:0:0:
360,284,40982,1,4,0:0:0:0:
384,244,41070,1,4,0:0:0:0:
396,204,41158,1,4,0:0:0:0:
400,164,41246,6,0,P|392:104|384:76,1,70,4|0,0:0|0:0,0:0:0:0:
208,60,41597,2,0,P|165:83|129:115,1,70
88,228,41948,1,2,0:0:0:0:
180,336,42123,1,0,0:0:0:0:
280,224,42299,1,0,0:0:0:0:
88,228,42474,1,0,0:0:0:0:
180,336,42649,2,0,B|244:368|316:292|392:320,1,210,4|0,0:0|0:0,0:0:0:0:
420,108,43351,6,0,P|401:145|366:183,1,70
152,240,43702,2,0,P|173:204|212:169,1,70
360,48,44053,5,4,0:0:0:0:
128,180,44228,1,2,0:0:0:0:
360,312,44404,1,2,0:0:0:0:
208,48,44579,5,4,0:0:0:0:
206,314,44754,1,2,0:0:0:0:
436,179,44930,1,2,0:0:0:0:
129,179,45106,5,4,0:0:0:0:
359,313,45281,1,2,0:0:0:0:
358,47,45457,1,2,0:0:0:0:
205,312,45632,5,4,0:0:0:0:
437,179,45807,1,2,0:0:0:0:
205,47,45983,1,2,0:0:0:0:
344,312,46158,5,4,0:0:0:0:
256,48,46334,1,2,0:0:0:0:
168,312,46509,1,4,0:0:0:0:
256,48,46685,1,2,0:0:0:0:
344,312,46860,6,0,P|285:347|211:314,1,140,4|0,0:0|0:0,0:0:0:0:
100,184,47386,1,0,0:0:0:0:
100,184,47562,2,0,L|119:111,1,70,2|0,0:0|0:0,0:0:0:0:
394,63,47913,1,8,0:0:0:0:
394,63,48088,2,0,P|417:154|426:281,1,210,8|0,0:0|0:0,0:0:0:0:
157,306,48790,2,0,P|118:277|103:235,2,70,0|2|0,0:0|0:0|0:0,0:0:0:0:
332,334,49492,5,0,0:0:0:0:
276,112,49667,1,2,0:0:0:0:
128,344,49842,1,0,0:0:0:0:
216,48,50018,1,0,0:0:0:0:
288,341,50193,2,4,P|339:322|395:259,1,140,2|4,0:0|0:0,0:0:0:0:
416,224,50632,1,4,0:0:0:0:
416,224,50720,1,4,0:0:0:0:
267,56,50895,1,4,0:0:0:0:
113,56,51071,2,0,L|104:204,1,140
87,298,51597,2,0,B|178:338|268:283|363:331,1,251.999992309571,2|0,0:0|0:0,0:0:0:0:
427,55,52474,5,4,0:0:0:0:
342,343,52649,1,0,0:0:0:0:
342,343,53000,5,0,0:0:0:0:
264,56,53176,2,0,P|212:48|144:72,1,125.999996154785,2|0,0:0|0:0,0:0:0:0:
88,184,53527,1,2,0:0:0:0:
216,140,53702,2,4,L|212:200,1,41.9999987182618
200,344,53878,5,4,0:0:0:0:
312,56,54053,2,0,L|307:111,1,41.9999987182618,2|0,0:0|0:0,0:0:0:0:
274,341,54228,1,4,0:0:0:0:
274,341,54404,1,4,0:0:0:0:
120,96,54579,2,2,L|112:52,2,41.9999987182618
188,312,54930,5,4,0:0:0:0:
232,340,55018,1,4,0:0:0:0:
284,344,55106,1,4,0:0:0:0:
332,328,55193,1,4,0:0:0:0:
364,300,55281,6,0,P|404:220|412:168,1,140,4|0,0:0|0:0,0:0:0:0:
216,40,55807,1,8,0:0:0:0:
280,280,56158,1,8,0:0:0:0:
448,64,56509,2,0,P|360:44|288:44,1,140,2|0,0:0|0:0,0:0:0:0:
164,72,57035,1,0,0:0:0:0:
64,280,57211,1,0,0:0:0:0:
332,96,57386,5,2,0:0:0:0:
400,336,57562,1,0,0:0:0:0:
208,128,57737,1,0,0:0:0:0:
136,344,57913,1,0,0:0:0:0:
72,84,58088,6,0,P|154:49|207:45,1,140,4|0,0:0|0:0,0:0:0:0:
352,308,58614,1,8,0:0:0:0:
216,192,58965,1,4,0:0:0:0:
336,48,59316,1,8,0:0:0:0:
336,48,59492,2,0,B|368:80|408:80|408:80|360:136|380:224,1,210,2|0,0:0|0:0,0:0:0:0:
440,304,60193,2,0,B|376:372|284:268|220:336,1,210,2|0,0:0|0:0,0:0:0:0:
408,76,60895,6,0,L|332:56,1,70,2|0,0:0|0:0,0:0:0:0:
360,148,61246,2,0,L|280:128,1,70
340,58,61597,2,0,L|427:82,1,70,2|0,0:0|0:0,0:0:0:0:
360,148,61948,2,0,L|280:128,1,70
72,60,62299,5,2,0:0:0:0:
75,285,62474,2,0,B|76:345|76:345|212:241,1,210.000008010865
476,40,63000,1,8,0:0:0:0:
476,40,63351,1,8,0:0:0:0:
444,200,63702,6,0,P|440:264|400:336,2,140,2|0|0,0:0|0:0|0:0,0:0:0:0:
288,56,64579,2,0,B|260:72|260:72|228:52|228:52|196:68|196:68|164:52|164:52|128:64,1,157.500006008148,4|0,0:0|0:0,0:0:0:0:
104,68,64930,2,0,P|104:180|152:276,1,210,4|0,0:0|0:0,0:0:0:0:
424,320,65807,5,2,0:0:0:0:
432,52,65983,1,4,0:0:0:0:
388,48,66071,1,4,0:0:0:0:
348,48,66158,1,4,0:0:0:0:
308,56,66246,1,4,0:0:0:0:
268,72,66334,1,4,0:0:0:0:
236,96,66421,1,4,0:0:0:0:
212,132,66509,6,4,P|192:188|192:228,1,70
168,348,66860,1,4,0:0:0:0:
432,92,67035,6,0,B|436:132|424:184,1,83.9999974365235,4|0,0:0|0:0,0:0:0:0:
432,92,67386,2,0,B|432:160|416:208,1,112,8|0,0:0|0:0,0:0:0:0:
432,92,67737,2,0,B|436:144|424:220|372:272,1,167.999994873047,2|0,0:0|0:0,0:0:0:0:
128,156,68264,1,2,0:0:0:0:
116,188,68351,1,0,0:0:0:0:
108,212,68439,1,0,0:0:0:0:
308,64,68614,5,2,0:0:0:0:
332,340,68790,1,0,0:0:0:0:
208,52,68965,1,0,0:0:0:0:
148,348,69141,1,0,0:0:0:0:
368,96,69316,2,0,P|447:107|424:176,1,167.999994873047,2|0,0:0|0:0,0:0:0:0:
158,320,69842,2,0,B|124:288|112:240,1,70,2|0,0:0|0:0,0:0:0:0:
158,320,70193,2,0,B|120:288|108:208,1,105.000004005432,8|0,0:0|0:0,0:0:0:0:
156,320,70544,2,0,P|116:248|112:168,1,140,2|0,0:0|0:0,0:0:0:0:
204,60,71071,1,0,0:0:0:0:
416,148,71246,1,0,0:0:0:0:
316,36,71421,5,2,0:0:0:0:
344,256,71597,1,0,0:0:0:0:
196,72,71772,1,0,0:0:0:0:
344,256,71948,1,0,0:0:0:0:
196,72,72123,2,0,L|112:88,1,70
64,272,72474,1,2,0:0:0:0:
64,272,72649,6,0,P|132:304|216:304,1,140,2|0,0:0|0:0,0:0:0:0:
448,112,73176,1,2,0:0:0:0:
448,112,73351,6,6,P|392:60|292:52,1,167.999994873047,2|6,0:0|0:0,0:0:0:0:
268,64,73790,1,4,0:0:0:0:
268,64,73878,1,4,0:0:0:0:
208,272,74053,2,0,L|192:328,2,41.9999987182618,2|4|4,0:0|0:0|0:0,0:0:0:0:
360,40,74404,1,2,0:0:0:0:
408,60,74492,1,4,0:0:0:0:
444,96,74579,1,2,0:0:0:0:
468,140,74667,1,4,0:0:0:0:
468,192,74755,1,4,0:0:0:0:
452,240,74842,1,4,0:0:0:0:
424,280,74930,6,0,P|376:316|324:328,1,97.9999970092774,2|0,0:0|0:0,0:0:0:0:
96,300,75281,1,0,0:0:0:0:
226,39,75456,1,2,0:0:0:0:
264,336,75632,1,4,0:0:0:0:
226,39,75807,1,0,0:0:0:0:
164,332,75983,2,0,P|283:330|337:223,1,251.999992309571,2|0,0:0|0:0,0:0:0:0:
160,136,76685,2,0,P|104:204|178:150,1,251.999992309571,4|0,0:0|0:0,0:0:0:0:
312,60,77386,2,0,L|420:66,1,83.9999974365235
364,284,77737,6,0,B|320:324|260:324,1,83.9999974365235,2|0,0:0|0:0,0:0:0:0:
104,336,78088,1,0,0:0:0:0:
120,88,78264,1,2,0:0:0:0:
120,88,78439,6,0,P|164:72|220:72,1,83.9999974365235,2|0,0:0|0:0,0:0:0:0:
360,72,78790,1,0,0:0:0:0:
176,200,78965,6,0,P|204:163|252:133,1,83.9999974365235,2|0,0:0|0:0,0:0:0:0:
360,72,79316,1,0,0:0:0:0:
268,280,79492,6,0,P|277:234|307:186,1,83.9999974365235,2|0,0:0|0:0,0:0:0:0:
360,72,79843,1,0,0:0:0:0:
392,296,80018,6,0,P|374:252|373:196,1,83.9999974365235,2|0,0:0|0:0,0:0:0:0:
360,72,80369,1,0,0:0:0:0:
168,336,80544,5,8,0:0:0:0:
256,48,80720,1,2,0:0:0:0:
340,336,80895,1,2,0:0:0:0:
256,48,81071,1,8,0:0:0:0:
168,336,81246,1,2,0:0:0:0:
396,144,81421,1,2,0:0:0:0:
124,208,81597,5,8,0:0:0:0:
380,56,81772,1,2,0:0:0:0:
264,340,81948,1,2,0:0:0:0:
216,36,82123,1,8,0:0:0:0:
172,336,82299,1,2,0:0:0:0:
384,68,82474,1,2,0:0:0:0:
112,172,82649,5,8,0:0:0:0:
400,136,82825,1,2,0:0:0:0:
200,328,83000,1,2,0:0:0:0:
244,40,83176,1,8,0:0:0:0:
360,312,83351,1,2,0:0:0:0:
244,40,83527,1,2,0:0:0:0:
360,312,83702,5,8,0:0:0:0:
412,88,83878,1,2,0:0:0:0:
212,188,84053,1,2,0:0:0:0:
412,88,84228,1,8,0:0:0:0:
372,336,84404,1,2,0:0:0:0:
412,88,84579,1,2,0:0:0:0:
156,136,84755,2,0,B|124:152|76:128|76:128|92:180|160:212|144:316,1,280,2|0,0:0|0:0,0:0:0:0:
156,344,85720,1,0,0:0:0:0:
156,344,85807,2,0,B|304:232|400:244|440:196|440:196|468:160|440:120|440:120|392:80|328:112|328:112|304:40|256:20|203:48|203:48|120:104|200:204|156:284,1,923.999971801759
