osu file format v14

[General]
AudioFilename: audio.mp3
AudioLeadIn: 0
PreviewTime: 55281
Countdown: 0
SampleSet: Normal
StackLeniency: 0.7
Mode: 0
LetterboxInBreaks: 0
WidescreenStoryboard: 1

[Editor]
DistanceSpacing: 1
BeatDivisor: 4
GridSize: 4
TimelineZoom: 2.4

[Metadata]
Title:Dramatic Market Ride (TV Size)
TitleUnicode:ドラマチックマーケットライド (TV Size)
Artist:Suzaki Aya
ArtistUnicode:洲崎綾
Creator:kinematik
Version:Hard
Source:Tamako Market
Tags:tamako market op love story dramatic ride tv size
BeatmapID:2118130
BeatmapSetID:1011769

[Difficulty]
HPDrainRate:4.6
CircleSize:3.2
OverallDifficulty:7
ApproachRate:8
SliderMultiplier:1.4
SliderTickRate:1

[Events]
//Background and Video events
0,0,"tamako-market-op.jpg",0,0
Video,0,"tamako-market-op.mp4"
//Break Periods
//Storyboard Layer 0 (Background)
//Storyboard Layer 1 (Fail)
//Storyboard Layer 2 (Pass)
//Storyboard Layer 3 (Foreground)
//Storyboard Layer 4 (Overlay)
//Storyboard Sound Samples

[TimingPoints]
544,350.877192982456,4,1,0,40,1,0
19140,-100,4,1,0,35,0,0
25807,-83.3333333333333,4,1,0,35,0,0
26508,-100,4,1,0,35,0,0
28614,-100,4,1,0,40,0,0
29491,-90.9090909090909,4,1,0,40,0,0
30017,-100,4,1,0,35,0,0
38263,-133.333333333333,4,1,0,35,0,0
39140,-90.9090909090909,4,1,0,35,0,0
42649,-125,4,1,0,40,0,0
43351,-90.9090909090909,4,1,0,40,0,0
51596,-133.333333333333,4,1,0,40,0,0
52298,-90.9090909090909,4,1,0,45,0,0
71245,-83.3333333333333,4,1,0,40,0,0
71772,-100,4,1,0,40,0,0
84929,-181.818181818182,4,1,0,30,0,0
85631,-100,4,1,0,25,0,0
89842,-100,4,1,0,5,0,0

[HitObjects]
256,192,544,12,0,1596,0:0:0:0:
377,94,1947,6,0,P|387:133|391:165,1,70,4|0,0:0|0:0,0:0:0:0:
351,275,2298,2,0,L|268:285,1,70
163,299,2649,5,2,0:0:0:0:
163,299,2824,1,0,0:0:0:0:
216,188,3000,1,0,0:0:0:0:
216,188,3175,1,0,0:0:0:0:
304,272,3351,6,0,P|329:326|341:367,1,70,4|0,0:0|0:0,0:0:0:0:
224,225,3701,2,0,P|248:183|287:152,1,70
344,107,4052,1,2,0:0:0:0:
344,107,4228,1,0,0:0:0:0:
395,212,4403,2,0,P|347:230|298:235,1,70
77,231,4754,6,0,L|168:224,1,70,4|0,0:0|0:0,0:0:0:0:
264,216,5105,1,0,0:0:0:0:
192,296,5280,1,0,0:0:0:0:
184,189,5456,6,0,L|180:104,1,70,2|0,0:0|0:0,0:0:0:0:
180,28,5807,1,0,0:0:0:0:
256,104,5982,1,0,0:0:0:0:
136,132,6158,6,0,P|104:184|92:216,1,70,4|0,0:0|0:0,0:0:0:0:
200,232,6508,2,0,P|212:291|225:323,1,70,4|0,0:0|0:0,0:0:0:0:
312,256,6859,2,0,P|364:287|396:298,1,70,4|0,0:0|0:0,0:0:0:0:
416,152,7210,2,0,P|473:131|503:114,1,70,4|0,0:0|0:0,0:0:0:0:
336,56,7561,6,0,L|332:152,1,70,4|0,0:0|0:0,0:0:0:0:
304,248,7912,2,0,L|300:152,1,70
288,60,8263,5,2,0:0:0:0:
288,60,8438,1,0,0:0:0:0:
244,168,8614,1,0,0:0:0:0:
244,168,8789,1,0,0:0:0:0:
360,136,8965,6,0,P|376:188|376:220,1,70,4|0,0:0|0:0,0:0:0:0:
276,124,9315,2,0,P|296:80|332:56,1,70
424,68,9666,1,2,0:0:0:0:
380,188,9842,1,0,0:0:0:0:
300,76,10017,2,0,L|304:164,1,70
232,304,10368,6,0,P|180:268|168:244,1,70,4|0,0:0|0:0,0:0:0:0:
136,152,10719,2,0,P|172:168|200:204,1,70
232,304,11070,2,0,P|180:268|168:244,2,70,2|0|0,0:0|0:0|0:0,0:0:0:0:
352,312,11596,5,8,0:0:0:0:
412,112,11947,1,8,0:0:0:0:
208,56,12298,2,0,B|128:112|128:112|132:224,1,210,4|0,0:0|0:0,0:0:0:0:
316,324,13175,6,0,P|398:275|420:214,1,140
340,72,13701,1,0,0:0:0:0:
340,72,13877,2,0,L|344:220,1,140
300,308,14403,2,0,L|304:160,1,140
256,72,14929,2,0,L|260:220,1,140
204,300,15456,2,0,P|284:316|368:304,1,140
404,224,15982,5,4,0:0:0:0:
368,124,16158,2,0,P|328:136|296:176,2,70,2|0|0,0:0|0:0|0:0,0:0:0:0:
448,168,16684,2,0,P|456:124|448:80,2,70,2|0|0,0:0|0:0|0:0,0:0:0:0:
368,216,17210,2,0,P|400:247|440:265,2,70,2|0|0,0:0|0:0|0:0,0:0:0:0:
292,120,17736,6,0,L|200:124,1,70,2|0,0:0|0:0,0:0:0:0:
108,132,18087,1,4,0:0:0:0:
108,132,18263,1,4,0:0:0:0:
188,256,18438,2,4,L|220:212,4,35
412,68,19140,6,0,L|420:144,1,70
436,248,19491,2,0,P|368:280|280:264,1,140
260,256,20017,1,0,0:0:0:0:
400,96,20193,5,0,0:0:0:0:
400,96,20368,2,0,P|336:72|248:72,2,140
452,188,21245,2,0,L|460:276,1,70
476,344,21596,6,0,P|380:340|336:312,1,140
276,232,22122,1,0,0:0:0:0:
276,232,22298,1,0,0:0:0:0:
296,92,22649,1,0,0:0:0:0:
424,56,23000,6,0,L|432:212,1,140
396,304,23526,1,0,0:0:0:0:
396,304,23701,1,0,0:0:0:0:
320,180,24052,1,0,0:0:0:0:
108,72,24403,6,0,P|96:128|96:152,1,70,2|0,0:0|0:0,0:0:0:0:
172,224,24754,2,0,P|184:168|184:144,1,70
244,64,25105,2,0,B|284:64|284:64|324:96,1,70
393,164,25456,2,0,L|400:259,1,70
375,323,25807,6,0,P|306:301|331:221,1,167.999994873047
454,158,26333,1,0,0:0:0:0:
454,158,26508,1,0,0:0:0:0:
335,66,26859,1,0,0:0:0:0:
189,46,27210,6,0,L|192:209,1,140,2|0,0:0|0:0,0:0:0:0:
203,341,27736,1,0,0:0:0:0:
203,341,27912,2,0,P|275:335|346:323,1,140
340,91,28614,5,2,0:0:0:0:
428,42,28789,2,4,L|447:9,2,35
452,136,29140,2,0,L|460:240,1,105,4|0,0:0|0:0,0:0:0:0:
472,280,29491,2,0,B|416:324|368:244|304:304,1,154.000004699707,4|0,0:0|0:0,0:0:0:0:
160,68,30017,6,0,L|152:144,1,70
136,248,30368,2,0,P|178:251|226:222,1,70
312,164,30719,1,0,0:0:0:0:
123,219,31070,1,0,0:0:0:0:
123,219,31245,1,0,0:0:0:0:
172,96,31421,5,0,0:0:0:0:
172,96,31596,2,0,P|236:72|324:72,2,140
72,168,32473,2,0,L|80:256,1,70
96,344,32824,6,0,P|192:340|236:312,1,140,2|0,0:0|0:0,0:0:0:0:
296,232,33350,1,0,0:0:0:0:
296,232,33526,1,0,0:0:0:0:
244,88,33877,1,0,0:0:0:0:
100,56,34228,6,0,L|96:148,1,70
104,288,34579,2,0,L|136:336,2,35,2|0|0,0:0|0:0|0:0,0:0:0:0:
176,204,34929,2,0,L|124:200,2,35,2|0|0,0:0|0:0|0:0,0:0:0:0:
255,302,35280,2,0,P|304:286|338:251,1,70,2|0,0:0|0:0,0:0:0:0:
362,200,35631,6,0,P|290:205|213:193,1,140
153,64,36158,1,0,0:0:0:0:
153,64,36333,2,0,P|123:90|97:133,1,70
116,343,36859,1,0,0:0:0:0:
116,343,37035,2,0,P|227:337|308:274,1,210
381,95,37736,2,0,L|390:175,1,70,2|0,0:0|0:0,0:0:0:0:
405,268,38087,5,0,0:0:0:0:
405,268,38263,2,0,P|344:320|257:320,1,157.500006008148
90,256,39140,2,0,L|85:150,1,77.0000023498536
98,63,39491,1,0,0:0:0:0:
219,220,39842,5,2,0:0:0:0:
212,89,40017,2,4,L|209:48,2,38.5000011749268
219,220,40368,1,2,0:0:0:0:
219,220,40719,5,2,0:0:0:0:
337,110,40894,1,4,0:0:0:0:
360,140,40982,1,4,0:0:0:0:
370,177,41070,1,4,0:0:0:0:
373,214,41158,1,4,0:0:0:0:
370,252,41245,2,0,P|354:294|331:330,1,77.0000023498536,4|0,0:0|0:0,0:0:0:0:
248,247,41596,6,0,P|208:269|166:280,1,77.0000023498536
144,167,41947,2,0,P|103:145|71:117,1,77.0000023498536
210,48,42298,2,0,P|249:68|281:96,1,77.0000023498536
387,94,42649,2,0,L|380:270,1,168,2|0,0:0|0:0,0:0:0:0:
248,247,43351,2,0,P|208:269|166:280,1,77.0000023498536
144,167,43702,2,0,P|103:145|71:117,1,77.0000023498536
318,95,44052,5,2,0:0:0:0:
371,197,44228,1,0,0:0:0:0:
260,195,44403,1,0,0:0:0:0:
318,95,44579,6,0,P|374:72|417:73,2,77.0000023498536,2|0|0,0:0|0:0|0:0,0:0:0:0:
260,195,45105,2,0,P|234:156|225:97,2,77.0000023498536,2|0|0,0:0|0:0|0:0,0:0:0:0:
309,281,45631,5,2,0:0:0:0:
219,207,45807,1,0,0:0:0:0:
202,321,45982,1,0,0:0:0:0:
309,281,46158,6,0,P|358:232|377:201,1,77.0000023498536,2|0,0:0|0:0,0:0:0:0:
346,84,46508,2,0,P|308:113|282:150,1,77.0000023498536,2|0,0:0|0:0,0:0:0:0:
307,277,46859,6,0,P|377:207|400:148,1,154.000004699707
337,57,47386,1,0,0:0:0:0:
337,57,47561,2,0,P|327:95|359:154,1,77.0000023498536
392,230,47912,1,0,0:0:0:0:
392,230,48087,2,0,P|318:315|207:281,1,231.000007049561
175,179,48789,2,0,P|180:134|209:96,2,77.0000023498536
379,335,49491,5,0,0:0:0:0:
305,214,49666,2,0,L|299:301,1,77.0000023498536,4|0,0:0|0:0,0:0:0:0:
295,346,50017,1,0,0:0:0:0:
218,151,50192,2,0,L|206:320,1,154.000004699707,4|0,0:0|0:0,0:0:0:0:
419,314,50719,2,0,L|412:224,1,77.0000023498536
446,72,51070,6,0,P|366:71|316:138,1,154.000004699707,4|0,0:0|0:0,0:0:0:0:
280,272,51596,2,0,P|279:186|272:104,1,157.500006008148
106,68,52473,5,2,0:0:0:0:
97,213,52649,1,0,0:0:0:0:
343,332,53000,5,0,0:0:0:0:
355,183,53175,2,0,P|343:112|299:56,1,115.50000352478,2|0,0:0|0:0,0:0:0:0:
299,39,53526,6,0,L|195:47,1,77.0000023498536
97,115,53877,6,0,L|81:165,2,38.5000011749268,2|0|0,0:0|0:0|0:0,0:0:0:0:
252,135,54228,1,0,0:0:0:0:
286,267,54403,2,0,L|319:308,2,38.5000011749268,2|0|0,0:0|0:0|0:0,0:0:0:0:
252,135,54754,1,0,0:0:0:0:
103,171,54929,5,4,0:0:0:0:
104,205,55017,1,4,0:0:0:0:
109,239,55105,1,4,0:0:0:0:
118,272,55193,1,4,0:0:0:0:
134,302,55280,2,0,P|196:339|283:326,1,154.000004699707,4|0,0:0|0:0,0:0:0:0:
366,258,55807,1,0,0:0:0:0:
231,101,56158,1,0,0:0:0:0:
448,55,56508,2,0,P|485:158|470:217,1,154.000004699707
389,329,57035,6,0,P|337:294|317:260,1,77.0000023498536
210,299,57386,2,0,P|215:236|235:202,1,77.0000023498536
124,140,57736,2,0,P|169:97|207:85,1,77.0000023498536
373,47,58087,6,0,P|405:131|405:219,1,154.000004699707
346,293,58614,1,0,0:0:0:0:
361,95,58965,1,0,0:0:0:0:
161,72,59315,2,0,P|128:141|127:231,1,154.000004699707
190,333,59842,6,0,P|242:298|262:264,1,77.0000023498536
369,303,60193,2,0,P|363:240|343:206,1,77.0000023498536
455,144,60543,2,0,P|409:101|371:89,1,77.0000023498536
286,60,60894,5,8,0:0:0:0:
108,114,61245,1,8,0:0:0:0:
113,342,61596,5,8,0:0:0:0:
291,288,61947,1,8,0:0:0:0:
291,95,62298,5,0,0:0:0:0:
291,95,62473,2,0,B|206:57|206:57|146:114,1,154.000004699707
94,320,63000,1,4,0:0:0:0:
94,320,63351,1,4,0:0:0:0:
353,296,63701,6,0,L|357:137,1,154.000004699707
197,50,64403,1,0,0:0:0:0:
134,141,64579,2,0,P|139:234|178:286,1,154.000004699707
265,340,65105,5,2,0:0:0:0:
315,203,65280,2,4,L|330:160,2,38.5000011749268
265,340,65631,1,2,0:0:0:0:
149,149,65982,1,0,0:0:0:0:
247,58,66158,5,4,0:0:0:0:
284,64,66245,1,4,0:0:0:0:
318,81,66333,1,4,0:0:0:0:
347,106,66421,1,4,0:0:0:0:
370,135,66508,2,0,P|391:166|402:232,1,77.0000023498536,4|0,0:0|0:0,0:0:0:0:
399,296,66859,1,4,0:0:0:0:
259,336,67035,6,0,P|182:312|137:245,1,154.000004699707,4|0,0:0|0:0,0:0:0:0:
179,68,67736,2,0,B|264:50|264:50|321:99,1,154.000004699707
353,205,68263,2,0,L|366:251,2,38.5000011749268,2|0|0,0:0|0:0|0:0,0:0:0:0:
316,92,68614,2,0,P|271:80|208:80,1,77.0000023498536
121,85,68965,2,0,L|125:177,1,77.0000023498536
129,320,69315,6,0,B|237:336|237:336|300:289,1,154.000004699707,4|0,0:0|0:0,0:0:0:0:
363,235,69842,1,0,0:0:0:0:
262,79,70193,1,0,0:0:0:0:
109,186,70543,2,0,B|181:315|181:315|270:302,1,231.000007049561
389,283,71245,2,0,P|437:233|374:257,1,167.999994873047
287,312,71772,2,0,P|285:251|295:221,1,70
339,104,72122,6,0,P|295:78|254:68,1,70
116,111,72473,1,0,0:0:0:0:
116,111,72649,2,0,P|116:210|135:262,1,140
259,336,73175,1,0,0:0:0:0:
259,336,73351,2,0,B|319:335|319:335|380:249,1,140
193,73,74052,6,0,L|198:28,2,35,2|0|0,0:0|0:0|0:0,0:0:0:0:
256,256,74403,1,4,0:0:0:0:
256,256,74491,1,4,0:0:0:0:
256,256,74579,2,4,L|262:303,3,35
250,165,74929,6,0,P|258:125|289:85,1,70
379,57,75280,1,0,0:0:0:0:
449,160,75456,1,0,0:0:0:0:
335,147,75631,2,0,P|295:140|247:147,1,70,4|0,0:0|0:0,0:0:0:0:
109,163,75982,6,0,P|133:262|179:298,1,140,4|0,0:0|0:0,0:0:0:0:
407,295,76684,6,0,L|412:140,1,140
213,98,77386,6,0,P|206:154|207:188,1,70
189,288,77736,6,0,P|107:239|85:178,1,140
165,36,78262,1,0,0:0:0:0:
165,36,78438,2,0,L|161:184,1,140
205,272,78964,2,0,L|201:124,1,140
249,36,79491,2,0,L|245:183,1,140
301,264,80017,2,0,P|221:280|137:268,1,140
97,171,80543,5,0,0:0:0:0:
204,94,80719,2,0,P|239:84|281:86,2,70,2|0|0,0:0|0:0|0:0,0:0:0:0:
151,166,81245,2,0,P|128:137|113:98,2,70,2|0|0,0:0|0:0|0:0,0:0:0:0:
234,186,81772,2,0,P|216:217|185:246,2,70,2|0|0,0:0|0:0|0:0,0:0:0:0:
274,80,82298,6,0,P|311:78|365:93,1,70,2|0,0:0|0:0,0:0:0:0:
456,193,82649,1,0,0:0:0:0:
456,193,82824,2,0,P|446:240|427:276,1,70,2|0,0:0|0:0,0:0:0:0:
305,325,83175,1,0,0:0:0:0:
305,325,83350,2,0,P|266:295|242:262,1,70,2|0,0:0|0:0,0:0:0:0:
274,110,83701,1,0,0:0:0:0:
274,110,83877,2,0,L|270:196,1,70,2|0,0:0|0:0,0:0:0:0:
240,306,84228,1,0,0:0:0:0:
240,306,84404,2,0,L|236:220,1,70,2|0,0:0|0:0,0:0:0:0:
251,83,84754,5,0,0:0:0:0:
251,83,84929,2,0,P|325:72|396:96,1,134.750004112244
417,127,85631,2,0,L|430:178,2,35
256,192,86158,12,0,89929,0:0:0:0:
