osu file format v14

[General]
AudioFilename: audio.mp3
AudioLeadIn: 0
PreviewTime: 1019
Countdown: 0
SampleSet: None
StackLeniency: 0.4
Mode: 0
LetterboxInBreaks: 0
WidescreenStoryboard: 1

[Editor]
Bookmarks: 6630,32999,63599,67599,90589,109789,116189,164189,197789
DistanceSpacing: 2
BeatDivisor: 4
GridSize: 4
TimelineZoom: 1.3

[Metadata]
Title:Chinjufu no asa
TitleUnicode:鎮守府の朝
Artist:Suzaki Aya
ArtistUnicode:洲崎綾
Creator:MyAngelJackWang
Version:Insane
Source:
Tags:kancolle, kantai collection
BeatmapID:1759312
BeatmapSetID:752543

[Difficulty]
HPDrainRate:6
CircleSize:4
OverallDifficulty:8.2
ApproachRate:9.2
SliderMultiplier:1.8
SliderTickRate:1

[Events]
//Background and Video events
0,0,"4驱.jpg",0,0
//Break Periods
//Storyboard Layer 0 (Background)
//Storyboard Layer 1 (Fail)
//Storyboard Layer 2 (Pass)
//Storyboard Layer 3 (Foreground)
//Storyboard Sound Samples

[TimingPoints]
1030,400,4,1,0,60,1,0
3630,-100,4,3,0,35,0,0
3830,-100,4,3,0,40,0,0
4041,-100,4,3,0,60,0,0
7430,-100,4,2,0,50,0,0
19630,-200,4,2,0,50,0,0
20230,-100,4,2,0,5,0,0
20430,-100,4,2,0,40,0,0
33019,-153.846153846154,4,1,0,100,0,0
42599,-83.3333333333333,4,1,0,100,0,0
55399,-76.9230769230769,4,1,0,100,0,1
64999,-62.5,4,1,0,100,0,1
65599,-58.8235294117647,4,1,0,100,0,1
66399,-52.6315789473684,4,1,0,100,0,1
67199,-45.4545454545455,4,1,0,100,0,1
68199,-76.9230769230769,4,1,0,100,0,1
74599,-153.846153846154,4,1,0,100,0,0
80799,-100,4,1,0,100,0,0
85799,-76.9230769230769,4,1,0,100,0,1
90599,-76.9230769230769,4,1,0,100,0,0
97019,-83.3333333333333,4,1,0,100,0,0
100219,-200,4,1,0,100,0,0
103419,-76.9230769230769,4,1,0,100,0,0
164219,-100,4,1,0,100,0,1
183419,-100,4,1,0,100,0,0
197819,-100,4,1,0,100,0,1
217019,-100,4,1,0,100,0,0
228219,-100,4,1,0,100,0,1
233019,-100,4,1,0,100,0,0

[HitObjects]
65,114,1030,6,0,L|73:271,1,135
75,310,1430,1,0,0:0:0:0:
176,176,1630,1,0,0:0:0:0:
269,306,2030,1,0,0:0:0:0:
375,320,2430,6,0,P|353:232|261:199,1,180,0|0,0:0|3:0,0:0:0:0:
149,122,3030,1,0,0:0:0:0:
275,92,3230,1,0,0:0:0:0:
170,220,3430,1,0,0:0:0:0:
80,263,3630,5,10,3:0:0:0:
108,301,3730,1,10,3:0:0:0:
155,316,3830,1,10,3:0:0:0:
203,297,3930,1,10,3:0:0:0:
255,283,4030,1,10,3:0:0:0:
309,287,4130,1,10,3:0:0:0:
364,307,4230,2,0,L|413:179,1,135
424,137,4630,1,0,0:0:0:0:
360,50,4830,6,0,P|331:17|270:13,1,90
158,119,5230,2,0,P|186:151|247:155,1,90
258,82,5630,1,0,0:0:0:0:
162,235,6030,1,0,0:0:0:0:
269,69,6230,1,0,0:0:0:0:
312,280,6430,1,0,0:0:0:0:
227,200,6996,5,0,0:0:0:0:
162,327,7430,5,0,0:0:0:0:
87,256,7630,1,0,0:0:0:0:
186,212,7830,1,0,0:0:0:0:
191,115,8030,2,0,P|252:141|264:177,1,90
272,246,8430,2,0,P|332:294|353:290,1,90
358,197,8830,1,0,0:0:0:0:
428,124,9030,2,0,L|249:49,1,180
306,162,9630,2,0,P|221:122|132:172,1,180
224,226,10230,1,0,0:0:0:0:
97,258,10430,1,0,0:0:0:0:
98,75,10630,6,0,P|65:105|55:168,2,90
183,92,11230,2,0,B|235:161|295:69|366:143,1,180
438,168,11830,2,0,L|388:261,1,90
266,312,12230,6,0,P|320:349|363:352,2,90
232,235,12830,2,0,P|158:192|170:86,1,180
156,105,13330,1,0,0:0:0:0:
156,105,13430,1,0,0:0:0:0:
233,146,13830,5,0,0:0:0:0:
160,296,14230,1,0,0:0:0:0:
233,146,14630,1,0,0:0:0:0:
290,219,14830,1,0,0:0:0:0:
384,220,15030,1,0,0:0:0:0:
453,141,15230,2,0,P|373:113|293:172,1,180
383,217,15830,2,0,L|365:95,1,90
361,71,16430,1,0,0:0:0:0:
278,29,16630,1,0,0:0:0:0:
207,88,16830,1,0,0:0:0:0:
294,233,17030,5,0,0:0:0:0:
405,73,17430,1,0,0:0:0:0:
401,177,17830,2,0,P|429:229|430:265,2,90
323,205,18430,2,0,P|289:285|167:280,1,180
236,219,19030,1,0,0:0:0:0:
182,120,19230,1,0,0:0:0:0:
286,68,19630,1,0,0:0:0:0:
333,74,19830,2,0,P|386:91|408:124,1,90
330,156,20430,6,0,L|282:232,1,90
232,296,20830,1,0,0:0:0:0:
133,207,21230,1,0,0:0:0:0:
133,207,21430,1,0,0:0:0:0:
118,119,21630,2,0,L|205:60,1,90
334,68,22030,2,0,L|260:119,1,90
177,71,22430,2,0,P|167:153|261:215,1,180
359,259,23030,1,0,0:0:0:0:
359,259,23230,1,0,0:0:0:0:
404,132,23430,6,0,L|432:221,1,90
331,52,23830,2,0,L|244:105,1,90
136,157,24430,1,0,0:0:0:0:
121,217,24630,2,0,P|46:248|22:245,1,90
235,148,25030,2,0,P|234:213|217:247,1,90
321,64,25430,1,0,0:0:0:0:
321,64,25630,1,0,0:0:0:0:
443,87,26030,2,0,L|438:131,1,45
426,169,26230,1,0,0:0:0:0:
410,204,26330,1,0,0:0:0:0:
388,236,26430,1,0,0:0:0:0:
357,259,26530,1,0,0:0:0:0:
290,250,26630,5,0,0:0:0:0:
160,107,27030,1,0,0:0:0:0:
121,264,27430,1,0,0:0:0:0:
303,110,27630,1,4,3:0:0:0:
285,275,27830,1,4,3:0:0:0:
75,118,28030,2,0,P|112:36|207:35,1,180,12|0,3:0|0:0,0:0:0:0:
