osu file format v14

[General]
AudioFilename: audio.mp3
AudioLeadIn: 0
PreviewTime: -1
Countdown: 1
SampleSet: Normal
StackLeniency: 0.7
Mode: 0
LetterboxInBreaks: 0
WidescreenStoryboard: 0

[Editor]
DistanceSpacing: 1.3
BeatDivisor: 4
GridSize: 32
TimelineZoom: 2.3

[Metadata]
Title:Rin Koi no Uta
TitleUnicode:こいのうた
Artist:Suzaki Aya (CV:Rin)
ArtistUnicode:Suzaki Aya (CV:Rin)
Creator:Mokuteki
Version:w
Source:Tamako Love Story
Tags:たまこラブストーリー 洲崎 綾 こいのうた
BeatmapID:1258817
BeatmapSetID:595262

[Difficulty]
HPDrainRate:7
CircleSize:4
OverallDifficulty:8.2
ApproachRate:9.2
SliderMultiplier:1.8
SliderTickRate:1

[Events]
//Background and Video events
0,0,"46464939_p0.jpg",0,0
//Break Periods
2,24713,32838
//Storyboard Layer 0 (Background)
//Storyboard Layer 1 (Fail)
//Storyboard Layer 2 (Pass)
//Storyboard Layer 3 (Foreground)
//Storyboard Sound Samples

[TimingPoints]
9339,348.837209302326,4,1,0,50,1,0
37227,348.837209302326,4,1,0,50,1,0
59889,348.837209302326,4,1,0,50,1,0
81845,348.837209302326,4,1,0,50,1,0
104151,348.837209302326,4,1,0,50,1,0
120874,348.837209302326,4,1,0,50,1,0
148760,348.837209302326,4,1,0,50,1,0
164440,348.837209302326,4,1,0,50,1,0

[HitObjects]
96,64,9338,5,0,0:0:0:0:
160,128,9513,1,0,0:0:0:0:
193,119,9600,1,0,0:0:0:0:
228,120,9687,1,0,0:0:0:0:
259,135,9775,1,0,0:0:0:0:
277,165,9862,1,0,0:0:0:0:
274,199,9949,1,0,0:0:0:0:
250,223,10036,1,0,0:0:0:0:
236,206,10123,1,0,0:0:0:0:
265,188,10211,1,0,0:0:0:0:
300,183,10298,1,0,0:0:0:0:
334,190,10385,1,0,0:0:0:0:
361,211,10472,1,0,0:0:0:0:
368,245,10559,1,0,0:0:0:0:
354,276,10647,1,0,0:0:0:0:
326,297,10734,5,0,0:0:0:0:
293,307,10821,1,0,0:0:0:0:
258,309,10908,1,0,0:0:0:0:
223,305,10995,1,0,0:0:0:0:
189,295,11083,1,0,0:0:0:0:
158,279,11170,1,0,0:0:0:0:
130,258,11257,1,0,0:0:0:0:
96,160,11432,1,0,0:0:0:0:
384,32,11606,1,0,0:0:0:0:
64,192,11955,5,0,0:0:0:0:
224,64,12129,1,0,0:0:0:0:
256,256,12304,1,0,0:0:0:0:
224,160,12478,1,0,0:0:0:0:
416,160,12652,1,0,0:0:0:0:
352,256,12827,1,0,0:0:0:0:
224,64,13001,1,0,0:0:0:0:
192,192,13176,1,0,0:0:0:0:
320,96,13350,1,0,0:0:0:0:
128,32,13525,5,0,0:0:0:0:
96,128,13699,1,0,0:0:0:0:
256,64,13873,1,0,0:0:0:0:
192,224,14048,1,0,0:0:0:0:
352,160,14222,1,0,0:0:0:0:
288,224,14397,1,0,0:0:0:0:
448,256,14571,2,0,L|384:320,1,90
288,256,14920,5,0,0:0:0:0:
320,160,15094,1,0,0:0:0:0:
160,223,15268,1,0,0:0:0:0:
223,63,15443,1,0,0:0:0:0:
64,127,15617,1,0,0:0:0:0:
128,63,15792,1,0,0:0:0:0:
224,192,15966,1,0,0:0:0:0:
320,64,16141,1,0,0:0:0:0:
352,224,16315,5,0,0:0:0:0:
288,128,16490,1,0,0:0:0:0:
128,160,16664,1,0,0:0:0:0:
192,256,16839,1,0,0:0:0:0:
192,224,17013,1,0,0:0:0:0:
224,352,17187,1,0,0:0:0:0:
352,256,17362,2,0,L|312:340,1,90
160,188,17711,5,0,0:0:0:0:
228,62,17885,1,0,0:0:0:0:
319,194,18060,1,0,0:0:0:0:
225,158,18234,1,0,0:0:0:0:
218,350,18408,1,0,0:0:0:0:
319,194,18583,1,0,0:0:0:0:
161,156,18757,1,0,0:0:0:0:
258,128,18932,1,0,0:0:0:0:
157,252,19106,1,0,0:0:0:0:
352,128,19280,1,0,0:0:0:0:
288,224,19455,1,0,0:0:0:0:
224,64,19629,1,0,0:0:0:0:
370,8,19804,1,0,0:0:0:0:
272,152,19978,1,0,0:0:0:0:
418,93,20152,1,0,0:0:0:0:
395,185,20327,1,0,0:0:0:0:
224,192,20501,2,0,L|192:160,1,45
160,128,20676,1,0,0:0:0:0:
320,64,20850,1,0,0:0:0:0:
288,256,21025,2,0,L|256:288,1,45
224,320,21200,1,0,0:0:0:0:
448,256,21374,1,0,0:0:0:0:
256,192,21548,2,0,L|192:192,1,45
160,192,21722,1,0,0:0:0:0:
96,64,21897,6,0,L|128:128,1,45
128,128,22071,1,0,0:0:0:0:
64,224,22245,2,0,L|160:288,1,90
256,192,22594,1,0,0:0:0:0:
384,96,22769,1,0,0:0:0:0:
352,224,22943,1,0,0:0:0:0:
224,96,23118,1,0,0:0:0:0:
448,160,23292,1,0,0:0:0:0:
320,320,23466,1,0,0:0:0:0:
128,192,23641,1,0,0:0:0:0:
320,128,23815,1,0,0:0:0:0:
288,320,23990,1,0,0:0:0:0:
64,224,24164,1,0,0:0:0:0:
256,160,24338,1,0,0:0:0:0:
224,352,24513,1,0,0:0:0:0:
288,256,33408,6,0,L|192:288,1,90
160,192,33757,1,0,0:0:0:0:
128,160,33844,1,0,0:0:0:0:
128,128,33932,1,0,0:0:0:0:
160,96,34019,1,0,0:0:0:0:
192,96,34106,1,0,0:0:0:0:
384,256,34455,2,0,L|338:233,1,45
256,288,34629,1,0,0:0:0:0:
288,320,34716,1,0,0:0:0:0:
320,320,34804,1,0,0:0:0:0:
192,160,34978,1,0,0:0:0:0:
146,297,35152,1,0,0:0:0:0:
185,321,35240,1,0,0:0:0:0:
230,326,35327,1,0,0:0:0:0:
288,160,35501,1,0,0:0:0:0:
146,297,35675,1,0,0:0:0:0:
185,321,35763,1,0,0:0:0:0:
230,326,35850,1,0,0:0:0:0:
224,160,36025,1,0,0:0:0:0:
146,297,36199,1,0,0:0:0:0:
185,321,36287,1,0,0:0:0:0:
230,326,36374,1,0,0:0:0:0:
