osu file format v14

[General]
AudioFilename: audio.mp3
AudioLeadIn: 0
PreviewTime: 59764
Countdown: 0
SampleSet: Soft
StackLeniency: 0.7
Mode: 3
LetterboxInBreaks: 0
SpecialStyle: 0
WidescreenStoryboard: 1

[Editor]
Bookmarks: 32761,33096,34101,44995,50358,54381,58236,61085,70303,71811,77174,82537,93263,103990,114716,125442,130805,140526,146895,152090,152761,153431,164325,169520,175051,185610,191141,196336,198850,204548,209912,215275,220638,226001,236727,241755,244101
DistanceSpacing: 1
BeatDivisor: 4
GridSize: 4
TimelineZoom: 1.8

[Metadata]
Title:Palette Dance
TitleUnicode:パレットダンス
Artist:Sutopuri
ArtistUnicode:すとぷり
Creator:Noch Einen
Version:4K Hard
Source:
Tags:sutoroberi sutato すとろべりーすたーと ぷりんす strawberry start prince StPri STPR pop japanese j-pop famoss ころん さとみ ななもり るぅと ジェル 莉犬 Colon Satomi Nanamori Root Gel Riinu idol utaite
BeatmapID:2448401
BeatmapSetID:1171748

[Difficulty]
HPDrainRate:8
CircleSize:4
OverallDifficulty:8
ApproachRate:5
SliderMultiplier:1.4
SliderTickRate:1

[Events]
//Background and Video events
0,0,"palleto.jpg",0,0
//Break Periods
//Storyboard Layer 0 (Background)
//Storyboard Layer 1 (Fail)
//Storyboard Layer 2 (Pass)
//Storyboard Layer 3 (Foreground)
//Storyboard Layer 4 (Overlay)
//Storyboard Sound Samples
Sample,39317,0,"LR_Tom Normal.wav",70
Sample,109038,0,"LR_Tom Normal.wav",70
Sample,195015,0,"tom03.wav",70
Sample,205742,0,"LR_Tom Normal.wav",70
Sample,219652,0,"LR_Tom Normal.wav",70

[TimingPoints]
770,335.195530726257,4,2,1,40,1,0
61105,-100,4,2,1,50,0,1
71496,-100,4,2,1,40,0,0
71831,-100,4,2,1,50,0,1
82557,-100,4,2,1,40,0,0
130825,-100,4,2,1,50,0,1
141216,-100,4,2,1,40,0,0
141552,-100,4,2,1,50,0,1
152110,-100,4,2,1,40,0,0
209932,-100,4,2,1,50,0,1
236747,-100,4,2,1,30,0,0

[HitObjects]
64,192,770,128,0,1105:0:0:0:0:
448,192,1105,128,0,1440:0:0:0:0:
320,192,1440,128,0,1775:0:0:0:0:
192,192,1775,128,0,2110:0:0:0:0:
64,192,2110,128,4,2781:0:0:0:0:
448,192,2110,1,0,0:0:0:0:
320,192,2781,128,0,3116:0:0:0:0:
192,192,3116,128,0,3451:0:0:0:0:
64,192,3451,1,0,0:0:0:0:
448,192,3451,128,0,3786:0:0:0:0:
64,192,4121,128,0,4289:0:0:0:0:
64,192,4457,128,0,4792:0:0:0:0:
192,192,4792,128,0,5295:0:0:0:0:
448,192,4792,1,0,0:0:0:0:
448,192,5295,128,0,5462:0:0:0:0:
64,192,5462,1,0,0:0:0:0:
320,192,5462,128,0,5797:0:0:0:0:
192,192,5797,128,0,5965:0:0:0:0:
64,192,5965,128,4,6468:0:0:0:0:
448,192,5965,1,0,0:0:0:0:
448,192,6300,1,0,0:0:0:70:tom01.wav
192,192,6468,1,0,0:0:0:70:tom02.wav
320,192,6635,1,0,0:0:0:70:tom03.wav
64,192,6803,128,0,6971:0:0:0:70:tom04.wav
192,192,6971,128,2,7138:0:0:0:0:
320,192,7138,128,2,7473:0:0:0:0:
448,192,7138,1,0,0:0:0:0:
64,192,7473,1,2,0:0:0:0:
192,192,7473,1,4,0:0:0:0:
448,192,7473,128,0,7641:0:0:0:0:
64,192,7641,1,0,0:0:0:0:
320,192,7809,1,2,0:0:0:0:
192,192,7976,1,0,0:0:0:0:
64,192,8144,128,2,8311:0:0:0:0:
448,192,8311,128,0,8479:0:0:0:0:
320,192,8479,1,2,0:0:0:0:
64,192,8647,128,0,8814:0:0:0:0:
192,192,8730,1,0,0:0:0:0:
320,192,8814,1,2,0:0:0:0:
448,192,8814,1,0,0:0:0:0:
448,192,8982,1,0,0:0:0:0:
192,192,9149,1,2,0:0:0:0:
320,192,9317,128,0,9485:0:0:0:0:
64,192,9485,128,8,9652:0:0:0:0:
192,192,9652,1,0,0:0:0:0:
320,192,9820,128,8,9987:0:0:0:0:
64,192,9987,1,4,0:0:0:0:
192,192,9987,1,2,0:0:0:0:
448,192,9987,128,0,10490:0:0:0:0:
192,192,10323,1,8,0:0:0:0:
320,192,10406,1,8,0:0:0:0:
64,192,10490,1,2,0:0:0:0:
192,192,10574,1,0,0:0:0:0:
448,192,10658,1,2,0:0:0:0:
320,192,10742,1,0,0:0:0:0:
64,192,10825,1,2,0:0:0:0:
192,192,10825,1,0,0:0:0:0:
320,192,11077,1,2,0:0:0:0:
448,192,11077,1,0,0:0:0:0:
64,192,11328,1,2,0:0:0:0:
192,192,11328,1,0,0:0:0:0:
64,192,11496,1,2,0:0:0:0:
320,192,11496,1,4,0:0:0:0:
448,192,11496,128,0,11831:0:0:0:0:
64,192,11831,128,0,12166:0:0:0:0:
192,192,12166,128,0,12334:0:0:0:0:
448,192,12334,1,2,0:0:0:0:
64,192,12418,1,2,0:0:0:0:
320,192,12501,128,2,12669:0:0:0:0:
448,192,12669,128,0,14177:0:0:0:0:
64,192,12837,1,2,0:0:0:0:
192,192,12837,1,4,0:0:0:0:
320,192,13172,1,8,0:0:0:0:
64,192,13339,1,0,0:0:0:0:
192,192,13507,1,2,0:0:0:0:
64,192,13675,1,0,0:0:0:0:
320,192,13842,1,8,0:0:0:0:
192,192,14010,1,0,0:0:0:0:
64,192,14177,1,2,0:0:0:0:
320,192,14177,1,0,0:0:0:0:
448,192,14345,1,0,0:0:0:0:
64,192,14513,1,8,0:0:0:0:
192,192,14513,1,0,0:0:0:0:
448,192,14624,1,0,0:0:0:0:
192,192,14736,1,0,0:0:0:0:
320,192,14848,1,2,0:0:0:0:
64,192,15015,1,0,0:0:0:0:
320,192,15183,1,8,0:0:0:0:
448,192,15183,1,0,0:0:0:0:
192,192,15351,1,0,0:0:0:0:
320,192,15434,1,0,0:0:0:0:
64,192,15518,1,2,0:0:0:0:
448,192,15518,1,0,0:0:0:0:
192,192,15686,1,0,0:0:0:0:
320,192,15853,1,8,0:0:0:0:
448,192,15853,1,0,0:0:0:0:
192,192,16021,1,0,0:0:0:0:
64,192,16188,1,2,0:0:0:0:
320,192,16188,1,0,0:0:0:0:
448,192,16356,1,0,0:0:0:0:
64,192,16524,1,8,0:0:0:0:
192,192,16524,1,0,0:0:0:0:
64,192,16691,1,0,0:0:0:0:
192,192,16859,1,2,0:0:0:0:
320,192,16859,1,4,0:0:0:0:
448,192,16859,1,0,0:0:0:0:
64,192,17026,1,0,0:0:0:0:
320,192,17194,1,8,0:0:0:0:
448,192,17194,1,0,0:0:0:0:
192,192,17362,1,0,0:0:0:0:
64,192,17529,1,2,0:0:0:0:
320,192,17529,1,0,0:0:0:0:
448,192,17697,1,8,0:0:0:0:
64,192,17781,1,8,0:0:0:0:
192,192,17864,1,2,0:0:0:0:
320,192,18032,1,0,0:0:0:70:tom02.wav
192,192,18116,1,0,0:0:0:70:tom03.wav
64,192,18200,1,4,0:0:0:0:
448,192,18200,1,2,0:0:0:0:
192,192,18367,1,0,0:0:0:0:
320,192,18535,1,8,0:0:0:0:
448,192,18535,1,0,0:0:0:0:
64,192,18702,1,0,0:0:0:0:
192,192,18870,1,2,0:0:0:0:
448,192,19038,1,0,0:0:0:0:
64,192,19205,1,8,0:0:0:0:
192,192,19205,1,0,0:0:0:0:
320,192,19373,1,0,0:0:0:0:
192,192,19540,1,2,0:0:0:0:
448,192,19540,1,0,0:0:0:0:
64,192,19708,1,0,0:0:0:0:
320,192,19876,1,8,0:0:0:0:
448,192,19876,1,0,0:0:0:0:
64,192,19987,1,0,0:0:0:0:
320,192,20099,1,0,0:0:0:0:
192,192,20211,1,2,0:0:0:0:
448,192,20378,1,0,0:0:0:0:
64,192,20546,1,8,0:0:0:0:
320,192,20546,1,0,0:0:0:0:
192,192,20714,1,0,0:0:0:70:tom03.wav
448,192,20797,1,0,0:0:0:70:tom03.wav
64,192,20881,1,2,0:0:0:0:
320,192,20881,1,4,0:0:0:0:
448,192,21049,1,0,0:0:0:0:
64,192,21216,1,8,0:0:0:0:
192,192,21216,1,0,0:0:0:0:
320,192,21384,1,0,0:0:0:0:
192,192,21552,1,2,0:0:0:0:
448,192,21552,1,0,0:0:0:0:
320,192,21719,1,0,0:0:0:0:
64,192,21887,1,8,0:0:0:0:
448,192,21887,1,0,0:0:0:0:
192,192,22054,1,0,0:0:0:0:
64,192,22222,1,4,0:0:0:0:
320,192,22222,1,2,0:0:0:0:
448,192,22222,1,0,0:0:0:0:
192,192,22390,1,8,0:0:0:0:
320,192,22473,1,8,0:0:0:0:
64,192,22557,1,2,0:0:0:0:
448,192,22725,1,8,0:0:0:0:
320,192,22892,1,0,0:0:0:70:tom02.wav
192,192,23060,1,8,0:0:0:0:
448,192,23228,1,0,0:0:0:70:tom03.wav
64,192,23311,1,2,0:0:0:0:
192,192,23395,1,0,0:0:0:70:tom04.wav
320,192,23479,1,0,0:0:0:70:tom04.wav
64,192,23563,1,2,0:0:0:0:
448,192,23563,1,4,0:0:0:0:
192,192,23730,128,0,23898:0:0:0:0:
64,192,23898,128,8,24066:0:0:0:0:
448,192,23898,1,0,0:0:0:0:
320,192,24066,1,0,0:0:0:0:
192,192,24233,128,0,24401:0:0:0:0:
448,192,24401,128,2,24568:0:0:0:0:
64,192,24568,1,8,0:0:0:0:
320,192,24568,128,0,24736:0:0:0:0:
192,192,24736,1,0,0:0:0:0:
64,192,24904,128,2,25239:0:0:0:0:
320,192,24904,1,0,0:0:0:0:
320,192,25239,128,8,25406:0:0:0:0:
448,192,25239,1,0,0:0:0:0:
192,192,25406,128,2,25742:0:0:0:0:
64,192,25742,1,2,0:0:0:0:
192,192,25909,1,8,0:0:0:0:
320,192,25909,128,0,26077:0:0:0:0:
64,192,26077,1,2,0:0:0:0:
448,192,26077,128,0,26412:0:0:0:0:
64,192,26580,1,8,0:0:0:0:
192,192,26580,128,0,26747:0:0:0:0:
320,192,26747,128,2,27082:0:0:0:0:
448,192,26747,1,0,0:0:0:0:
64,192,27082,128,2,27250:0:0:0:0:
320,192,27250,1,8,0:0:0:0:
448,192,27250,1,0,0:0:0:0:
64,192,27418,1,2,0:0:0:0:
192,192,27418,128,0,28423:0:0:0:0:
64,192,27920,1,8,0:0:0:0:
320,192,28088,1,2,0:0:0:0:
448,192,28088,1,0,0:0:0:0:
64,192,28423,1,2,0:0:0:0:
192,192,28591,1,8,0:0:0:0:
448,192,28591,128,0,28926:0:0:0:70:LR_Tom Normal.wav
64,192,28926,1,2,0:0:0:0:
320,192,28926,1,0,0:0:0:0:
192,192,29094,128,0,29261:0:0:0:0:
64,192,29261,1,8,0:0:0:0:
448,192,29261,1,0,0:0:0:0:
64,192,29429,1,0,0:0:0:0:
320,192,29596,1,0,0:0:0:0:
192,192,29764,1,2,0:0:0:0:
448,192,29932,1,0,0:0:0:0:
64,192,29932,1,8,0:0:0:0:
320,192,30099,1,0,0:0:0:0:
192,192,30267,128,2,30602:0:0:0:0:
448,192,30267,1,0,0:0:0:0:
320,192,30602,128,8,30770:0:0:0:0:
448,192,30602,1,0,0:0:0:0:
64,192,30770,128,2,31105:0:0:0:0:
192,192,30770,1,0,0:0:0:0:
320,192,31105,1,2,0:0:0:0:
64,192,31272,128,8,31440:0:0:0:0:
448,192,31272,1,0,0:0:0:0:
192,192,31440,128,2,31775:0:0:0:0:
320,192,31440,1,0,0:0:0:0:
64,192,31775,1,2,0:0:0:0:
192,192,31943,128,8,32110:0:0:0:0:
448,192,31943,1,0,0:0:0:0:
64,192,32110,1,2,0:0:0:0:
320,192,32110,128,0,32445:0:0:0:0:
192,192,32445,1,8,0:0:0:0:
448,192,32445,1,0,0:0:0:70:LR_Tom Normal.wav
64,192,32613,1,8,0:0:0:0:
320,192,32613,1,0,0:0:0:70:LR_Tom Normal.wav
192,192,32781,1,2,0:0:0:0:
448,192,32781,128,0,32948:0:0:0:0:
64,192,33116,128,0,33283:0:0:0:0:
192,192,33283,1,0,0:0:0:0:
448,192,33367,128,0,33535:0:0:0:0:
64,192,33535,1,2,0:0:0:0:
192,192,33619,1,8,0:0:0:0:
320,192,33702,1,8,0:0:0:0:
64,192,33786,1,2,0:0:0:0:
448,192,33786,1,0,0:0:0:0:
192,192,33954,1,8,0:0:0:0:
64,192,34121,1,2,0:0:0:0:
320,192,34121,1,4,0:0:0:0:
448,192,34121,1,0,0:0:0:0:
192,192,34457,128,0,34624:0:0:0:0:
64,192,34624,1,8,0:0:0:0:
448,192,34624,128,0,34792:0:0:0:0:
192,192,34792,1,0,0:0:0:0:
320,192,34959,128,2,35127:0:0:0:0:
448,192,35127,128,0,35295:0:0:0:0:
192,192,35295,1,0,0:0:0:0:
64,192,35295,1,8,0:0:0:0:
448,192,35462,128,0,35630:0:0:0:0:
64,192,35630,1,2,0:0:0:0:
320,192,35630,128,0,35797:0:0:0:0:
192,192,35797,1,0,0:0:0:0:
64,192,35965,128,8,36133:0:0:0:0:
320,192,35965,1,0,0:0:0:0:
448,192,36133,128,0,36300:0:0:0:0:
192,192,36300,1,2,0:0:0:0:
192,192,36468,1,0,0:0:0:0:
64,192,36635,128,8,36803:0:0:0:0:
448,192,36635,1,0,0:0:0:0:
192,192,36803,128,0,37138:0:0:0:0:
448,192,36971,1,2,0:0:0:0:
64,192,37138,1,0,0:0:0:0:
192,192,37306,128,8,37473:0:0:0:0:
448,192,37306,1,0,0:0:0:0:
320,192,37473,128,0,37641:0:0:0:0:
64,192,37641,1,2,0:0:0:0:
192,192,37809,128,0,37976:0:0:0:0:
64,192,37976,1,8,0:0:0:0:
320,192,37976,1,0,0:0:0:0:
192,192,38144,1,0,0:0:0:0:
448,192,38144,128,0,38814:0:0:0:0:
64,192,38311,1,2,0:0:0:0:
320,192,38479,1,0,0:0:0:0:
192,192,38647,1,8,0:0:0:0:
64,192,38814,1,4,0:0:0:0:
320,192,38814,1,0,0:0:0:0:
192,192,38982,1,2,0:0:0:0:
448,192,39149,1,0,0:0:0:0:
320,192,39317,1,8,0:0:0:0:
192,192,39485,1,2,0:0:0:0:
320,192,39568,1,0,0:0:0:0:
64,192,39652,1,2,0:0:0:0:
448,192,39652,1,4,0:0:0:0:
320,192,39820,128,0,39987:0:0:0:0:
64,192,39987,1,8,0:0:0:0:
448,192,39987,128,0,40155:0:0:0:0:
192,192,40155,128,0,40323:0:0:0:0:
64,192,40323,1,2,0:0:0:0:
320,192,40490,1,0,0:0:0:0:
448,192,40658,1,0,0:0:0:0:
192,192,40658,1,8,0:0:0:0:
320,192,40825,128,0,40993:0:0:0:0:
64,192,40993,1,2,0:0:0:0:
448,192,40993,128,0,41161:0:0:0:0:
192,192,41161,1,0,0:0:0:0:
320,192,41328,128,8,41496:0:0:0:0:
448,192,41328,1,0,0:0:0:0:
64,192,41496,128,0,41663:0:0:0:0:
448,192,41663,1,2,0:0:0:0:
320,192,41747,1,2,0:0:0:0:
192,192,41831,1,8,0:0:0:0:
192,192,41999,128,2,42166:0:0:0:0:
64,192,42166,1,4,0:0:0:0:
320,192,42166,1,2,0:0:0:0:
448,192,42166,128,0,42334:0:0:0:0:
192,192,42334,128,0,42501:0:0:0:0:
448,192,42501,1,2,0:0:0:0:
64,192,42669,1,8,0:0:0:0:
320,192,42669,1,0,0:0:0:0:
320,192,42837,128,2,43004:0:0:0:0:
448,192,43004,1,0,0:0:0:0:
192,192,43172,128,2,43339:0:0:0:0:
448,192,43339,1,8,0:0:0:0:
64,192,43507,128,2,44345:0:0:0:0:
192,192,43507,1,4,0:0:0:0:
320,192,43507,1,0,0:0:0:0:
448,192,43842,1,8,0:0:0:0:
320,192,43926,1,8,0:0:0:0:
448,192,44010,1,8,0:0:0:0:
192,192,44177,1,2,0:0:0:0:
320,192,44345,1,2,0:0:0:0:
448,192,44345,128,0,44680:0:0:0:0:
192,192,44513,1,2,0:0:0:0:
64,192,44680,1,0,0:0:0:70:LR_Tom Normal.wav
320,192,44680,128,0,45015:0:0:0:0:
64,192,45015,1,2,0:0:0:0:
192,192,45015,1,4,0:0:0:0:
448,192,45015,128,0,45351:0:0:0:0:
192,192,45351,1,8,0:0:0:0:
320,192,45518,128,2,45853:0:0:0:0:
448,192,45518,1,0,0:0:0:0:
64,192,45853,1,8,0:0:0:0:
192,192,46021,128,2,46356:0:0:0:0:
320,192,46021,1,4,0:0:0:0:
448,192,46021,1,0,0:0:0:0:
320,192,46356,1,2,0:0:0:0:
448,192,46524,1,0,0:0:0:70:tom01.wav
64,192,46691,1,0,0:0:0:0:
320,192,46859,1,0,0:0:0:70:tom02.wav
192,192,47026,128,0,47194:0:0:0:70:tom02.wav
448,192,47194,1,0,0:0:0:70:tom03.wav
64,192,47362,128,0,47529:0:0:0:70:tom04.wav
320,192,47362,1,0,0:0:0:0:
64,192,47697,1,4,0:0:0:0:
192,192,47697,128,2,48032:0:0:0:0:
448,192,47697,1,0,0:0:0:0:
448,192,48032,1,8,0:0:0:0:
192,192,48200,1,2,0:0:0:0:
320,192,48200,128,0,48535:0:0:0:0:
192,192,48535,1,8,0:0:0:0:
64,192,48702,1,4,0:0:0:0:
320,192,48702,1,2,0:0:0:0:
448,192,48702,128,0,49205:0:0:0:0:
320,192,49205,1,8,0:0:0:0:
64,192,49289,1,8,0:0:0:0:
320,192,49373,1,8,0:0:0:0:
192,192,49457,1,0,0:0:0:70:tom03.wav
64,192,49540,1,2,0:0:0:0:
192,192,49708,1,0,0:0:0:70:LR_Tom Normal.wav
448,192,49708,1,0,0:0:0:0:
192,192,49959,1,0,0:0:0:70:LR_Tom Hit.wav
320,192,49959,1,0,0:0:0:0:
320,192,50211,1,0,0:0:0:70:tom02.wav
448,192,50211,1,0,0:0:0:0:
64,192,50378,128,4,50714:0:0:0:0:
192,192,50378,1,2,0:0:0:0:
448,192,50378,1,0,0:0:0:0:
320,192,50714,1,8,0:0:0:0:
192,192,50881,128,0,51216:0:0:0:0:
448,192,51049,1,2,0:0:0:0:
320,192,51216,1,0,0:0:0:0:
64,192,51384,1,8,0:0:0:0:
448,192,51384,1,0,0:0:0:0:
192,192,51552,1,8,0:0:0:0:
64,192,51719,1,2,0:0:0:0:
320,192,51719,128,0,52054:0:0:0:0:
64,192,52054,1,8,0:0:0:0:
448,192,52222,128,0,52557:0:0:0:0:
192,192,52390,1,2,0:0:0:0:
320,192,52557,1,8,0:0:0:0:
192,192,52641,1,8,0:0:0:0:
64,192,52725,1,8,0:0:0:0:
448,192,52809,1,0,0:0:0:0:
320,192,52892,1,8,0:0:0:0:
192,192,52976,1,8,0:0:0:0:
320,192,53060,1,2,0:0:0:0:
448,192,53060,1,4,0:0:0:0:
64,192,53228,1,2,0:0:0:0:
64,192,53395,1,2,0:0:0:0:
320,192,53563,1,2,0:0:0:0:
192,192,53730,1,2,0:0:0:0:
320,192,53730,1,0,0:0:0:0:
192,192,53898,1,2,0:0:0:0:
448,192,54066,1,2,0:0:0:0:
448,192,54233,1,2,0:0:0:0:
64,192,54401,1,2,0:0:0:0:
192,192,54401,1,0,0:0:0:0:
320,192,54401,1,0,0:0:0:0:
448,192,54568,1,0,0:0:0:70:tom03.wav
320,192,54736,1,2,0:0:0:0:
448,192,54904,1,2,0:0:0:0:
64,192,55071,1,2,0:0:0:0:
192,192,55071,1,0,0:0:0:0:
320,192,55239,1,2,0:0:0:0:
64,192,55406,1,8,0:0:0:0:
448,192,55406,1,0,0:0:0:0:
192,192,55574,1,8,0:0:0:0:
64,192,55742,1,4,0:0:0:0:
320,192,55742,1,2,0:0:0:0:
448,192,55742,1,0,0:0:0:0:
192,192,55909,1,2,0:0:0:0:
320,192,56077,1,2,0:0:0:0:
448,192,56077,1,0,0:0:0:0:
64,192,56244,1,2,0:0:0:0:
192,192,56328,1,2,0:0:0:0:
64,192,56412,1,2,0:0:0:0:
448,192,56412,1,0,0:0:0:0:
320,192,56580,1,2,0:0:0:0:
64,192,56747,1,8,0:0:0:0:
192,192,56747,1,0,0:0:0:0:
448,192,56915,1,2,0:0:0:0:
64,192,57082,1,2,0:0:0:0:
192,192,57082,1,0,0:0:0:0:
320,192,57082,1,0,0:0:0:0:
448,192,57250,1,2,0:0:0:0:
192,192,57418,1,8,0:0:0:0:
320,192,57418,1,0,0:0:0:0:
64,192,57585,1,2,0:0:0:0:
192,192,57753,1,2,0:0:0:0:
320,192,57753,1,0,0:0:0:0:
192,192,57920,1,2,0:0:0:0:
320,192,57920,1,0,0:0:0:0:
64,192,58088,1,2,0:0:0:0:
448,192,58088,1,0,0:0:0:0:
64,192,58256,1,2,0:0:0:0:
448,192,58256,1,0,0:0:0:0:
192,192,59764,128,0,59932:0:0:0:0:
320,192,60099,128,0,60267:0:0:0:0:
64,192,60434,128,0,60770:0:0:0:70:LR_Tom Normal.wav
192,192,60770,128,0,61105:0:0:0:0:
64,192,61105,1,4,0:0:0:0:
320,192,61105,1,2,0:0:0:0:
448,192,61105,128,0,61775:0:0:0:0:
192,192,61775,128,0,62110:0:0:0:0:
64,192,62110,128,0,62445:0:0:0:0:
192,192,62445,1,2,0:0:0:0:
320,192,62445,128,4,63116:0:0:0:0:
448,192,62445,1,0,0:0:0:0:
64,192,63116,1,0,0:0:0:0:
64,192,63451,128,0,63786:0:0:0:70:tom04.wav
320,192,63451,1,0,0:0:0:0:
192,192,63786,128,4,64121:0:0:0:0:
320,192,63786,1,2,0:0:0:0:
448,192,63786,1,0,0:0:0:0:
448,192,64121,128,0,64457:0:0:0:0:
64,192,64457,1,2,0:0:0:0:
192,192,64457,1,4,0:0:0:0:
320,192,64457,128,0,64792:0:0:0:0:
192,192,64792,128,0,65127:0:0:0:0:
64,192,65127,128,4,65462:0:0:0:0:
320,192,65127,1,2,0:0:0:0:
448,192,65127,1,0,0:0:0:0:
448,192,65462,1,2,0:0:0:0:
64,192,65630,1,8,0:0:0:0:
320,192,65630,1,0,0:0:0:0:
192,192,65797,128,2,65965:0:0:0:0:
448,192,65797,1,0,0:0:0:0:
320,192,65965,1,8,0:0:0:0:
320,192,66133,128,0,66300:0:0:0:70:tom03.wav
192,192,66300,1,0,0:0:0:70:tom04.wav
64,192,66468,1,4,0:0:0:0:
320,192,66468,1,2,0:0:0:0:
448,192,66468,128,0,66803:0:0:0:0:
64,192,66803,1,8,0:0:0:0:
192,192,66971,1,0,0:0:0:0:
64,192,67138,128,2,67306:0:0:0:0:
320,192,67306,1,0,0:0:0:0:
192,192,67473,128,8,67641:0:0:0:0:
448,192,67641,1,0,0:0:0:70:LR_Tom Hit.wav
64,192,67809,1,2,0:0:0:0:
448,192,67809,128,0,67976:0:0:0:0:
320,192,67976,1,0,0:0:0:70:LR_Tom Normal.wav
192,192,68060,1,0,0:0:0:0:
64,192,68144,1,8,0:0:0:0:
320,192,68311,1,0,0:0:0:0:
192,192,68479,1,2,0:0:0:0:
448,192,68479,128,0,68647:0:0:0:0:
320,192,68730,128,0,68898:0:0:0:0:
64,192,68814,1,8,0:0:0:0:
192,192,68982,128,2,69149:0:0:0:0:
64,192,69149,1,2,0:0:0:0:
320,192,69149,1,4,0:0:0:0:
448,192,69149,1,0,0:0:0:0:
320,192,69317,1,2,0:0:0:0:
192,192,69485,1,8,0:0:0:0:
192,192,69652,1,8,0:0:0:0:
64,192,69820,1,2,0:0:0:0:
448,192,69820,1,0,0:0:0:0:
64,192,69987,1,2,0:0:0:0:
448,192,69987,1,0,0:0:0:0:
192,192,70155,1,8,0:0:0:0:
320,192,70155,1,0,0:0:0:0:
192,192,70323,1,2,0:0:0:0:
320,192,70323,1,4,0:0:0:0:
448,192,70323,1,0,0:0:0:0:
64,192,70658,1,8,0:0:0:0:
192,192,70742,1,8,0:0:0:0:
320,192,70825,128,0,70993:0:0:0:70:LR_Tom Normal.wav
64,192,70993,1,0,0:0:0:70:LR_Tom Hit.wav
448,192,71161,128,0,71328:0:0:0:70:tom04.wav
192,192,71328,1,2,0:0:0:0:
320,192,71412,1,2,0:0:0:0:
64,192,71496,128,8,71831:0:0:0:0:
448,192,71496,1,4,0:0:0:0:
192,192,71831,128,2,72166:0:0:0:0:
320,192,71831,1,4,0:0:0:0:
448,192,71831,1,0,0:0:0:0:
64,192,72166,1,8,0:0:0:0:
448,192,72166,1,0,0:0:0:0:
320,192,72334,1,0,0:0:0:0:
192,192,72501,128,2,72837:0:0:0:0:
448,192,72669,1,0,0:0:0:0:
320,192,72837,128,8,73172:0:0:0:0:
64,192,73004,1,0,0:0:0:0:
192,192,73172,1,2,0:0:0:0:
448,192,73172,128,0,73507:0:0:0:0:
64,192,73507,1,8,0:0:0:0:
320,192,73507,1,0,0:0:0:0:
192,192,73675,1,0,0:0:0:0:
320,192,73842,128,2,74177:0:0:0:0:
64,192,74010,1,0,0:0:0:0:
192,192,74177,128,8,74513:0:0:0:0:
448,192,74345,1,0,0:0:0:0:
64,192,74513,128,2,74848:0:0:0:0:
320,192,74513,1,4,0:0:0:0:
448,192,74513,1,0,0:0:0:0:
192,192,74848,1,8,0:0:0:0:
320,192,74848,1,0,0:0:0:0:
448,192,75015,1,2,0:0:0:0:
320,192,75099,1,2,0:0:0:0:
64,192,75183,128,8,75351:0:0:0:0:
192,192,75183,1,0,0:0:0:0:
320,192,75351,1,2,0:0:0:0:
448,192,75518,128,8,75686:0:0:0:0:
64,192,75686,1,2,0:0:0:0:
192,192,75686,128,0,76021:0:0:0:0:
320,192,75686,1,0,0:0:0:0:
448,192,76021,1,8,0:0:0:0:
320,192,76105,1,8,0:0:0:0:
64,192,76188,1,8,0:0:0:0:
192,192,76272,1,2,0:0:0:0:
320,192,76356,1,2,0:0:0:0:
64,192,76440,1,2,0:0:0:0:
192,192,76524,1,0,0:0:0:70:LR_Tom Normal.wav
448,192,76691,1,2,0:0:0:0:
64,192,76859,1,2,0:0:0:0:
320,192,76859,1,4,0:0:0:0:
192,192,77026,1,0,0:0:0:0:
320,192,77194,1,8,0:0:0:0:
448,192,77194,128,0,77362:0:0:0:0:
64,192,77362,1,2,0:0:0:0:
320,192,77529,1,8,0:0:0:0:
448,192,77529,128,0,77697:0:0:0:0:
64,192,77697,1,2,0:0:0:0:
320,192,77864,1,8,0:0:0:0:
448,192,77864,128,0,78032:0:0:0:0:
64,192,78032,1,2,0:0:0:0:
320,192,78200,1,8,0:0:0:0:
448,192,78200,128,0,78367:0:0:0:0:
64,192,78367,1,2,0:0:0:0:
192,192,78367,1,4,0:0:0:0:
448,192,78535,1,0,0:0:0:0:
320,192,78702,1,2,0:0:0:0:
64,192,78870,128,8,79038:0:0:0:0:
192,192,78870,1,0,0:0:0:0:
448,192,79038,1,2,0:0:0:0:
320,192,79121,1,2,0:0:0:0:
64,192,79205,128,8,79373:0:0:0:0:
192,192,79205,1,0,0:0:0:0:
448,192,79373,1,2,0:0:0:0:
64,192,79540,128,8,79708:0:0:0:0:
192,192,79708,1,4,0:0:0:0:
320,192,79708,1,2,0:0:0:0:
448,192,79708,1,0,0:0:0:0:
320,192,80043,1,8,0:0:0:0:
192,192,80127,1,8,0:0:0:0:
64,192,80211,1,0,0:0:0:70:tom01.wav
448,192,80295,1,0,0:0:0:70:tom02.wav
320,192,80378,1,0,0:0:0:70:tom03.wav
192,192,80462,1,0,0:0:0:70:tom04.wav
64,192,80546,1,2,0:0:0:0:
448,192,80546,1,0,0:0:0:0:
64,192,80797,1,2,0:0:0:0:
320,192,80797,1,0,0:0:0:0:
192,192,81049,1,2,0:0:0:0:
320,192,81049,1,0,0:0:0:0:
64,192,81216,1,2,0:0:0:0:
192,192,81216,1,4,0:0:0:0:
448,192,81216,1,0,0:0:0:0:
320,192,81552,128,0,81887:0:0:0:0:
192,192,81887,128,8,82054:0:0:0:0:
64,192,82054,1,2,0:0:0:0:
320,192,82222,128,8,82390:0:0:0:0:
448,192,82222,1,0,0:0:0:0:
64,192,82390,128,8,83730:0:0:0:0:
192,192,82557,1,2,0:0:0:0:
448,192,82557,1,4,0:0:0:0:
320,192,82725,1,0,0:0:0:0:
192,192,82892,1,8,0:0:0:0:
448,192,83060,1,0,0:0:0:0:
192,192,83228,1,2,0:0:0:0:
320,192,83395,1,0,0:0:0:0:
448,192,83563,1,8,0:0:0:0:
192,192,83730,1,0,0:0:0:0:
64,192,83898,1,2,0:0:0:0:
320,192,83898,1,0,0:0:0:0:
192,192,84066,1,0,0:0:0:0:
320,192,84233,1,8,0:0:0:0:
448,192,84233,1,0,0:0:0:0:
64,192,84345,1,0,0:0:0:0:
192,192,84457,1,0,0:0:0:0:
448,192,84568,1,2,0:0:0:0:
448,192,84736,1,0,0:0:0:0:
64,192,84904,1,8,0:0:0:0:
320,192,84904,1,0,0:0:0:0:
192,192,85071,1,0,0:0:0:0:
320,192,85155,1,0,0:0:0:0:
64,192,85239,1,2,0:0:0:0:
448,192,85239,1,0,0:0:0:0:
192,192,85406,1,0,0:0:0:0:
320,192,85574,1,8,0:0:0:0:
448,192,85574,1,0,0:0:0:0:
64,192,85742,1,0,0:0:0:0:
192,192,85909,1,2,0:0:0:0:
320,192,85909,1,0,0:0:0:0:
448,192,86077,1,0,0:0:0:0:
64,192,86244,1,8,0:0:0:0:
192,192,86244,1,0,0:0:0:0:
192,192,86412,1,0,0:0:0:0:
64,192,86580,1,2,0:0:0:0:
320,192,86580,1,4,0:0:0:0:
448,192,86580,1,0,0:0:0:0:
192,192,86747,1,0,0:0:0:0:
64,192,86915,1,8,0:0:0:0:
320,192,86915,1,0,0:0:0:0:
448,192,87082,1,0,0:0:0:0:
192,192,87250,1,2,0:0:0:0:
320,192,87250,1,0,0:0:0:0:
64,192,87418,1,8,0:0:0:0:
192,192,87501,1,8,0:0:0:0:
320,192,87585,1,2,0:0:0:0:
448,192,87753,1,0,0:0:0:70:tom02.wav
320,192,87837,1,0,0:0:0:70:tom03.wav
64,192,87920,1,4,0:0:0:0:
192,192,87920,1,2,0:0:0:0:
448,192,88088,1,0,0:0:0:0:
64,192,88256,1,8,0:0:0:0:
320,192,88256,1,0,0:0:0:0:
192,192,88423,1,0,0:0:0:0:
448,192,88591,1,2,0:0:0:0:
320,192,88758,1,0,0:0:0:0:
64,192,88926,1,8,0:0:0:0:
192,192,88926,1,0,0:0:0:0:
192,192,89094,1,0,0:0:0:0:
320,192,89261,1,2,0:0:0:0:
448,192,89261,1,0,0:0:0:0:
64,192,89429,1,0,0:0:0:0:
192,192,89596,1,8,0:0:0:0:
448,192,89596,1,0,0:0:0:0:
320,192,89708,1,0,0:0:0:0:
64,192,89820,1,0,0:0:0:0:
192,192,89932,1,2,0:0:0:0:
320,192,90099,1,0,0:0:0:0:
64,192,90267,1,8,0:0:0:0:
448,192,90267,1,0,0:0:0:0:
448,192,90434,1,0,0:0:0:70:tom03.wav
320,192,90518,1,0,0:0:0:70:tom03.wav
64,192,90602,1,2,0:0:0:0:
192,192,90602,1,4,0:0:0:0:
448,192,90770,1,0,0:0:0:0:
64,192,90937,1,8,0:0:0:0:
320,192,90937,1,0,0:0:0:0:
192,192,91105,1,0,0:0:0:0:
320,192,91272,1,2,0:0:0:0:
448,192,91272,1,0,0:0:0:0:
64,192,91440,1,0,0:0:0:0:
192,192,91607,1,8,0:0:0:0:
320,192,91607,1,0,0:0:0:0:
320,192,91775,1,0,0:0:0:0:
64,192,91943,1,4,0:0:0:0:
192,192,91943,1,2,0:0:0:0:
448,192,91943,1,0,0:0:0:0:
320,192,92110,1,8,0:0:0:0:
192,192,92194,1,8,0:0:0:0:
64,192,92278,1,2,0:0:0:0:
448,192,92278,1,0,0:0:0:0:
320,192,92445,1,8,0:0:0:0:
320,192,92613,1,0,0:0:0:70:tom02.wav
192,192,92697,1,2,0:0:0:0:
64,192,92781,1,8,0:0:0:0:
448,192,92864,1,2,0:0:0:0:
320,192,92948,1,0,0:0:0:70:tom03.wav
64,192,93032,1,2,0:0:0:0:
192,192,93116,1,0,0:0:0:70:tom04.wav
320,192,93200,1,0,0:0:0:70:tom04.wav
64,192,93283,1,2,0:0:0:0:
448,192,93283,1,4,0:0:0:0:
192,192,93451,1,0,0:0:0:0:
64,192,93619,1,8,0:0:0:0:
320,192,93619,128,0,93786:0:0:0:0:
448,192,93786,128,0,93954:0:0:0:0:
192,192,93954,128,2,94121:0:0:0:0:
320,192,94121,1,0,0:0:0:0:
192,192,94289,1,0,0:0:0:0:
64,192,94289,1,8,0:0:0:0:
448,192,94457,1,0,0:0:0:0:
64,192,94624,1,2,0:0:0:0:
320,192,94624,128,0,94792:0:0:0:0:
192,192,94792,1,0,0:0:0:0:
320,192,94959,128,8,95127:0:0:0:0:
448,192,94959,1,0,0:0:0:0:
64,192,95127,128,0,95295:0:0:0:0:
192,192,95295,1,2,0:0:0:0:
320,192,95462,1,0,0:0:0:0:
64,192,95630,128,8,95797:0:0:0:0:
448,192,95630,1,0,0:0:0:0:
192,192,95797,128,0,96300:0:0:0:0:
320,192,95965,1,2,0:0:0:0:
448,192,96133,1,0,0:0:0:0:
64,192,96300,128,8,96468:0:0:0:0:
320,192,96300,1,0,0:0:0:0:
448,192,96468,128,0,96635:0:0:0:0:
192,192,96635,1,2,0:0:0:0:
320,192,96803,128,0,96971:0:0:0:0:
64,192,96971,1,8,0:0:0:0:
448,192,97138,128,0,97976:0:0:0:0:
320,192,97306,1,2,0:0:0:0:
64,192,97473,1,0,0:0:0:0:
192,192,97641,1,8,0:0:0:0:
192,192,97809,1,4,0:0:0:0:
320,192,97809,1,0,0:0:0:0:
64,192,97976,1,2,0:0:0:0:
320,192,98144,1,0,0:0:0:0:
192,192,98311,1,8,0:0:0:0:
448,192,98479,1,0,0:0:0:70:LR_Tom Normal.wav
320,192,98563,1,0,0:0:0:70:LR_Tom Normal.wav
64,192,98647,1,2,0:0:0:0:
192,192,98647,1,4,0:0:0:0:
448,192,98814,1,0,0:0:0:0:
64,192,98982,1,8,0:0:0:0:
320,192,98982,128,0,99149:0:0:0:0:
192,192,99149,128,0,99317:0:0:0:0:
320,192,99317,128,2,99485:0:0:0:0:
448,192,99485,1,0,0:0:0:0:
64,192,99652,128,8,99820:0:0:0:0:
192,192,99652,1,0,0:0:0:0:
320,192,99820,128,0,99987:0:0:0:0:
64,192,99987,1,2,0:0:0:0:
192,192,99987,128,0,100155:0:0:0:0:
448,192,100155,1,0,0:0:0:0:
192,192,100323,1,8,0:0:0:0:
320,192,100323,128,0,100490:0:0:0:0:
64,192,100490,128,0,100658:0:0:0:0:
192,192,100658,1,2,0:0:0:0:
320,192,100742,1,0,0:0:0:70:tom02.wav
448,192,100825,1,0,0:0:0:70:tom03.wav
64,192,100993,128,8,101161:0:0:0:0:
192,192,101161,1,2,0:0:0:0:
320,192,101161,128,4,101496:0:0:0:0:
448,192,101161,1,0,0:0:0:0:
64,192,101496,1,2,0:0:0:0:
192,192,101663,128,8,101831:0:0:0:0:
64,192,101831,1,2,0:0:0:0:
320,192,101831,128,0,101999:0:0:0:0:
448,192,101831,1,0,0:0:0:0:
192,192,102166,128,0,102334:0:0:0:70:LR_Tom Normal.wav
448,192,102166,1,0,0:0:0:0:
320,192,102334,1,0,0:0:0:70:LR_Tom Normal.wav
64,192,102501,128,2,102837:0:0:0:0:
448,192,102501,1,0,0:0:0:0:
320,192,102837,1,8,0:0:0:0:
192,192,103004,1,8,0:0:0:0:
64,192,103172,1,2,0:0:0:0:
448,192,103172,1,0,0:0:0:0:
64,192,103507,128,2,104010:0:0:0:0:
448,192,103507,128,0,104010:0:0:0:0:
192,192,104010,1,2,0:0:0:0:
320,192,104010,1,4,0:0:0:0:
64,192,104177,128,0,104345:0:0:0:0:
448,192,104345,128,0,104513:0:0:0:0:
320,192,104680,128,0,104848:0:0:0:0:
192,192,104848,128,0,105015:0:0:0:0:
64,192,105015,1,0,0:0:0:0:
448,192,105183,1,8,0:0:0:0:
64,192,105351,1,2,0:0:0:0:
192,192,105351,128,4,105686:0:0:0:0:
320,192,105351,1,0,0:0:0:0:
448,192,105686,1,8,0:0:0:0:
64,192,105853,128,2,106021:0:0:0:0:
320,192,105853,1,0,0:0:0:0:
448,192,106188,1,0,0:0:0:70:tom04.wav
64,192,106356,128,2,106524:0:0:0:0:
192,192,106524,128,2,106859:0:0:0:0:
320,192,106524,1,4,0:0:0:0:
448,192,106524,1,0,0:0:0:0:
64,192,106859,1,0,0:0:0:0:
192,192,107026,128,8,107194:0:0:0:0:
448,192,107026,1,0,0:0:0:0:
320,192,107194,128,0,107529:0:0:0:0:
64,192,107362,1,2,0:0:0:0:
448,192,107529,128,0,107864:0:0:0:0:
192,192,107697,1,8,0:0:0:0:
64,192,107864,128,0,108367:0:0:0:0:
320,192,108032,1,2,0:0:0:0:
448,192,108200,1,0,0:0:0:0:
192,192,108367,1,8,0:0:0:0:
320,192,108535,1,4,0:0:0:0:
448,192,108535,1,0,0:0:0:0:
64,192,108702,1,2,0:0:0:0:
320,192,108870,1,0,0:0:0:0:
192,192,109038,1,8,0:0:0:0:
64,192,109205,1,2,0:0:0:0:
192,192,109289,1,2,0:0:0:0:
320,192,109373,1,2,0:0:0:0:
448,192,109373,1,4,0:0:0:0:
64,192,109540,128,0,109708:0:0:0:0:
192,192,109708,1,8,0:0:0:0:
320,192,109708,128,0,109876:0:0:0:0:
448,192,109876,1,0,0:0:0:0:
192,192,110043,128,2,110211:0:0:0:0:
64,192,110211,128,0,110378:0:0:0:0:
448,192,110378,1,0,0:0:0:0:
320,192,110378,1,8,0:0:0:0:
192,192,110546,128,0,110714:0:0:0:0:
64,192,110714,1,2,0:0:0:0:
448,192,110714,128,0,111049:0:0:0:0:
192,192,110881,1,0,0:0:0:0:
64,192,111049,1,8,0:0:0:0:
320,192,111049,128,0,111216:0:0:0:0:
192,192,111216,128,0,111384:0:0:0:0:
448,192,111384,1,2,0:0:0:0:
320,192,111552,1,8,0:0:0:0:
192,192,111635,1,8,0:0:0:0:
320,192,111719,128,0,111887:0:0:0:70:LR_Tom Normal.wav
64,192,111887,1,4,0:0:0:0:
192,192,111887,1,2,0:0:0:0:
448,192,111887,128,0,112222:0:0:0:0:
320,192,112222,1,2,0:0:0:0:
192,192,112390,128,8,112557:0:0:0:0:
64,192,112557,1,2,0:0:0:0:
320,192,112557,128,0,112892:0:0:0:0:
192,192,112892,128,2,113228:0:0:0:0:
448,192,113060,1,8,0:0:0:0:
64,192,113228,128,2,113898:0:0:0:0:
320,192,113228,1,4,0:0:0:0:
448,192,113228,1,0,0:0:0:0:
448,192,113563,1,8,0:0:0:0:
320,192,113647,1,8,0:0:0:0:
448,192,113730,1,8,0:0:0:0:
192,192,113898,1,2,0:0:0:0:
64,192,114066,1,2,0:0:0:0:
320,192,114066,1,0,0:0:0:0:
448,192,114177,1,0,0:0:0:70:tom03.wav
192,192,114289,1,0,0:0:0:70:LR_Tom Hit.wav
320,192,114401,1,0,0:0:0:70:LR_Tom Normal.wav
64,192,114513,1,0,0:0:0:70:tom04.wav
192,192,114624,1,0,0:0:0:70:tom04.wav
64,192,114736,128,2,115071:0:0:0:0:
448,192,114736,128,4,115071:0:0:0:0:
320,192,115071,1,8,0:0:0:0:
192,192,115239,128,2,115574:0:0:0:0:
320,192,115239,128,0,115574:0:0:0:0:
64,192,115574,1,8,0:0:0:0:
64,192,115742,128,2,116077:0:0:0:0:
448,192,115742,128,4,116077:0:0:0:0:
320,192,116077,1,2,0:0:0:0:
64,192,116244,1,0,0:0:0:70:tom01.wav
192,192,116244,1,0,0:0:0:0:
320,192,116412,1,8,0:0:0:0:
448,192,116412,1,0,0:0:0:0:
192,192,116580,1,0,0:0:0:70:tom02.wav
64,192,116747,128,0,116915:0:0:0:70:tom02.wav
448,192,116747,1,0,0:0:0:0:
320,192,116915,1,0,0:0:0:70:tom03.wav
192,192,117082,128,0,117250:0:0:0:70:tom04.wav
320,192,117418,128,4,117753:0:0:0:0:
448,192,117418,128,2,117753:0:0:0:0:
192,192,117753,1,8,0:0:0:0:
192,192,117920,128,2,118256:0:0:0:0:
320,192,117920,128,0,118256:0:0:0:0:
64,192,118256,1,2,0:0:0:0:
448,192,118339,1,2,0:0:0:0:
64,192,118423,128,4,118758:0:0:0:0:
192,192,118423,128,2,118758:0:0:0:0:
448,192,118758,1,2,0:0:0:0:
64,192,118926,1,8,0:0:0:0:
320,192,118926,1,0,0:0:0:0:
192,192,119094,1,0,0:0:0:70:tom02.wav
64,192,119261,1,0,0:0:0:0:
192,192,119345,1,0,0:0:0:0:
320,192,119429,1,4,0:0:0:0:
448,192,119429,1,2,0:0:0:0:
192,192,119680,1,4,0:0:0:0:
320,192,119680,1,2,0:0:0:0:
64,192,119932,1,2,0:0:0:0:
192,192,119932,1,4,0:0:0:0:
64,192,120099,1,4,0:0:0:0:
320,192,120099,1,2,0:0:0:0:
448,192,120099,128,0,120434:0:0:0:0:
64,192,120434,1,8,0:0:0:0:
448,192,120602,128,0,120937:0:0:0:0:
64,192,120770,1,2,0:0:0:0:
192,192,120937,1,0,0:0:0:0:
320,192,121105,1,8,0:0:0:0:
448,192,121105,1,0,0:0:0:0:
192,192,121272,1,0,0:0:0:0:
64,192,121440,128,2,121775:0:0:0:0:
320,192,121440,1,0,0:0:0:0:
448,192,121440,1,0,0:0:0:0:
448,192,121775,1,8,0:0:0:0:
64,192,121943,128,0,122278:0:0:0:0:
448,192,122110,1,2,0:0:0:0:
320,192,122278,1,8,0:0:0:0:
64,192,122445,1,2,0:0:0:0:
192,192,122445,1,0,0:0:0:0:
448,192,122529,1,8,0:0:0:0:
192,192,122613,1,8,0:0:0:0:
448,192,122697,1,8,0:0:0:0:
64,192,122781,1,2,0:0:0:0:
320,192,122781,1,4,0:0:0:0:
192,192,122948,1,2,0:0:0:0:
192,192,123116,1,2,0:0:0:0:
320,192,123283,1,2,0:0:0:0:
320,192,123451,1,2,0:0:0:0:
64,192,123619,1,2,0:0:0:0:
448,192,123619,1,0,0:0:0:0:
64,192,123786,1,2,0:0:0:0:
448,192,123786,1,0,0:0:0:0:
192,192,123954,1,2,0:0:0:0:
320,192,123954,1,0,0:0:0:0:
192,192,124121,1,2,0:0:0:0:
320,192,124121,1,0,0:0:0:0:
64,192,124289,1,0,0:0:0:70:tom03.wav
320,192,124457,1,2,0:0:0:0:
192,192,124624,1,2,0:0:0:0:
448,192,124792,1,2,0:0:0:0:
320,192,124876,1,8,0:0:0:0:
64,192,124959,1,2,0:0:0:0:
320,192,125127,1,8,0:0:0:0:
320,192,125295,1,8,0:0:0:0:
64,192,125462,1,4,0:0:0:0:
192,192,125462,1,2,0:0:0:0:
448,192,125462,1,0,0:0:0:0:
320,192,125630,1,2,0:0:0:0:
64,192,125797,1,8,0:0:0:0:
448,192,125797,1,0,0:0:0:0:
192,192,125965,1,2,0:0:0:0:
320,192,126049,1,2,0:0:0:0:
64,192,126133,1,2,0:0:0:0:
448,192,126133,1,0,0:0:0:0:
192,192,126300,1,2,0:0:0:0:
320,192,126468,1,8,0:0:0:0:
448,192,126468,1,0,0:0:0:0:
192,192,126635,1,2,0:0:0:0:
64,192,126803,1,2,0:0:0:0:
320,192,126803,1,4,0:0:0:0:
448,192,126971,1,2,0:0:0:0:
192,192,127138,1,8,0:0:0:0:
320,192,127138,1,0,0:0:0:0:
64,192,127306,1,2,0:0:0:0:
192,192,127473,1,8,0:0:0:0:
448,192,127473,1,0,0:0:0:0:
320,192,127557,1,8,0:0:0:0:
64,192,127641,1,8,0:0:0:0:
192,192,127725,1,8,0:0:0:0:
448,192,127809,1,8,0:0:0:0:
320,192,127892,1,8,0:0:0:0:
64,192,127976,1,2,0:0:0:0:
64,192,128144,1,2,0:0:0:0:
320,192,128144,1,4,0:0:0:0:
448,192,128144,1,0,0:0:0:0:
192,192,128311,1,8,0:0:0:0:
192,192,128479,1,8,0:0:0:0:
320,192,128647,1,2,0:0:0:0:
448,192,128647,1,0,0:0:0:0:
320,192,128814,1,8,0:0:0:0:
448,192,128814,1,0,0:0:0:0:
64,192,128898,1,8,0:0:0:0:
192,192,128982,1,8,0:0:0:0:
448,192,129066,1,8,0:0:0:0:
320,192,129149,1,2,0:0:0:0:
64,192,129233,1,0,0:0:0:0:
192,192,129317,1,0,0:0:0:70:tom03.wav
64,192,129485,1,2,0:0:0:0:
320,192,129485,1,4,0:0:0:0:
448,192,129485,128,0,130155:0:0:0:0:
192,192,129820,1,2,0:0:0:0:
320,192,129820,128,4,130155:0:0:0:0:
64,192,130155,128,4,130825:0:0:0:0:
192,192,130155,1,2,0:0:0:0:
320,192,130323,1,2,0:0:0:0:
448,192,130406,1,2,0:0:0:0:
192,192,130490,128,2,130825:0:0:0:0:
320,192,130490,1,0,0:0:0:0:
320,192,130825,128,2,131161:0:0:0:0:
448,192,130825,128,4,131161:0:0:0:0:
64,192,131161,1,8,0:0:0:0:
192,192,131161,1,0,0:0:0:0:
448,192,131328,1,0,0:0:0:0:
320,192,131496,128,2,131663:0:0:0:0:
64,192,131663,1,0,0:0:0:0:
320,192,131831,1,8,0:0:0:0:
448,192,131831,128,0,131999:0:0:0:0:
192,192,131999,1,0,0:0:0:0:
64,192,132166,1,2,0:0:0:0:
448,192,132166,128,0,132501:0:0:0:0:
64,192,132501,1,8,0:0:0:0:
192,192,132501,1,0,0:0:0:0:
320,192,132669,1,0,0:0:0:0:
192,192,132837,128,2,133004:0:0:0:0:
448,192,133004,1,0,0:0:0:0:
64,192,133172,128,8,133339:0:0:0:0:
192,192,133172,1,0,0:0:0:0:
320,192,133339,1,0,0:0:0:0:
64,192,133507,1,2,0:0:0:0:
320,192,133507,128,4,133675:0:0:0:0:
448,192,133507,1,0,0:0:0:0:
192,192,133675,1,0,0:0:0:0:
320,192,133842,1,8,0:0:0:0:
448,192,133842,128,0,134010:0:0:0:0:
64,192,134010,1,0,0:0:0:0:
192,192,134177,128,2,134345:0:0:0:0:
320,192,134177,1,0,0:0:0:0:
448,192,134345,1,0,0:0:0:0:
64,192,134513,1,8,0:0:0:0:
192,192,134513,128,0,134680:0:0:0:0:
320,192,134680,1,0,0:0:0:0:
64,192,134848,128,2,135183:0:0:0:0:
192,192,134848,1,0,0:0:0:0:
320,192,135183,1,8,0:0:0:0:
448,192,135183,1,0,0:0:0:0:
192,192,135351,1,0,0:0:0:0:
320,192,135518,128,2,135686:0:0:0:0:
448,192,135686,1,0,0:0:0:0:
192,192,135853,128,8,136021:0:0:0:0:
320,192,135853,1,0,0:0:0:0:
64,192,136021,1,0,0:0:0:0:
64,192,136188,1,4,0:0:0:0:
320,192,136188,1,2,0:0:0:0:
448,192,136188,128,0,136524:0:0:0:0:
64,192,136524,1,8,0:0:0:0:
192,192,136524,1,0,0:0:0:0:
320,192,136691,1,0,0:0:0:0:
192,192,136859,128,2,137026:0:0:0:0:
448,192,137026,1,0,0:0:0:0:
192,192,137194,1,8,0:0:0:0:
320,192,137194,128,0,137362:0:0:0:0:
64,192,137362,1,0,0:0:0:0:
192,192,137529,1,2,0:0:0:0:
448,192,137529,128,0,137864:0:0:0:0:
64,192,137864,1,8,0:0:0:0:
320,192,137864,1,0,0:0:0:0:
192,192,138032,128,0,138200:0:0:0:0:
64,192,138200,128,2,138367:0:0:0:0:
448,192,138200,1,0,0:0:0:0:
320,192,138367,1,2,0:0:0:0:
192,192,138451,1,2,0:0:0:0:
64,192,138535,1,8,0:0:0:0:
448,192,138535,1,0,0:0:0:0:
320,192,138702,128,2,138870:0:0:0:0:
64,192,138870,1,4,0:0:0:0:
192,192,138870,1,8,0:0:0:0:
448,192,138870,128,0,139205:0:0:0:0:
192,192,139038,1,2,0:0:0:0:
320,192,139205,1,8,0:0:0:0:
64,192,139373,128,2,139540:0:0:0:0:
192,192,139540,128,8,139876:0:0:0:0:
448,192,139708,1,2,0:0:0:0:
320,192,139876,128,8,140043:0:0:0:0:
64,192,140043,1,2,0:0:0:0:
448,192,140043,128,0,140378:0:0:0:0:
64,192,140378,1,8,0:0:0:0:
192,192,140462,1,8,0:0:0:0:
320,192,140546,128,0,140714:0:0:0:70:tom01.wav
448,192,140546,1,0,0:0:0:0:
64,192,140714,1,0,0:0:0:70:tom02.wav
192,192,140881,128,0,141049:0:0:0:70:tom03.wav
320,192,141049,1,2,0:0:0:0:
64,192,141133,1,0,0:0:0:0:
192,192,141216,1,8,0:0:0:0:
448,192,141216,128,4,141552:0:0:0:0:
64,192,141552,128,4,141887:0:0:0:0:
192,192,141552,128,2,141887:0:0:0:0:
320,192,141887,1,8,0:0:0:0:
448,192,141887,1,0,0:0:0:0:
448,192,142054,1,0,0:0:0:0:
192,192,142222,128,2,142390:0:0:0:0:
448,192,142390,1,0,0:0:0:0:
192,192,142557,1,8,0:0:0:0:
320,192,142557,128,0,142725:0:0:0:0:
64,192,142725,1,0,0:0:0:0:
64,192,142892,1,2,0:0:0:0:
448,192,142892,128,0,143228:0:0:0:0:
192,192,143228,1,8,0:0:0:0:
320,192,143228,1,0,0:0:0:0:
64,192,143395,1,0,0:0:0:0:
320,192,143563,128,2,143730:0:0:0:0:
64,192,143730,1,0,0:0:0:0:
192,192,143898,128,8,144066:0:0:0:0:
320,192,143898,1,0,0:0:0:0:
448,192,144066,1,0,0:0:0:0:
64,192,144233,128,2,144568:0:0:0:0:
320,192,144233,1,4,0:0:0:0:
448,192,144233,1,0,0:0:0:0:
192,192,144568,1,8,0:0:0:0:
448,192,144568,1,0,0:0:0:0:
64,192,144736,1,2,0:0:0:0:
192,192,144820,1,2,0:0:0:0:
320,192,144904,1,8,0:0:0:0:
448,192,144904,128,0,145071:0:0:0:0:
192,192,145071,1,2,0:0:0:0:
64,192,145239,128,8,145406:0:0:0:0:
448,192,145239,1,0,0:0:0:0:
192,192,145406,1,2,0:0:0:0:
320,192,145406,128,0,145742:0:0:0:0:
192,192,145742,1,8,0:0:0:0:
448,192,145825,1,8,0:0:0:0:
64,192,145909,1,8,0:0:0:0:
320,192,145993,1,2,0:0:0:0:
192,192,146077,1,2,0:0:0:0:
64,192,146161,1,2,0:0:0:0:
448,192,146244,128,0,146412:0:0:0:70:LR_Tom Normal.wav
192,192,146412,1,2,0:0:0:0:
64,192,146580,1,2,0:0:0:0:
320,192,146580,128,4,146915:0:0:0:0:
448,192,146580,1,0,0:0:0:0:
64,192,146915,128,8,147082:0:0:0:0:
192,192,146915,1,0,0:0:0:0:
448,192,147082,1,2,0:0:0:0:
64,192,147250,128,8,147418:0:0:0:0:
192,192,147250,1,0,0:0:0:0:
448,192,147418,1,2,0:0:0:0:
64,192,147585,128,8,147753:0:0:0:0:
192,192,147585,1,0,0:0:0:0:
448,192,147753,1,2,0:0:0:0:
64,192,147920,128,8,148088:0:0:0:0:
192,192,147920,1,0,0:0:0:0:
320,192,148088,1,2,0:0:0:0:
448,192,148088,1,4,0:0:0:0:
64,192,148256,1,0,0:0:0:0:
192,192,148423,1,2,0:0:0:0:
320,192,148591,1,8,0:0:0:0:
448,192,148591,128,0,148758:0:0:0:0:
64,192,148758,1,2,0:0:0:0:
192,192,148842,1,2,0:0:0:0:
320,192,148926,1,8,0:0:0:0:
448,192,148926,128,0,149094:0:0:0:0:
192,192,149094,1,2,0:0:0:0:
448,192,149261,128,8,149429:0:0:0:0:
64,192,149429,1,4,0:0:0:0:
192,192,149429,1,2,0:0:0:0:
320,192,149429,1,0,0:0:0:0:
320,192,149764,1,8,0:0:0:0:
192,192,149848,1,8,0:0:0:0:
64,192,149932,1,0,0:0:0:70:tom01.wav
448,192,150015,1,0,0:0:0:70:tom02.wav
320,192,150099,1,0,0:0:0:70:tom03.wav
192,192,150183,1,0,0:0:0:70:tom04.wav
320,192,150267,1,2,0:0:0:0:
448,192,150267,1,0,0:0:0:0:
192,192,150518,1,2,0:0:0:0:
320,192,150518,1,0,0:0:0:0:
64,192,150770,1,2,0:0:0:0:
192,192,150770,1,0,0:0:0:0:
64,192,150937,1,2,0:0:0:0:
320,192,150937,1,4,0:0:0:0:
448,192,150937,1,0,0:0:0:0:
192,192,151272,128,0,151607:0:0:0:0:
320,192,151607,128,0,151943:0:0:0:0:
64,192,152110,128,0,153451:0:0:0:0:
320,192,152781,1,2,0:0:0:0:
192,192,152864,1,2,0:0:0:0:
448,192,152948,1,8,0:0:0:0:
320,192,153116,1,2,0:0:0:0:
448,192,153283,1,0,0:0:0:70:LR_Tom Normal.wav
192,192,153451,128,2,153786:0:0:0:0:
448,192,153451,1,4,0:0:0:0:
64,192,153786,128,0,154959:0:0:0:0:
192,192,153954,1,8,0:0:0:0:
448,192,153954,1,0,0:0:0:0:
320,192,154289,1,2,0:0:0:0:
320,192,154457,1,2,0:0:0:0:
192,192,154624,1,8,0:0:0:0:
448,192,154624,1,0,0:0:0:0:
320,192,154792,1,2,0:0:0:0:
320,192,155127,128,2,155295:0:0:0:0:
192,192,155295,128,8,155462:0:0:0:0:
448,192,155295,1,0,0:0:0:0:
64,192,155462,128,0,155630:0:0:0:0:
320,192,155630,128,2,155797:0:0:0:0:
448,192,155797,128,2,155965:0:0:0:0:
64,192,155965,1,8,0:0:0:0:
192,192,155965,128,0,156133:0:0:0:0:
320,192,156133,128,0,156300:0:0:0:0:
64,192,156300,1,2,0:0:0:0:
448,192,156300,128,0,156635:0:0:0:0:
64,192,156635,1,8,0:0:0:0:
192,192,156635,128,0,156803:0:0:0:0:
320,192,156803,128,0,157138:0:0:0:0:
448,192,156971,1,2,0:0:0:0:
64,192,157138,128,2,157473:0:0:0:0:
320,192,157306,1,8,0:0:0:0:
448,192,157306,1,0,0:0:0:0:
192,192,157473,1,2,0:0:0:0:
448,192,157473,128,4,157809:0:0:0:0:
64,192,157641,1,0,0:0:0:0:
320,192,157809,128,2,157976:0:0:0:0:
192,192,157976,128,8,158144:0:0:0:0:
448,192,157976,1,0,0:0:0:0:
64,192,158144,128,2,158311:0:0:0:0:
320,192,158311,1,0,0:0:0:70:LR_Tom Normal.wav
448,192,158311,1,0,0:0:0:0:
320,192,158479,1,2,0:0:0:0:
64,192,158647,1,8,0:0:0:0:
192,192,158647,1,0,0:0:0:0:
64,192,158814,128,2,159149:0:0:0:0:
448,192,158814,1,4,0:0:0:0:
192,192,159149,1,0,0:0:0:70:LR_Tom Hit.wav
192,192,159317,1,8,0:0:0:0:
448,192,159317,1,0,0:0:0:70:LR_Tom Hit.wav
320,192,159485,128,0,159652:0:0:0:0:
192,192,159652,128,2,159820:0:0:0:0:
64,192,159820,1,2,0:0:0:0:
64,192,159987,128,8,160155:0:0:0:0:
320,192,159987,1,0,0:0:0:0:
192,192,160155,1,2,0:0:0:0:
448,192,160155,128,0,160490:0:0:0:0:
64,192,160490,128,2,160658:0:0:0:0:
192,192,160658,128,8,160825:0:0:0:0:
448,192,160658,1,0,0:0:0:0:
320,192,160825,128,0,161161:0:0:0:0:
64,192,160993,1,2,0:0:0:0:
192,192,161161,128,2,161328:0:0:0:0:
64,192,161328,1,8,0:0:0:0:
320,192,161328,128,0,161496:0:0:0:0:
192,192,161496,1,2,0:0:0:0:
448,192,161496,128,4,161831:0:0:0:0:
64,192,161831,128,2,161999:0:0:0:0:
320,192,161999,1,8,0:0:0:0:
448,192,161999,1,0,0:0:0:0:
64,192,162166,128,0,162501:0:0:0:0:
320,192,162334,1,2,0:0:0:0:
448,192,162501,128,2,162669:0:0:0:0:
64,192,162669,1,8,0:0:0:0:
192,192,162669,1,0,0:0:0:0:
64,192,162837,1,4,0:0:0:0:
448,192,162837,128,2,163172:0:0:0:0:
64,192,163172,128,0,163339:0:0:0:70:LR_Tom Normal.wav
192,192,163339,128,8,163507:0:0:0:0:
448,192,163339,1,0,0:0:0:70:LR_Tom Hit.wav
64,192,163507,1,2,0:0:0:0:
320,192,163507,128,0,163842:0:0:0:0:
64,192,163842,1,2,0:0:0:0:
192,192,163842,1,0,0:0:0:0:
448,192,163926,1,2,0:0:0:0:
192,192,164010,1,8,0:0:0:0:
448,192,164094,1,8,0:0:0:0:
192,192,164177,1,0,0:0:0:70:tom03.wav
320,192,164261,1,0,0:0:0:70:tom04.wav
64,192,164345,1,4,0:0:0:0:
448,192,164345,1,2,0:0:0:0:
320,192,164513,1,0,0:0:0:0:
64,192,164680,1,8,0:0:0:0:
192,192,164764,1,0,0:0:0:0:
320,192,164932,1,0,0:0:0:0:
448,192,165015,1,2,0:0:0:0:
64,192,165183,1,0,0:0:0:0:
192,192,165351,1,8,0:0:0:0:
448,192,165518,128,0,166188:0:0:0:0:
64,192,165686,1,2,0:0:0:0:
320,192,165853,128,0,166188:0:0:0:0:
64,192,166021,1,8,0:0:0:0:
192,192,166188,128,0,166859:0:0:0:0:
448,192,166356,1,2,0:0:0:0:
64,192,166524,128,0,166859:0:0:0:0:
448,192,166691,1,8,0:0:0:0:
320,192,166859,128,0,167026:0:0:0:0:
64,192,167026,1,2,0:0:0:0:
192,192,167026,1,4,0:0:0:0:
320,192,167194,128,0,167362:0:0:0:0:
192,192,167362,128,8,167529:0:0:0:0:
320,192,167529,128,0,167864:0:0:0:0:
448,192,167697,128,2,167864:0:0:0:0:
64,192,167864,128,0,168200:0:0:0:0:
192,192,168032,128,8,168200:0:0:0:0:
320,192,168200,128,0,168367:0:0:0:70:LR_Tom Normal.wav
448,192,168367,1,2,0:0:0:0:
192,192,168535,128,0,168702:0:0:0:0:
320,192,168702,1,8,0:0:0:0:
64,192,168870,128,4,169038:0:0:0:0:
448,192,168870,128,0,169038:0:0:0:0:
320,192,169038,1,2,0:0:0:0:
64,192,169205,1,8,0:0:0:0:
320,192,169289,1,8,0:0:0:0:
64,192,169373,1,2,0:0:0:0:
192,192,169540,1,2,0:0:0:0:
192,192,169708,128,2,169876:0:0:0:0:
448,192,169708,1,0,0:0:0:0:
320,192,169876,128,0,170043:0:0:0:0:
64,192,170043,128,8,170211:0:0:0:0:
448,192,170043,1,0,0:0:0:0:
192,192,170211,128,0,170546:0:0:0:0:
320,192,170378,1,2,0:0:0:0:
64,192,170546,128,0,170714:0:0:0:0:
192,192,170714,1,8,0:0:0:0:
448,192,170714,128,0,170881:0:0:0:0:
320,192,170881,128,0,171216:0:0:0:0:
64,192,171049,1,2,0:0:0:0:
192,192,171216,128,0,171552:0:0:0:0:
320,192,171384,1,8,0:0:0:0:
448,192,171384,1,0,0:0:0:0:
64,192,171552,128,0,171887:0:0:0:0:
192,192,171719,1,2,0:0:0:0:
320,192,171887,128,0,172222:0:0:0:0:
64,192,172054,1,8,0:0:0:0:
192,192,172054,1,0,0:0:0:0:
448,192,172222,128,0,172390:0:0:0:0:
64,192,172390,1,2,0:0:0:0:
192,192,172390,1,4,0:0:0:0:
192,192,172557,1,2,0:0:0:0:
64,192,172725,1,0,0:0:0:70:LR_Tom Hit.wav
320,192,172725,1,0,0:0:0:0:
192,192,172892,1,2,0:0:0:0:
320,192,173060,1,0,0:0:0:70:tom03.wav
448,192,173060,1,0,0:0:0:0:
192,192,173228,128,2,173395:0:0:0:0:
320,192,173395,1,0,0:0:0:70:LR_Tom Normal.wav
448,192,173395,1,0,0:0:0:0:
64,192,173563,1,4,0:0:0:0:
448,192,173563,128,2,174066:0:0:0:0:
64,192,173898,1,0,0:0:0:70:LR_Tom Hit.wav
192,192,173982,1,0,0:0:0:70:LR_Tom Hit.wav
320,192,174066,1,0,0:0:0:70:LR_Tom Normal.wav
192,192,174233,1,0,0:0:0:70:tom03.wav
64,192,174401,1,0,0:0:0:70:tom04.wav
448,192,174568,1,0,0:0:0:70:tom04.wav
320,192,174652,1,0,0:0:0:0:
192,192,174736,1,0,0:0:0:70:tom04.wav
64,192,174904,1,0,0:0:0:70:tom03.wav
64,192,175071,1,2,0:0:0:0:
320,192,175071,1,4,0:0:0:0:
448,192,175071,128,0,175406:0:0:0:0:
64,192,175406,1,8,0:0:0:0:
192,192,175406,128,0,175574:0:0:0:0:
320,192,175574,128,0,175742:0:0:0:0:
448,192,175742,1,2,0:0:0:0:
192,192,175909,128,0,176077:0:0:0:0:
64,192,176077,1,8,0:0:0:0:
320,192,176077,1,0,0:0:0:0:
448,192,176244,128,0,176580:0:0:0:0:
192,192,176412,1,2,0:0:0:0:
320,192,176580,1,0,0:0:0:0:
64,192,176747,1,8,0:0:0:0:
448,192,176747,128,0,176915:0:0:0:0:
64,192,176915,1,0,0:0:0:0:
320,192,177082,128,2,177250:0:0:0:0:
192,192,177250,1,0,0:0:0:0:
64,192,177418,128,8,177585:0:0:0:0:
448,192,177418,1,0,0:0:0:0:
320,192,177585,1,0,0:0:0:0:
64,192,177753,1,2,0:0:0:0:
192,192,177753,128,0,178088:0:0:0:0:
448,192,177753,1,0,0:0:0:0:
320,192,178088,1,8,0:0:0:0:
448,192,178088,128,0,178256:0:0:0:0:
64,192,178256,128,0,178758:0:0:0:0:
448,192,178423,1,2,0:0:0:0:
320,192,178591,1,0,0:0:0:0:
192,192,178758,1,8,0:0:0:0:
64,192,178926,1,8,0:0:0:0:
320,192,178926,1,0,0:0:0:0:
448,192,178926,1,0,0:0:0:0:
192,192,179094,1,2,0:0:0:0:
64,192,179261,1,2,0:0:0:0:
320,192,179429,1,8,0:0:0:0:
448,192,179429,1,0,0:0:0:0:
192,192,179596,1,4,0:0:0:0:
448,192,179596,1,2,0:0:0:0:
64,192,179764,1,0,0:0:0:0:
320,192,179848,1,0,0:0:0:0:
448,192,179932,1,0,0:0:0:70:LR_Tom Normal.wav
64,192,180099,1,2,0:0:0:0:
192,192,180183,1,2,0:0:0:0:
448,192,180267,1,0,0:0:0:70:tom02.wav
64,192,180434,128,2,180770:0:0:0:0:
192,192,180434,1,4,0:0:0:0:
320,192,180434,1,0,0:0:0:0:
192,192,180770,1,8,0:0:0:0:
448,192,180770,128,0,180937:0:0:0:0:
320,192,180937,128,0,181105:0:0:0:0:
64,192,181105,1,2,0:0:0:0:
192,192,181272,128,0,181440:0:0:0:0:
320,192,181440,1,8,0:0:0:0:
448,192,181440,1,0,0:0:0:0:
64,192,181607,128,0,181775:0:0:0:0:
320,192,181775,1,2,0:0:0:0:
448,192,181943,1,0,0:0:0:70:LR_Tom Normal.wav
64,192,182110,1,8,0:0:0:0:
192,192,182110,128,4,182445:0:0:0:0:
448,192,182110,1,0,0:0:0:0:
64,192,182445,1,2,0:0:0:0:
320,192,182445,128,4,182781:0:0:0:0:
448,192,182445,1,0,0:0:0:0:
64,192,182781,1,8,0:0:0:0:
192,192,182781,1,4,0:0:0:0:
448,192,182781,128,0,183116:0:0:0:0:
192,192,183283,1,2,0:0:0:0:
320,192,183367,1,2,0:0:0:0:
192,192,183451,1,0,0:0:0:70:tom02.wav
320,192,183619,1,0,0:0:0:70:tom03.wav
64,192,183786,1,2,0:0:0:0:
448,192,183954,1,0,0:0:0:0:
192,192,184121,1,8,0:0:0:0:
320,192,184121,1,0,0:0:0:0:
64,192,184289,1,4,0:0:0:0:
192,192,184289,1,2,0:0:0:0:
448,192,184289,1,0,0:0:0:0:
320,192,184624,1,8,0:0:0:0:
192,192,184708,1,8,0:0:0:0:
64,192,184792,1,0,0:0:0:70:tom03.wav
448,192,184876,1,0,0:0:0:70:tom04.wav
320,192,184959,1,0,0:0:0:70:LR_Tom Normal.wav
192,192,185043,1,0,0:0:0:70:LR_Tom Normal.wav
64,192,185127,128,8,185295:0:0:0:0:
448,192,185127,1,0,0:0:0:0:
320,192,185295,1,2,0:0:0:0:
192,192,185462,128,8,185630:0:0:0:0:
64,192,185630,1,2,0:0:0:0:
320,192,185630,1,0,0:0:0:0:
448,192,185630,128,0,186133:0:0:0:0:
64,192,186133,1,8,0:0:0:0:
192,192,186133,1,0,0:0:0:0:
320,192,186300,1,0,0:0:0:0:
448,192,186468,128,2,186635:0:0:0:0:
192,192,186635,1,0,0:0:0:0:
320,192,186803,128,8,186971:0:0:0:0:
448,192,186803,1,0,0:0:0:0:
64,192,186971,128,0,187473:0:0:0:0:
192,192,187138,1,2,0:0:0:0:
448,192,187306,1,0,0:0:0:0:
192,192,187473,1,8,0:0:0:0:
320,192,187473,1,0,0:0:0:0:
448,192,187641,1,0,0:0:0:0:
64,192,187809,128,2,187976:0:0:0:0:
192,192,187976,128,0,188144:0:0:0:0:
64,192,188144,1,8,0:0:0:0:
320,192,188144,128,0,188311:0:0:0:0:
448,192,188311,128,0,188479:0:0:0:0:
64,192,188479,1,2,0:0:0:0:
192,192,188479,128,0,188647:0:0:0:0:
320,192,188647,1,0,0:0:0:0:
192,192,188814,1,8,0:0:0:0:
448,192,188814,128,0,189149:0:0:0:0:
320,192,188982,128,0,189149:0:0:0:0:
64,192,189149,1,2,0:0:0:0:
192,192,189317,128,0,189485:0:0:0:0:
320,192,189485,128,8,189820:0:0:0:0:
448,192,189485,1,0,0:0:0:0:
64,192,189652,1,8,0:0:0:0:
192,192,189652,128,0,189820:0:0:0:0:
448,192,189820,1,2,0:0:0:0:
64,192,189987,1,8,0:0:0:0:
320,192,190071,1,8,0:0:0:0:
64,192,190155,1,2,0:0:0:0:
192,192,190239,1,0,0:0:0:70:LR_Tom Normal.wav
320,192,190323,1,0,0:0:0:70:tom03.wav
448,192,190406,1,0,0:0:0:70:tom04.wav
64,192,190490,1,2,0:0:0:0:
192,192,190490,1,0,0:0:0:0:
448,192,190658,1,0,0:0:0:70:LR_Tom Normal.wav
192,192,190825,1,2,0:0:0:0:
320,192,190825,1,0,0:0:0:0:
64,192,191161,1,2,0:0:0:0:
320,192,191161,128,4,191496:0:0:0:0:
448,192,191161,128,0,191496:0:0:0:0:
192,192,191496,1,8,0:0:0:0:
192,192,191663,128,2,191999:0:0:0:0:
320,192,191663,128,0,191999:0:0:0:0:
64,192,191999,1,8,0:0:0:0:
64,192,192166,128,4,192669:0:0:0:0:
192,192,192166,128,2,192669:0:0:0:0:
448,192,192166,1,0,0:0:0:0:
320,192,192669,1,2,0:0:0:0:
192,192,192837,1,8,0:0:0:0:
448,192,192837,1,0,0:0:0:0:
320,192,193004,1,2,0:0:0:0:
192,192,193088,1,2,0:0:0:0:
64,192,193172,1,2,0:0:0:0:
448,192,193172,1,0,0:0:0:0:
64,192,193423,1,8,0:0:0:0:
320,192,193423,1,0,0:0:0:70:LR_Tom Normal.wav
64,192,193675,1,8,0:0:0:0:
192,192,193675,1,0,0:0:0:70:tom01.wav
192,192,193842,1,4,0:0:0:0:
320,192,193842,1,2,0:0:0:0:
448,192,193842,1,0,0:0:0:0:
64,192,194010,1,2,0:0:0:0:
64,192,194177,1,8,0:0:0:0:
320,192,194177,1,0,0:0:0:0:
192,192,194345,1,2,0:0:0:0:
320,192,194429,1,2,0:0:0:0:
64,192,194513,1,8,0:0:0:0:
448,192,194513,1,0,0:0:0:0:
192,192,194680,1,2,0:0:0:0:
320,192,194848,1,8,0:0:0:0:
448,192,194848,1,0,0:0:0:0:
64,192,195015,1,2,0:0:0:0:
64,192,195183,1,4,0:0:0:0:
192,192,195183,1,2,0:0:0:0:
320,192,195183,1,0,0:0:0:0:
448,192,195351,1,2,0:0:0:0:
64,192,195518,1,8,0:0:0:0:
192,192,195518,1,0,0:0:0:0:
320,192,195686,1,2,0:0:0:0:
64,192,195853,1,8,0:0:0:0:
448,192,195853,1,0,0:0:0:0:
64,192,196021,1,8,0:0:0:0:
448,192,196021,1,0,0:0:0:70:LR_Tom Normal.wav
192,192,196188,1,8,0:0:0:0:
320,192,196188,1,0,0:0:0:70:LR_Tom Normal.wav
192,192,196356,1,8,0:0:0:0:
320,192,196356,1,0,0:0:0:70:LR_Tom Normal.wav
320,192,197864,128,0,198032:0:0:0:0:
192,192,198200,128,0,198367:0:0:0:0:
64,192,198535,128,0,199038:0:0:0:0:
448,192,198870,128,8,199038:0:0:0:0:
192,192,199038,1,8,0:0:0:0:
320,192,199121,1,8,0:0:0:0:
64,192,199205,1,10,0:0:0:0:
448,192,199205,1,4,0:0:0:0:
64,192,199373,1,8,0:0:0:0:
448,192,199373,1,0,0:0:0:0:
192,192,199876,128,0,200211:0:0:0:0:
320,192,200211,128,0,200546:0:0:0:0:
64,192,200546,1,2,0:0:0:0:
192,192,200546,1,4,0:0:0:0:
448,192,200546,128,0,201216:0:0:0:0:
64,192,200881,1,2,0:0:0:0:
192,192,201049,1,8,0:0:0:0:
320,192,201049,1,0,0:0:0:0:
64,192,201216,128,0,201384:0:0:0:0:
320,192,201384,1,0,0:0:0:70:tom01.wav
64,192,201552,128,0,201887:0:0:0:70:tom02.wav
192,192,201552,1,0,0:0:0:0:
192,192,201887,1,4,0:0:0:0:
320,192,201887,128,2,202222:0:0:0:0:
448,192,201887,128,0,202222:0:0:0:0:
64,192,202222,128,0,202557:0:0:0:0:
192,192,202557,128,4,202892:0:0:0:0:
320,192,202557,128,2,202892:0:0:0:0:
448,192,202557,1,0,0:0:0:0:
448,192,202892,128,0,203228:0:0:0:0:
64,192,203228,128,2,203563:0:0:0:0:
192,192,203228,128,4,203563:0:0:0:0:
320,192,203228,1,0,0:0:0:0:
448,192,203563,1,2,0:0:0:0:
64,192,203730,1,8,0:0:0:0:
320,192,203730,1,0,0:0:0:0:
192,192,203898,1,2,0:0:0:0:
320,192,204066,1,0,0:0:0:70:tom02.wav
192,192,204233,1,0,0:0:0:70:tom03.wav
64,192,204401,1,0,0:0:0:70:tom04.wav
64,192,204568,1,4,0:0:0:0:
320,192,204568,1,2,0:0:0:0:
448,192,204568,128,0,204904:0:0:0:0:
64,192,204904,1,2,0:0:0:0:
192,192,205071,1,0,0:0:0:70:tom02.wav
64,192,205239,1,2,0:0:0:0:
320,192,205406,1,8,0:0:0:0:
192,192,205490,1,8,0:0:0:0:
64,192,205574,1,8,0:0:0:0:
448,192,205574,1,0,0:0:0:70:LR_Tom Normal.wav
320,192,205742,1,8,0:0:0:0:
64,192,205909,128,2,206244:0:0:0:0:
320,192,205909,1,4,0:0:0:0:
448,192,205909,1,0,0:0:0:0:
192,192,206077,1,0,0:0:0:0:
448,192,206244,1,2,0:0:0:0:
320,192,206412,1,8,0:0:0:0:
64,192,206580,1,2,0:0:0:0:
448,192,206580,128,0,206915:0:0:0:0:
192,192,206747,1,8,0:0:0:0:
64,192,206915,1,8,0:0:0:0:
448,192,207082,1,8,0:0:0:0:
320,192,207166,1,0,0:0:0:0:
64,192,207250,128,2,207585:0:0:0:0:
192,192,207250,1,0,0:0:0:0:
320,192,207753,128,0,207920:0:0:0:0:
192,192,207920,128,0,208256:0:0:0:0:
64,192,208256,128,8,208423:0:0:0:0:
320,192,208423,128,2,208758:0:0:0:0:
448,192,208423,128,4,208758:0:0:0:0:
64,192,208758,1,8,0:0:0:0:
192,192,208842,1,8,0:0:0:0:
320,192,208926,128,0,209094:0:0:0:70:tom02.wav
192,192,209094,1,0,0:0:0:70:LR_Tom Normal.wav
448,192,209261,128,0,209429:0:0:0:70:tom03.wav
64,192,209345,1,2,0:0:0:0:
192,192,209429,1,2,0:0:0:0:
320,192,209513,1,2,0:0:0:0:
64,192,209596,1,0,0:0:0:70:tom01.wav
448,192,209596,128,0,209932:0:0:0:0:
64,192,209932,128,2,210267:0:0:0:0:
192,192,209932,128,4,210267:0:0:0:0:
320,192,209932,1,0,0:0:0:0:
320,192,210267,1,8,0:0:0:0:
448,192,210267,1,0,0:0:0:0:
192,192,210434,1,0,0:0:0:0:
64,192,210602,128,2,210770:0:0:0:0:
320,192,210602,1,0,0:0:0:0:
448,192,210770,1,0,0:0:0:0:
64,192,210937,1,8,0:0:0:0:
192,192,210937,128,0,211105:0:0:0:0:
448,192,211105,1,0,0:0:0:0:
320,192,211188,1,0,0:0:0:0:
64,192,211272,128,2,211607:0:0:0:0:
192,192,211272,128,0,211607:0:0:0:0:
320,192,211607,1,8,0:0:0:0:
448,192,211607,1,0,0:0:0:0:
192,192,211775,1,0,0:0:0:0:
64,192,211943,128,2,212110:0:0:0:0:
320,192,211943,1,0,0:0:0:0:
192,192,212110,1,0,0:0:0:0:
64,192,212278,1,8,0:0:0:0:
448,192,212278,128,0,212445:0:0:0:0:
320,192,212445,1,0,0:0:0:0:
64,192,212613,128,2,212948:0:0:0:0:
192,192,212613,1,4,0:0:0:0:
448,192,212613,128,0,212948:0:0:0:0:
192,192,212948,1,8,0:0:0:0:
320,192,212948,1,0,0:0:0:0:
64,192,213116,128,2,213283:0:0:0:0:
320,192,213283,1,8,0:0:0:0:
448,192,213283,128,0,213451:0:0:0:0:
192,192,213451,1,2,0:0:0:0:
64,192,213619,128,8,213786:0:0:0:0:
320,192,213619,1,0,0:0:0:0:
192,192,213786,1,2,0:0:0:0:
448,192,213786,128,0,214121:0:0:0:0:
64,192,214121,1,8,0:0:0:0:
320,192,214205,1,8,0:0:0:0:
192,192,214289,1,0,0:0:0:70:LR_Tom Hit.wav
320,192,214457,1,2,0:0:0:0:
192,192,214540,1,2,0:0:0:0:
64,192,214624,1,0,0:0:0:70:tom03.wav
448,192,214624,128,0,214792:0:0:0:0:
192,192,214792,128,2,214959:0:0:0:0:
64,192,214959,128,8,215295:0:0:0:0:
320,192,214959,1,0,0:0:0:0:
448,192,214959,1,0,0:0:0:0:
320,192,215295,128,2,215630:0:0:0:0:
448,192,215295,128,0,215630:0:0:0:0:
64,192,215630,1,8,0:0:0:0:
192,192,215630,1,0,0:0:0:0:
320,192,215797,1,0,0:0:0:0:
64,192,215965,1,2,0:0:0:0:
448,192,215965,128,0,216300:0:0:0:0:
192,192,216133,128,0,216300:0:0:0:0:
64,192,216300,1,8,0:0:0:0:
320,192,216300,1,0,0:0:0:0:
192,192,216468,128,0,216635:0:0:0:0:
448,192,216468,128,0,216635:0:0:0:0:
320,192,216635,1,2,0:0:0:0:
64,192,216803,1,0,0:0:0:0:
320,192,216971,1,8,0:0:0:0:
448,192,216971,1,0,0:0:0:0:
64,192,217138,128,0,217473:0:0:0:0:
192,192,217306,128,2,217473:0:0:0:0:
320,192,217306,1,0,0:0:0:0:
448,192,217473,1,8,0:0:0:0:
64,192,217641,128,8,217809:0:0:0:0:
192,192,217641,128,0,217809:0:0:0:0:
320,192,217809,128,4,218311:0:0:0:0:
448,192,217809,128,2,218311:0:0:0:0:
192,192,218311,1,8,0:0:0:0:
448,192,218479,1,2,0:0:0:0:
64,192,218563,1,2,0:0:0:0:
192,192,218647,1,8,0:0:0:0:
320,192,218647,128,0,218814:0:0:0:70:tom01.wav
448,192,218814,128,2,218982:0:0:0:0:
64,192,218982,1,8,0:0:0:0:
192,192,218982,1,0,0:0:0:70:tom02.wav
320,192,219149,1,4,0:0:0:0:
448,192,219149,1,2,0:0:0:0:
320,192,219485,1,8,0:0:0:0:
192,192,219652,1,8,0:0:0:0:
64,192,219820,1,2,0:0:0:0:
448,192,219820,1,0,0:0:0:0:
320,192,219987,1,8,0:0:0:0:
192,192,220071,1,8,0:0:0:0:
64,192,220155,1,0,0:0:0:70:tom01.wav
448,192,220323,1,0,0:0:0:70:tom02.wav
320,192,220406,1,0,0:0:0:70:tom02.wav
192,192,220490,1,0,0:0:0:70:tom03.wav
64,192,220658,1,2,0:0:0:0:
320,192,220658,1,0,0:0:0:0:
448,192,220658,128,0,220825:0:0:0:0:
192,192,220825,1,2,0:0:0:0:
320,192,220993,1,8,0:0:0:0:
448,192,220993,128,0,221161:0:0:0:0:
64,192,221161,1,2,0:0:0:0:
320,192,221328,1,8,0:0:0:0:
448,192,221328,128,0,221496:0:0:0:0:
192,192,221496,1,2,0:0:0:0:
320,192,221663,1,8,0:0:0:0:
448,192,221663,128,0,221831:0:0:0:0:
64,192,221831,1,6,0:0:0:0:
192,192,221999,1,0,0:0:0:0:
448,192,222166,1,2,0:0:0:0:
64,192,222334,128,8,222501:0:0:0:0:
192,192,222334,1,0,0:0:0:0:
448,192,222501,1,2,0:0:0:0:
320,192,222585,1,2,0:0:0:0:
64,192,222669,128,8,222837:0:0:0:0:
192,192,222669,1,0,0:0:0:0:
320,192,222837,1,2,0:0:0:0:
192,192,223004,1,8,0:0:0:0:
448,192,223004,1,0,0:0:0:0:
64,192,223172,128,2,223507:0:0:0:0:
320,192,223172,128,4,223507:0:0:0:0:
448,192,223507,1,8,0:0:0:0:
192,192,223591,1,8,0:0:0:0:
448,192,223675,1,0,0:0:0:70:tom01.wav
192,192,223758,1,0,0:0:0:70:tom02.wav
320,192,223842,1,0,0:0:0:70:tom03.wav
192,192,223926,1,0,0:0:0:70:tom04.wav
64,192,224010,1,2,0:0:0:0:
448,192,224010,1,4,0:0:0:0:
192,192,224261,1,4,0:0:0:0:
448,192,224261,1,2,0:0:0:0:
192,192,224513,1,2,0:0:0:0:
320,192,224513,1,4,0:0:0:0:
64,192,224680,1,2,0:0:0:0:
320,192,224680,128,4,225015:0:0:0:0:
448,192,224680,128,0,225015:0:0:0:0:
64,192,225015,128,0,225351:0:0:0:0:
192,192,225351,128,8,225686:0:0:0:0:
448,192,225518,1,2,0:0:0:0:
320,192,225686,128,8,225853:0:0:0:0:
448,192,225853,128,0,226859:0:0:0:0:
64,192,226021,1,2,0:0:0:0:
192,192,226021,1,4,0:0:0:0:
64,192,226356,1,8,0:0:0:0:
320,192,226356,1,0,0:0:0:0:
64,192,226524,1,0,0:0:0:0:
192,192,226691,1,2,0:0:0:0:
320,192,226859,1,0,0:0:0:0:
192,192,227026,1,8,0:0:0:0:
448,192,227026,128,0,227194:0:0:0:0:
64,192,227194,128,0,227362:0:0:0:0:
192,192,227362,128,2,227697:0:0:0:0:
320,192,227362,1,0,0:0:0:0:
320,192,227697,1,8,0:0:0:0:
448,192,227697,1,0,0:0:0:0:
64,192,227809,1,0,0:0:0:0:
448,192,227920,1,0,0:0:0:0:
192,192,228032,128,2,228367:0:0:0:0:
64,192,228200,1,0,0:0:0:0:
320,192,228367,128,8,228702:0:0:0:0:
448,192,228367,1,0,0:0:0:0:
64,192,228535,1,0,0:0:0:0:
64,192,228702,128,2,229038:0:0:0:0:
448,192,228702,1,0,0:0:0:0:
192,192,229038,128,8,229373:0:0:0:0:
320,192,229038,1,0,0:0:0:0:
448,192,229205,1,0,0:0:0:0:
64,192,229373,128,2,229708:0:0:0:0:
448,192,229373,1,0,0:0:0:0:
320,192,229540,1,0,0:0:0:0:
192,192,229708,1,8,0:0:0:0:
448,192,229708,1,0,0:0:0:0:
64,192,229876,1,0,0:0:0:0:
192,192,229959,1,0,0:0:0:0:
320,192,230043,1,2,0:0:0:0:
448,192,230043,128,4,230378:0:0:0:0:
64,192,230378,128,8,230714:0:0:0:0:
192,192,230378,1,0,0:0:0:0:
320,192,230546,1,0,0:0:0:0:
192,192,230714,1,2,0:0:0:0:
448,192,230714,128,0,231049:0:0:0:0:
64,192,230881,1,8,0:0:0:0:
320,192,230965,1,8,0:0:0:0:
192,192,231049,1,8,0:0:0:0:
64,192,231216,1,0,0:0:0:70:tom02.wav
64,192,231384,1,4,0:0:0:0:
320,192,231384,1,2,0:0:0:0:
448,192,231384,128,0,231719:0:0:0:0:
64,192,231719,1,8,0:0:0:0:
192,192,231719,128,0,232054:0:0:0:0:
448,192,231887,1,0,0:0:0:0:
320,192,232054,128,2,232390:0:0:0:0:
448,192,232222,1,0,0:0:0:0:
64,192,232390,128,8,232725:0:0:0:0:
192,192,232390,1,0,0:0:0:0:
320,192,232557,1,0,0:0:0:0:
320,192,232725,1,2,0:0:0:0:
448,192,232725,128,0,233060:0:0:0:0:
64,192,233060,1,8,0:0:0:0:
192,192,233060,1,0,0:0:0:0:
448,192,233172,1,0,0:0:0:0:
64,192,233283,1,0,0:0:0:0:
320,192,233395,128,2,233730:0:0:0:0:
64,192,233563,1,0,0:0:0:0:
192,192,233730,128,8,234066:0:0:0:0:
448,192,233730,1,0,0:0:0:0:
320,192,233898,1,0,0:0:0:70:tom03.wav
448,192,233982,1,0,0:0:0:70:tom03.wav
64,192,234066,128,2,234401:0:0:0:0:
320,192,234066,1,4,0:0:0:0:
192,192,234401,1,8,0:0:0:0:
448,192,234401,1,0,0:0:0:0:
320,192,234568,1,0,0:0:0:0:
64,192,234736,1,2,0:0:0:0:
320,192,234736,128,0,235071:0:0:0:0:
64,192,235071,1,8,0:0:0:0:
192,192,235071,1,0,0:0:0:0:
320,192,235239,1,0,0:0:0:0:
64,192,235406,1,4,0:0:0:0:
192,192,235406,1,2,0:0:0:0:
448,192,235406,1,0,0:0:0:0:
320,192,235574,1,8,0:0:0:0:
192,192,235658,1,8,0:0:0:0:
64,192,235742,1,2,0:0:0:0:
320,192,235909,1,8,0:0:0:0:
448,192,236077,1,0,0:0:0:70:tom02.wav
64,192,236161,1,2,0:0:0:0:
192,192,236244,1,8,0:0:0:0:
64,192,236412,1,0,0:0:0:70:tom03.wav
448,192,236496,1,2,0:0:0:0:
320,192,236580,1,0,0:0:0:70:tom04.wav
192,192,236663,1,0,0:0:0:70:tom04.wav
64,192,236747,128,2,237082:0:0:0:0:
448,192,236747,128,4,237418:0:0:0:0:
192,192,237082,128,0,237753:0:0:0:0:
320,192,237418,128,0,237753:0:0:0:0:
448,192,237753,128,0,238088:0:0:0:0:
64,192,238088,128,0,238423:0:0:0:0:
448,192,238423,128,0,238535:0:0:0:0:
320,192,238535,128,0,238647:0:0:0:0:
192,192,238647,128,0,238758:0:0:0:0:
64,192,238758,128,0,239094:0:0:0:0:
448,192,239094,128,0,239429:0:0:0:0:
192,192,239429,128,0,239764:0:0:0:0:
320,192,239429,128,0,240099:0:0:0:0:
64,192,239764,128,0,240434:0:0:0:0:
448,192,240099,128,0,240434:0:0:0:0:
192,192,240434,128,0,240770:0:0:0:0:
320,192,240770,128,0,241105:0:0:0:0:
64,192,241105,128,0,241216:0:0:0:0:
192,192,241216,128,0,241328:0:0:0:0:
320,192,241328,128,0,241440:0:0:0:0:
448,192,241440,128,0,241775:0:0:0:0:
64,192,241775,128,0,244121:0:0:0:0:
