osu file format v14

[General]
AudioFilename: audio.mp3
AudioLeadIn: 0
PreviewTime: 24457
Countdown: 0
SampleSet: Soft
StackLeniency: 0.4
Mode: 0
LetterboxInBreaks: 0
WidescreenStoryboard: 0

[Editor]
Bookmarks: 24520,64520,104520,112520,128520,144520,160520,168520,208520,212520,228520,244520,260520,276520
DistanceSpacing: 0.5
BeatDivisor: 4
GridSize: 4
TimelineZoom: 1.3

[Metadata]
Title:The Girl in Byakkoya
TitleUnicode:白虎野の娘
Artist:Susumu Hirasawa
ArtistUnicode:平沢進
Creator:Pata-Mon
Version:Gust's Insane
Source:パプリカ
Tags:Gust Ultimate Madoka Firika Japanese Byakkoya no Museme Paprika 今敏 Kon Satoshi Anime Ending ed theme song vocaloid lola
BeatmapID:1885024
BeatmapSetID:770240

[Difficulty]
HPDrainRate:6
CircleSize:3.8
OverallDifficulty:7
ApproachRate:8
SliderMultiplier:2.39999990463257
SliderTickRate:1

[Events]
//Background and Video events
0,0,"BG.jpg",0,0
//Break Periods
2,104720,111020
2,144720,159270
2,208720,211020
//Storyboard Layer 0 (Background)
//Storyboard Layer 1 (Fail)
//Storyboard Layer 2 (Pass)
//Storyboard Layer 3 (Foreground)
//Storyboard Layer 4 (Overlay)
//Storyboard Sound Samples

[TimingPoints]
520,500,4,2,6,15,1,0
8520,-100,4,2,6,25,0,0
16520,-100,4,2,6,30,0,0
23770,-100,4,2,1,40,0,0
24520,-83.3333333333333,4,2,1,40,0,0
56520,-83.3333333333333,4,2,1,50,0,0
64520,-83.3333333333333,4,2,1,40,0,0
96520,-83.3333333333333,4,2,1,50,0,0
104520,-83.3333333333333,4,2,6,25,0,0
111770,-83.3333333333333,4,2,1,50,0,0
112520,-71.4285714285714,4,2,2,50,0,1
112770,-71.4285714285714,4,2,1,50,0,1
120520,-71.4285714285714,4,2,4,50,0,1
120770,-71.4285714285714,4,2,1,50,0,1
126520,-71.4285714285714,4,2,2,50,0,1
127020,-71.4285714285714,4,2,5,50,0,1
127520,-71.4285714285714,4,2,2,50,0,1
128020,-71.4285714285714,4,2,1,50,0,0
128520,-71.4285714285714,4,2,2,50,0,1
128770,-71.4285714285714,4,2,1,50,0,1
136520,-71.4285714285714,4,2,4,50,0,1
136770,-71.4285714285714,4,2,1,50,0,1
142520,-71.4285714285714,4,2,2,50,0,1
143020,-71.4285714285714,4,2,5,50,0,1
143520,-71.4285714285714,4,2,2,50,0,1
144020,-71.4285714285714,4,2,1,50,0,1
144520,-100,4,2,1,40,0,0
160020,-100,4,2,6,25,0,0
167770,-100,4,2,1,40,0,0
168520,-83.3333333333333,4,2,1,40,0,0
200520,-83.3333333333333,4,2,1,50,0,0
208520,-83.3333333333333,4,2,6,25,0,0
211770,-83.3333333333333,4,2,1,50,0,0
212520,-71.4285714285714,4,2,2,50,0,1
212770,-71.4285714285714,4,2,1,50,0,1
220520,-71.4285714285714,4,2,4,50,0,1
220770,-71.4285714285714,4,2,1,50,0,1
226520,-71.4285714285714,4,2,2,50,0,1
227020,-71.4285714285714,4,2,5,50,0,1
227520,-71.4285714285714,4,2,2,50,0,1
228020,-71.4285714285714,4,2,1,50,0,0
228520,-71.4285714285714,4,2,2,50,0,1
228770,-71.4285714285714,4,2,1,50,0,1
236520,-71.4285714285714,4,2,4,50,0,1
236770,-71.4285714285714,4,2,1,50,0,1
242520,-71.4285714285714,4,2,2,50,0,1
243020,-71.4285714285714,4,2,5,50,0,1
243520,-71.4285714285714,4,2,2,50,0,1
244020,-71.4285714285714,4,2,1,50,0,0
244520,-66.6666666666667,4,2,2,60,0,1
244770,-66.6666666666667,4,2,1,60,0,1
246520,-66.6666666666667,4,2,3,60,0,1
246895,-66.6666666666667,4,2,1,60,0,1
248520,-66.6666666666667,4,2,4,60,0,1
248895,-66.6666666666667,4,2,1,60,0,1
250520,-66.6666666666667,4,2,5,60,0,1
251020,-66.6666666666667,4,2,1,60,0,1
252520,-66.6666666666667,4,2,4,60,0,1
252770,-66.6666666666667,4,2,1,60,0,1
254520,-66.6666666666667,4,2,5,60,0,1
254770,-66.6666666666667,4,2,1,60,0,1
256520,-66.6666666666667,4,2,2,60,0,1
256770,-66.6666666666667,4,2,1,60,0,1
258520,-66.6666666666667,4,2,2,60,0,1
259020,-66.6666666666667,4,2,5,60,0,1
259520,-66.6666666666667,4,2,2,60,0,1
260020,-66.6666666666667,4,2,1,60,0,0
260520,-66.6666666666667,4,2,2,60,0,1
260770,-66.6666666666667,4,2,1,60,0,1
262520,-66.6666666666667,4,2,3,60,0,1
262770,-66.6666666666667,4,2,1,60,0,1
264520,-66.6666666666667,4,2,4,60,0,1
264770,-66.6666666666667,4,2,1,60,0,1
266520,-66.6666666666667,4,2,5,60,0,1
267020,-66.6666666666667,4,2,1,60,0,1
268520,-66.6666666666667,4,2,4,60,0,1
268770,-66.6666666666667,4,2,1,60,0,1
270520,-66.6666666666667,4,2,5,60,0,1
270770,-66.6666666666667,4,2,1,60,0,1
272520,-66.6666666666667,4,2,2,60,0,1
272770,-66.6666666666667,4,2,1,60,0,1
274520,-66.6666666666667,4,2,2,60,0,1
275020,-66.6666666666667,4,2,5,60,0,1
275520,-66.6666666666667,4,2,2,60,0,1
276520,-100,4,2,6,30,0,0
276645,-100,4,2,6,25,0,0
276770,-100,4,2,6,15,0,0
280520,-100,4,2,6,20,0,0
284270,-100,4,2,0,5,0,0

[Colours]
Combo1 : 255,128,0
Combo2 : 0,239,0
Combo3 : 0,128,255
Combo4 : 239,0,0
Combo5 : 255,223,0
Combo6 : 128,0,255

[HitObjects]
68,136,520,6,0,P|71:168|100:206,2,59.9999976158143,2|0|0,0:0|0:0|0:0,0:0:0:0:
74,51,895,1,0,0:0:0:0:
74,51,1020,2,0,P|44:53|17:67,2,59.9999976158143,0|0|0,0:0|0:0|0:0,0:0:0:0:
158,59,1395,1,0,0:0:0:0:
158,59,1520,2,0,P|156:27|142:0,2,59.9999976158143,0|0|0,0:0|0:0|0:0,0:0:0:0:
151,143,1895,1,0,0:0:0:0:
151,143,2020,2,0,P|180:140|207:126,2,59.9999976158143,0|0|0,0:0|0:0|0:0,0:0:0:0:
168,228,2395,1,0,0:0:0:0:
168,228,2520,6,0,L|108:288,3,59.9999976158143,2|0|0|0,0:0|0:0|0:0|0:0,0:0:0:0:
204,328,3020,2,0,L|144:352,3,59.9999976158143,0|0|0|0,0:0|0:0|0:0|0:0,0:0:0:0:
308,328,3520,2,0,L|368:352,3,59.9999976158143,2|0|0|0,0:0|0:0|0:0|0:0,0:0:0:0:
344,228,4020,2,0,L|404:288,3,59.9999976158143,0|0|0|0,0:0|0:0|0:0|0:0,0:0:0:0:
444,136,4520,6,0,P|441:168|412:206,2,59.9999976158143,2|0|0,0:0|0:0|0:0,0:0:0:0:
438,51,4895,1,0,0:0:0:0:
438,51,5020,2,0,P|468:53|495:67,2,59.9999976158143,0|0|0,0:0|0:0|0:0,0:0:0:0:
354,59,5395,1,0,0:0:0:0:
354,59,5520,2,0,P|356:27|370:0,2,59.9999976158143,0|0|0,0:0|0:0|0:0,0:0:0:0:
361,143,5895,1,0,0:0:0:0:
361,143,6020,2,0,P|332:140|305:126,2,59.9999976158143,0|0|0,0:0|0:0|0:0,0:0:0:0:
344,228,6395,1,0,0:0:0:0:
344,228,6520,6,0,L|404:288,3,59.9999976158143,2|0|0|0,0:0|0:0|0:0|0:0,0:0:0:0:
308,328,7020,2,0,L|368:352,3,59.9999976158143,0|0|0|0,0:0|0:0|0:0|0:0,0:0:0:0:
204,328,7520,2,0,L|144:352,3,59.9999976158143,2|0|0|0,0:0|0:0|0:0|0:0,0:0:0:0:
168,228,8020,2,0,L|108:288,3,59.9999976158143,0|0|0|0,0:0|0:0|0:0|0:0,0:0:0:0:
84,192,8520,6,0,P|120:112|104:56,1,119.999995231629,2|2,0:0|0:0,0:0:0:0:
115,82,9020,2,0,L|200:72,2,59.9999976158143,2|0|2,0:0|0:0|0:0,0:0:0:0:
256,176,9520,2,0,L|341:166,2,59.9999976158143,2|0|2,0:0|0:0|0:0,0:0:0:0:
397,270,10020,2,0,L|456:262,1,59.9999976158143,2|0,0:0|0:0,0:0:0:0:
455,344,10270,2,0,L|396:352,1,59.9999976158143,2|0,0:0|0:0,0:0:0:0:
325,310,10520,6,0,L|276:320,5,39.9999984105428,2|0|0|0|0|0,0:0|0:0|0:0|0:0|0:0|0:0,0:0:0:0:
259,299,11020,2,0,L|180:316,3,59.9999976158143,2|0|0|0,0:0|0:0|0:0|0:0,0:0:0:0:
157,288,11520,2,0,L|20:320,1,119.999995231629,2|0,0:0|0:0,0:0:0:0:
355,288,12020,2,0,L|471:315,1,119.999995231629,2|0,0:0|0:0,0:0:0:0:
428,192,12520,6,0,P|392:112|408:56,1,119.999995231629,2|2,0:0|0:0,0:0:0:0:
397,82,13020,2,0,L|312:72,2,59.9999976158143,2|0|2,0:0|0:0|0:0,0:0:0:0:
256,176,13520,2,0,L|171:166,2,59.9999976158143,2|0|2,0:0|0:0|0:0,0:0:0:0:
115,270,14020,2,0,L|56:262,1,59.9999976158143,2|0,0:0|0:0,0:0:0:0:
57,344,14270,2,0,L|116:352,1,59.9999976158143,2|0,0:0|0:0,0:0:0:0:
187,310,14520,6,0,L|236:320,5,39.9999984105428,2|0|0|0|0|0,0:0|0:0|0:0|0:0|0:0|0:0,0:0:0:0:
253,299,15020,2,0,L|332:316,3,59.9999976158143,2|0|0|0,0:0|0:0|0:0|0:0,0:0:0:0:
355,288,15520,2,0,L|492:320,1,119.999995231629,2|0,0:0|0:0,0:0:0:0:
157,288,16020,2,0,L|20:320,1,119.999995231629,2|0,0:0|0:0,0:0:0:0:
67,101,16520,5,6,0:0:0:0:
67,101,16645,1,0,0:0:0:0:
67,100,16770,2,0,L|183:72,1,119.999995231629,2|2,0:0|0:0,0:0:0:0:
183,73,17270,2,0,P|220:138|230:143,1,59.9999976158143,2|0,0:0|0:0,0:0:0:0:
313,117,17520,5,6,0:0:0:0:
313,117,17645,1,0,0:0:0:0:
313,117,17770,2,0,P|350:182|360:187,1,59.9999976158143,2|0,0:0|0:0,0:0:0:0:
381,240,18020,2,0,P|404:220|417:193,1,59.9999976158143,2|0,0:0|0:0,0:0:0:0:
253,189,18270,2,0,P|290:254|300:259,1,59.9999976158143,2|0,0:0|0:0,0:0:0:0:
325,310,18520,6,0,L|276:320,5,39.9999984105428,6|0|0|0|0|0,0:0|0:0|0:0|0:0|0:0|0:0,0:0:0:0:
259,299,19020,2,0,L|180:316,3,59.9999976158143,2|0|0|0,0:0|0:0|0:0|0:0,0:0:0:0:
157,288,19520,2,0,L|20:320,1,119.999995231629,2|0,0:0|0:0,0:0:0:0:
355,288,20020,2,0,L|471:315,1,119.999995231629,2|0,0:0|0:0,0:0:0:0:
445,101,20520,5,6,0:0:0:0:
445,101,20645,1,0,0:0:0:0:
445,100,20770,2,0,L|328:72,1,119.999995231629,2|2,0:0|0:0,0:0:0:0:
329,73,21270,2,0,P|292:138|282:143,1,59.9999976158143,2|0,0:0|0:0,0:0:0:0:
199,117,21520,5,6,0:0:0:0:
199,117,21645,1,0,0:0:0:0:
199,117,21770,2,0,P|162:182|152:187,1,59.9999976158143,2|0,0:0|0:0,0:0:0:0:
130,240,22020,2,0,P|107:220|94:193,1,59.9999976158143,6|0,0:0|0:0,0:0:0:0:
259,189,22270,2,0,P|222:254|212:259,1,59.9999976158143,2|0,0:0|0:0,0:0:0:0:
187,310,22520,6,0,L|236:320,5,39.9999984105428,6|0|0|0|0|0,0:0|0:0|0:0|0:0|0:0|0:0,0:0:0:0:
253,299,23020,2,0,L|332:316,3,59.9999976158143,2|0|0|0,0:0|0:0|0:0|0:0,0:0:0:0:
355,288,23520,2,0,L|434:305,1,59.9999976158143,2|0,0:0|0:0,0:0:0:0:
401,216,23770,5,8,0:0:0:0:
426,135,23895,1,8,0:0:0:0:
344,154,24020,1,8,0:0:0:0:
111,216,24270,5,8,0:0:0:0:
86,135,24395,1,8,0:0:0:0:
168,154,24520,6,0,P|204:150|253:115,1,71.9999949417116,2|0,0:0|0:0,0:0:0:0:
281,60,24770,2,0,L|209:49,1,71.9999949417116,8|0,0:0|0:0,0:0:0:0:
388,127,25020,2,0,L|317:138,1,71.9999949417116,2|0,0:0|0:0,0:0:0:0:
478,53,25270,2,0,L|407:43,1,71.9999949417116,8|0,0:0|0:0,0:0:0:0:
317,138,25520,6,0,P|333:169|337:205,1,71.9999949417116,2|0,0:0|0:0,0:0:0:0:
278,287,25770,2,0,P|261:255|257:219,1,71.9999949417116,8|0,0:0|0:0,0:0:0:0:
420,213,26020,2,0,P|436:244|440:280,1,71.9999949417116,2|0,0:0|0:0,0:0:0:0:
381,362,26270,2,0,P|364:330|360:294,1,71.9999949417116,8|0,0:0|0:0,0:0:0:0:
256,219,26520,6,0,L|209:227,5,47.9999966278078,2|0|0|8|0|0,0:0|0:0|0:0|0:0|0:0|0:0,0:0:0:0:
164,247,27020,2,0,L|87:223,3,71.9999949417116,2|0|8|0,0:0|0:0|0:0|0:0,0:0:0:0:
136,148,27520,2,0,L|59:124,1,71.9999949417116,2|0,0:0|0:0,0:0:0:0:
39,27,27770,2,0,L|108:49,1,71.9999949417116,8|0,0:0|0:0,0:0:0:0:
204,80,28020,5,2,0:0:0:0:
235,63,28145,1,0,0:0:0:0:
270,56,28270,1,2,0:0:0:0:
306,59,28395,1,2,0:0:0:0:
340,71,28520,6,0,P|376:67|425:32,1,71.9999949417116,2|0,0:0|0:0,0:0:0:0:
468,112,28770,2,0,P|453:145|459:205,1,71.9999949417116,8|0,0:0|0:0,0:0:0:0:
368,202,29020,2,0,P|346:172|291:147,1,71.9999949417116,2|0,0:0|0:0,0:0:0:0:
232,173,29270,2,0,P|212:202|204:237,1,71.9999949417116,8|0,0:0|0:0,0:0:0:0:
267,296,29520,6,0,L|352:276,1,71.9999949417116,2|0,0:0|0:0,0:0:0:0:
411,348,29770,2,0,L|340:364,1,71.9999949417116,8|0,0:0|0:0,0:0:0:0:
218,364,30020,2,0,L|147:380,1,71.9999949417116,2|0,0:0|0:0,0:0:0:0:
74,312,30270,2,0,L|159:292,1,71.9999949417116,8|0,0:0|0:0,0:0:0:0:
256,219,30520,6,0,L|303:227,5,47.9999966278078,2|0|0|8|0|0,0:0|0:0|0:0|0:0|0:0|0:0,0:0:0:0:
348,247,31020,2,0,L|425:223,3,71.9999949417116,2|0|8|0,0:0|0:0|0:0|0:0,0:0:0:0:
376,148,31520,2,0,L|453:124,1,71.9999949417116,2|0,0:0|0:0,0:0:0:0:
473,27,31770,2,0,L|404:49,1,71.9999949417116,8|0,0:0|0:0,0:0:0:0:
308,80,32020,5,2,0:0:0:0:
277,63,32145,1,0,0:0:0:0:
242,56,32270,1,2,0:0:0:0:
206,59,32395,1,2,0:0:0:0:
172,71,32520,6,0,L|12:58,2,143.999989883423,2|8|2,0:0|0:0|0:0,0:0:0:0:
220,143,33145,1,0,0:0:0:0:
220,143,33270,2,0,P|214:178|176:225,1,71.9999949417116,8|0,0:0|0:0,0:0:0:0:
38,248,33520,2,0,P|62:182|127:154,1,143.999989883423,2|8,0:0|0:0,0:0:0:0:
291,216,33895,1,0,0:0:0:0:
291,216,34020,2,0,P|296:251|334:298,1,71.9999949417116,2|0,0:0|0:0,0:0:0:0:
400,296,34270,2,0,P|428:273|450:216,1,71.9999949417116,8|0,0:0|0:0,0:0:0:0:
415,162,34520,6,0,P|381:149|321:158,3,71.9999949417116,2|0|8|0,0:0|0:0|0:0|0:0,0:0:0:0:
445,242,35020,2,0,P|427:273|400:296,1,71.9999949417116,2|0,0:0|0:0,0:0:0:0:
315,282,35270,2,0,P|296:251|291:216,1,71.9999949417116,8|0,0:0|0:0,0:0:0:0:
473,122,35520,6,0,P|415:161|346:149,1,143.999989883423,2|8,0:0|0:0,0:0:0:0:
295,78,35895,1,0,0:0:0:0:
295,78,36020,2,0,L|186:102,1,71.9999949417116,2|0,0:0|0:0,0:0:0:0:
139,23,36270,2,0,L|209:7,1,71.9999949417116,2|2,0:0|0:0,0:0:0:0:
213,179,36520,6,0,P|146:155|83:185,1,143.999989883423,2|8,0:0|0:0,0:0:0:0:
87,300,36895,1,0,0:0:0:0:
87,300,37020,2,0,P|154:323|217:293,1,143.999989883423,2|8,0:0|0:0,0:0:0:0:
213,179,37395,5,0,0:0:0:0:
213,179,37520,2,0,P|181:161|147:154,1,71.9999949417116,2|0,0:0|0:0,0:0:0:0:
299,179,37770,2,0,P|331:161|365:154,1,71.9999949417116,8|0,0:0|0:0,0:0:0:0:
352,25,38020,2,0,L|312:85,1,71.9999949417116,2|0,0:0|0:0,0:0:0:0:
159,25,38270,2,0,L|200:85,1,71.9999949417116,8|0,0:0|0:0,0:0:0:0:
146,153,38520,6,0,P|113:169|88:194,1,71.9999949417116,2|0,0:0|0:0,0:0:0:0:
137,265,38770,2,0,P|169:248|194:223,1,71.9999949417116,8|0,0:0|0:0,0:0:0:0:
366,153,39020,2,0,P|398:169|423:194,1,71.9999949417116,2|0,0:0|0:0,0:0:0:0:
375,265,39270,2,0,P|342:248|317:223,1,71.9999949417116,8|0,0:0|0:0,0:0:0:0:
200,85,39520,5,2,0:0:0:0:
169,66,39645,1,0,0:0:0:0:
135,55,39770,1,8,0:0:0:0:
99,54,39895,1,0,0:0:0:0:
64,62,40020,6,0,L|82:148,1,71.9999949417116,2|0,0:0|0:0,0:0:0:0:
22,249,40270,2,0,L|7:178,1,71.9999949417116,2|2,0:0|0:0,0:0:0:0:
93,327,40520,6,0,L|108:257,3,71.9999949417116,2|0|8|0,0:0|0:0|0:0|0:0,0:0:0:0:
151,182,41020,2,0,P|183:198|208:223,1,71.9999949417116,2|0,0:0|0:0,0:0:0:0:
360,182,41270,2,0,P|328:198|303:223,1,71.9999949417116,8|0,0:0|0:0,0:0:0:0:
184,73,41520,2,0,P|253:57|323:74,1,143.999989883423,2|8,0:0|0:0,0:0:0:0:
447,62,41895,5,0,0:0:0:0:
447,62,42020,2,0,L|430:148,1,71.9999949417116,2|0,0:0|0:0,0:0:0:0:
490,249,42270,2,0,L|504:178,1,71.9999949417116,8|0,0:0|0:0,0:0:0:0:
418,327,42520,6,0,L|404:257,3,71.9999949417116,2|0|8|0,0:0|0:0|0:0|0:0,0:0:0:0:
361,182,43020,2,0,P|328:198|303:223,1,71.9999949417116,2|0,0:0|0:0,0:0:0:0:
208,223,43270,2,0,P|183:198|151:182,1,71.9999949417116,8|0,0:0|0:0,0:0:0:0:
323,74,43520,2,0,P|253:57|184:73,1,143.999989883423,2|8,0:0|0:0,0:0:0:0:
86,211,43895,5,0,0:0:0:0:
86,211,44020,2,0,P|120:201|150:182,1,71.9999949417116,2|0,0:0|0:0,0:0:0:0:
102,109,44270,2,0,P|67:118|37:137,1,71.9999949417116,2|2,0:0|0:0,0:0:0:0:
65,303,44520,6,0,P|135:301|185:350,1,143.999989883423,2|8,0:0|0:0,0:0:0:0:
326,350,44895,1,0,0:0:0:0:
326,350,45020,2,0,P|348:320|386:300,1,71.9999949417116,2|0,0:0|0:0,0:0:0:0:
451,218,45270,2,0,L|462:289,1,71.9999949417116,8|0,0:0|0:0,0:0:0:0:
363,217,45520,6,0,P|322:159|334:90,2,143.999989883423,2|8|2,0:0|0:0|0:0,0:0:0:0:
462,289,46145,1,0,0:0:0:0:
462,289,46270,2,0,L|451:218,1,71.9999949417116,8|0,0:0|0:0,0:0:0:0:
423,68,46520,6,0,L|413:139,1,71.9999949417116,2|0,0:0|0:0,0:0:0:0:
373,288,46770,2,0,L|362:217,1,71.9999949417116,8|0,0:0|0:0,0:0:0:0:
334,69,47020,2,0,L|309:140,1,71.9999949417116,2|0,0:0|0:0,0:0:0:0:
283,287,47270,2,0,L|258:216,1,71.9999949417116,8|0,0:0|0:0,0:0:0:0:
216,69,47520,5,2,0:0:0:0:
198,100,47645,1,0,0:0:0:0:
172,124,47770,1,8,0:0:0:0:
139,138,47895,1,0,0:0:0:0:
103,142,48020,6,0,P|120:172|127:207,1,71.9999949417116,2|0,0:0|0:0,0:0:0:0:
53,343,48270,2,0,P|70:312|97:288,1,71.9999949417116,2|2,0:0|0:0,0:0:0:0:
183,274,48520,2,0,P|217:285|325:259,2,143.999989883423,2|8|2,0:0|0:0|0:0,0:0:0:0:
127,208,49145,2,0,P|120:173|103:142,2,71.9999949417116,0|8|0,0:0|0:0|0:0,0:0:0:0:
319,263,49520,2,0,P|352:251|460:278,1,143.999989883423,2|8,0:0|0:0,0:0:0:0:
454,274,50020,6,0,P|428:249|412:217,1,71.9999949417116,2|0,0:0|0:0,0:0:0:0:
360,148,50270,2,0,P|385:123|401:91,1,71.9999949417116,8|0,0:0|0:0,0:0:0:0:
322,53,50520,2,0,P|289:67|179:52,2,143.999989883423,2|8|2,0:0|0:0|0:0,0:0:0:0:
401,90,51145,2,0,P|385:122|360:147,2,71.9999949417116,0|8|0,0:0|0:0|0:0,0:0:0:0:
184,56,51520,2,0,P|151:41|41:56,1,143.999989883423,2|8,0:0|0:0,0:0:0:0:
44,312,52020,6,0,L|152:304,1,71.9999949417116,2|0,0:0|0:0,0:0:0:0:
196,252,52270,2,0,L|304:244,1,71.9999949417116,2|2,0:0|0:0,0:0:0:0:
340,296,52520,2,0,L|496:308,1,143.999989883423,2|8,0:0|0:0,0:0:0:0:
464,20,53020,6,0,L|356:12,1,71.9999949417116,2|0,0:0|0:0,0:0:0:0:
336,80,53270,2,0,L|228:72,1,71.9999949417116,8|0,0:0|0:0,0:0:0:0:
192,28,53520,2,0,P|161:44|108:142,1,143.999989883423,2|8,0:0|0:0,0:0:0:0:
148,222,53895,1,0,0:0:0:0:
148,222,54020,2,0,P|174:197|190:165,1,71.9999949417116,2|0,0:0|0:0,0:0:0:0:
26,168,54270,2,0,P|41:200|67:225,1,71.9999949417116,8|0,0:0|0:0,0:0:0:0:
108,135,54520,5,2,0:0:0:0:
116,100,54645,1,0,0:0:0:0:
134,69,54770,1,8,0:0:0:0:
160,44,54895,1,0,0:0:0:0:
191,28,55020,6,0,P|220:47|255:57,1,71.9999949417116,2|0,0:0|0:0,0:0:0:0:
355,106,55270,2,0,P|325:126|291:135,1,71.9999949417116,8|0,0:0|0:0,0:0:0:0:
410,40,55520,2,0,P|441:54|499:150,2,143.999989883423,2|8|2,0:0|0:0|0:0,0:0:0:0:
115,333,56270,5,2,0:0:0:0:
121,297,56395,1,2,0:0:0:0:
127,262,56520,2,0,L|151:108,1,143.999989883423,2|8,0:0|0:0,0:0:0:0:
101,40,56895,1,0,0:0:0:0:
101,40,57020,2,0,P|42:79|13:143,2,143.999989883423,2|8|2,0:0|0:0|0:0,0:0:0:0:
396,333,57770,5,8,0:0:0:0:
390,297,57895,1,0,0:0:0:0:
385,262,58020,2,0,L|374:188,1,71.9999949417116,2|0,0:0|0:0,0:0:0:0:
420,111,58270,2,0,L|409:39,1,71.9999949417116,8|0,0:0|0:0,0:0:0:0:
256,96,58520,6,0,P|221:101|121:53,1,143.999989883423,2|8,0:0|0:0,0:0:0:0:
158,236,58895,1,0,0:0:0:0:
158,236,59020,2,0,P|133:170|76:128,1,143.999989883423,2|8,0:0|0:0,0:0:0:0:
28,200,59395,1,0,0:0:0:0:
28,200,59520,2,0,P|43:232|69:257,1,71.9999949417116,2|0,0:0|0:0,0:0:0:0:
132,316,59770,2,0,P|157:340|173:373,1,71.9999949417116,8|0,0:0|0:0,0:0:0:0:
338,373,60020,6,0,P|354:340|380:316,1,71.9999949417116,2|0,0:0|0:0,0:0:0:0:
442,257,60270,2,0,P|468:232|484:200,1,71.9999949417116,2|2,0:0|0:0,0:0:0:0:
300,86,60520,6,0,P|363:118|400:180,1,143.999989883423,2|8,0:0|0:0,0:0:0:0:
316,208,60895,1,0,0:0:0:0:
316,208,61020,2,0,P|289:232|274:264,1,71.9999949417116,2|0,0:0|0:0,0:0:0:0:
220,360,61270,2,0,P|212:325|192:296,1,71.9999949417116,8|0,0:0|0:0,0:0:0:0:
135,200,61520,6,0,P|169:210|204:207,1,71.9999949417116,2|0,0:0|0:0,0:0:0:0:
200,15,61770,2,0,P|165:4|130:7,1,71.9999949417116,8|0,0:0|0:0,0:0:0:0:
260,140,62020,2,0,P|270:105|267:70,1,71.9999949417116,2|0,0:0|0:0,0:0:0:0:
75,75,62270,2,0,P|64:109|67:144,1,71.9999949417116,8|0,0:0|0:0,0:0:0:0:
204,207,62520,6,0,P|237:220|263:245,1,71.9999949417116,2|0,0:0|0:0,0:0:0:0:
477,215,62770,2,0,P|442:223|406:218,1,71.9999949417116,8|0,0:0|0:0,0:0:0:0:
250,367,63020,2,0,P|273:339|304:322,1,71.9999949417116,2|0,0:0|0:0,0:0:0:0:
344,112,63270,2,0,P|341:147|326:180,1,71.9999949417116,8|0,0:0|0:0,0:0:0:0:
418,373,63520,2,0,P|399:342|392:307,3,71.9999949417116,2|0|8|0,0:0|0:0|0:0|0:0,0:0:0:0:
392,307,64020,2,0,P|411:239|466:191,1,143.999989883423,2|2,0:0|0:0,0:0:0:0:
260,32,64520,5,2,0:0:0:0:
228,48,64645,1,0,0:0:0:0:
191,56,64770,2,0,P|156:50|126:31,1,71.9999949417116,8|0,0:0|0:0,0:0:0:0:
32,19,65020,2,0,P|44:52|43:88,1,71.9999949417116,2|0,0:0|0:0,0:0:0:0:
80,176,65270,2,0,P|102:148|134:131,1,71.9999949417116,8|0,0:0|0:0,0:0:0:0:
216,156,65520,6,0,L|200:244,1,71.9999949417116,2|0,0:0|0:0,0:0:0:0:
263,346,65770,2,0,L|276:276,1,71.9999949417116,8|0,0:0|0:0,0:0:0:0:
364,161,66020,2,0,L|352:232,1,71.9999949417116,2|0,0:0|0:0,0:0:0:0:
411,351,66270,2,0,L|423:280,1,71.9999949417116,8|0,0:0|0:0,0:0:0:0:
364,161,66520,6,0,L|376:90,3,71.9999949417116,2|0|8|0,0:0|0:0|0:0|0:0,0:0:0:0:
319,24,67020,2,0,P|253:48|187:23,1,143.999989883423,2|8,0:0|0:0,0:0:0:0:
135,90,67395,1,0,0:0:0:0:
135,90,67520,2,0,L|148:161,3,71.9999949417116,2|0|8|0,0:0|0:0|0:0|0:0,0:0:0:0:
68,192,68020,5,2,0:0:0:0:
74,227,68145,1,0,0:0:0:0:
80,262,68270,1,2,0:0:0:0:
87,298,68395,1,2,0:0:0:0:
93,333,68520,6,0,P|128:338|158:357,1,71.9999949417116,2|0,0:0|0:0,0:0:0:0:
260,376,68770,2,0,P|246:343|248:307,1,71.9999949417116,8|0,0:0|0:0,0:0:0:0:
214,210,69020,2,0,P|192:237|160:254,1,71.9999949417116,2|0,0:0|0:0,0:0:0:0:
74,227,69270,2,0,P|56:195|53:160,1,71.9999949417116,8|0,0:0|0:0,0:0:0:0:
108,92,69520,6,0,L|208:76,1,71.9999949417116,2|0,0:0|0:0,0:0:0:0:
319,16,69770,2,0,L|248:28,1,71.9999949417116,8|0,0:0|0:0,0:0:0:0:
268,128,70020,2,0,L|368:112,1,71.9999949417116,2|0,0:0|0:0,0:0:0:0:
479,52,70270,2,0,L|407:63,1,71.9999949417116,8|0,0:0|0:0,0:0:0:0:
287,227,70520,6,0,L|358:215,3,71.9999949417116,2|0|8|0,0:0|0:0|0:0|0:0,0:0:0:0:
438,249,71020,2,0,P|453:180|510:138,1,143.999989883423,2|8,0:0|0:0,0:0:0:0:
458,332,71395,5,0,0:0:0:0:
423,338,71520,1,2,0:0:0:0:
388,344,71645,1,0,0:0:0:0:
352,351,71770,1,8,0:0:0:0:
317,357,71895,1,0,0:0:0:0:
282,363,72020,2,0,P|266:294|209:252,1,143.999989883423,2|2,0:0|0:0,0:0:0:0:
179,82,72395,5,2,0:0:0:0:
179,82,72520,2,0,P|136:138|68:154,1,143.999989883423,2|8,0:0|0:0,0:0:0:0:
1,95,72895,1,0,0:0:0:0:
1,95,73020,2,0,L|30:18,1,71.9999949417116,2|0,0:0|0:0,0:0:0:0:
42,221,73270,2,0,L|71:144,1,71.9999949417116,8|0,0:0|0:0,0:0:0:0:
220,209,73520,6,0,P|177:265|109:281,1,143.999989883423,2|8,0:0|0:0,0:0:0:0:
42,221,73895,1,0,0:0:0:0:
42,221,74020,2,0,L|71:144,1,71.9999949417116,2|0,0:0|0:0,0:0:0:0:
83,347,74270,2,0,L|112:270,1,71.9999949417116,8|0,0:0|0:0,0:0:0:0:
292,209,74520,6,0,P|334:265|402:281,1,143.999989883423,2|8,0:0|0:0,0:0:0:0:
470,221,74895,1,0,0:0:0:0:
470,221,75020,2,0,L|441:144,1,71.9999949417116,2|0,0:0|0:0,0:0:0:0:
429,347,75270,2,0,L|400:270,1,71.9999949417116,8|0,0:0|0:0,0:0:0:0:
333,82,75520,6,0,P|375:138|443:154,1,143.999989883423,2|8,0:0|0:0,0:0:0:0:
511,95,75895,1,0,0:0:0:0:
511,95,76020,2,0,L|482:18,1,71.9999949417116,2|0,0:0|0:0,0:0:0:0:
470,221,76270,2,0,L|441:144,1,71.9999949417116,2|2,0:0|0:0,0:0:0:0:
333,82,76520,6,0,P|275:122|256:190,1,143.999989883423,2|8,0:0|0:0,0:0:0:0:
180,82,76895,1,0,0:0:0:0:
180,82,77020,2,0,P|237:122|256:190,1,143.999989883423,2|8,0:0|0:0,0:0:0:0:
198,255,77395,5,0,0:0:0:0:
198,255,77520,2,0,P|163:254|129:240,1,71.9999949417116,2|0,0:0|0:0,0:0:0:0:
106,157,77770,2,0,P|140:157|174:171,1,71.9999949417116,8|0,0:0|0:0,0:0:0:0:
314,255,78020,2,0,P|348:254|382:240,1,71.9999949417116,2|0,0:0|0:0,0:0:0:0:
406,157,78270,2,0,P|371:157|337:171,1,71.9999949417116,8|0,0:0|0:0,0:0:0:0:
314,255,78520,5,2,0:0:0:0:
124,344,78770,1,8,0:0:0:0:
34,154,79020,1,2,0:0:0:0:
224,64,79270,1,8,0:0:0:0:
224,64,79395,1,0,0:0:0:0:
224,64,79520,2,0,P|256:49|292:49,1,71.9999949417116,2|0,0:0|0:0,0:0:0:0:
344,119,79770,2,0,P|311:134|275:134,1,71.9999949417116,8|0,0:0|0:0,0:0:0:0:
140,104,80020,6,0,L|116:36,1,71.9999949417116,2|0,0:0|0:0,0:0:0:0:
84,192,80270,2,0,L|60:124,1,71.9999949417116,2|2,0:0|0:0,0:0:0:0:
28,280,80520,6,0,L|4:212,3,71.9999949417116,2|0|8|0,0:0|0:0|0:0|0:0,0:0:0:0:
60,124,81020,2,0,L|36:56,1,71.9999949417116,2|0,0:0|0:0,0:0:0:0:
163,171,81270,2,0,L|139:103,1,71.9999949417116,8|0,0:0|0:0,0:0:0:0:
266,218,81520,2,0,P|246:151|274:86,1,143.999989883423,2|8,0:0|0:0,0:0:0:0:
372,104,81895,5,0,0:0:0:0:
372,104,82020,2,0,L|396:36,1,71.9999949417116,2|0,0:0|0:0,0:0:0:0:
428,192,82270,2,0,L|452:124,1,71.9999949417116,8|0,0:0|0:0,0:0:0:0:
484,280,82520,6,0,L|508:212,3,71.9999949417116,2|0|8|0,0:0|0:0|0:0|0:0,0:0:0:0:
452,124,83020,2,0,L|476:56,1,71.9999949417116,2|0,0:0|0:0,0:0:0:0:
349,171,83270,2,0,L|373:103,1,71.9999949417116,8|0,0:0|0:0,0:0:0:0:
246,218,83520,2,0,P|265:151|237:86,1,143.999989883423,2|8,0:0|0:0,0:0:0:0:
97,39,83895,5,0,0:0:0:0:
97,39,84020,2,0,L|169:29,1,71.9999949417116,2|0,0:0|0:0,0:0:0:0:
236,85,84270,2,0,P|214:114|183:132,1,71.9999949417116,2|2,0:0|0:0,0:0:0:0:
71,252,84520,6,0,P|57:183|97:126,1,143.999989883423,2|8,0:0|0:0,0:0:0:0:
223,211,84895,1,0,0:0:0:0:
223,211,85020,2,0,L|294:200,1,71.9999949417116,2|0,0:0|0:0,0:0:0:0:
361,256,85270,2,0,P|339:285|308:303,1,71.9999949417116,8|0,0:0|0:0,0:0:0:0:
304,115,85520,6,0,L|468:91,2,143.999989883423,2|8|2,0:0|0:0|0:0,0:0:0:0:
207,114,86145,1,0,0:0:0:0:
171,113,86270,1,8,0:0:0:0:
138,98,86395,1,0,0:0:0:0:
114,72,86520,6,0,L|80:152,1,71.9999949417116,2|0,0:0|0:0,0:0:0:0:
75,290,86770,2,0,L|104:224,1,71.9999949417116,8|0,0:0|0:0,0:0:0:0:
207,114,87020,2,0,L|178:180,1,71.9999949417116,2|0,0:0|0:0,0:0:0:0:
168,331,87270,2,0,L|196:264,1,71.9999949417116,8|0,0:0|0:0,0:0:0:0:
270,221,87520,5,2,0:0:0:0:
302,207,87645,1,0,0:0:0:0:
338,207,87770,1,8,0:0:0:0:
371,221,87895,1,0,0:0:0:0:
395,246,88020,6,0,P|399:281|416:312,1,71.9999949417116,2|0,0:0|0:0,0:0:0:0:
482,254,88270,2,0,P|478:217|460:186,1,71.9999949417116,2|2,0:0|0:0,0:0:0:0:
374,89,88520,6,0,P|443:103|501:64,2,143.999989883423,2|8|2,0:0|0:0|0:0,0:0:0:0:
303,39,89145,2,0,L|231:44,2,71.9999949417116,0|8|0,0:0|0:0|0:0,0:0:0:0:
371,176,89520,2,0,P|345:241|280:267,1,143.999989883423,2|8,0:0|0:0,0:0:0:0:
6,207,90020,6,0,L|78:202,1,71.9999949417116,2|0,0:0|0:0,0:0:0:0:
119,126,90270,2,0,L|191:121,1,71.9999949417116,8|0,0:0|0:0,0:0:0:0:
163,299,90520,2,0,P|95:285|37:324,2,143.999989883423,2|8|2,0:0|0:0|0:0,0:0:0:0:
221,363,91145,2,0,L|292:357,2,71.9999949417116,0|8|0,0:0|0:0|0:0,0:0:0:0:
166,212,91520,2,0,P|191:146|256:120,1,143.999989883423,2|8,0:0|0:0,0:0:0:0:
499,182,92020,6,0,L|428:188,1,71.9999949417116,2|0,0:0|0:0,0:0:0:0:
396,270,92270,2,0,L|325:276,1,71.9999949417116,2|2,0:0|0:0,0:0:0:0:
348,131,92520,2,0,P|406:92|418:23,1,143.999989883423,2|8,0:0|0:0,0:0:0:0:
255,120,92895,1,0,0:0:0:0:
255,120,93020,2,0,P|259:155|276:186,1,71.9999949417116,2|0,0:0|0:0,0:0:0:0:
185,62,93270,2,0,P|168:93|164:129,1,71.9999949417116,8|0,0:0|0:0,0:0:0:0:
78,325,93520,6,0,L|58:182,1,143.999989883423,2|8,0:0|0:0,0:0:0:0:
164,129,93895,1,0,0:0:0:0:
164,129,94020,2,0,L|169:220,1,71.9999949417116,2|0,0:0|0:0,0:0:0:0:
267,257,94270,2,0,L|276:186,1,71.9999949417116,8|0,0:0|0:0,0:0:0:0:
364,356,94520,6,0,L|381:212,1,143.999989883423,2|8,0:0|0:0,0:0:0:0:
483,186,94895,1,0,0:0:0:0:
462,156,95020,1,2,0:0:0:0:
451,122,95145,1,0,0:0:0:0:
449,86,95270,2,0,P|425:111|392:127,1,71.9999949417116,8|0,0:0|0:0,0:0:0:0:
253,87,95520,2,0,P|303:39|373:41,1,143.999989883423,2|8,0:0|0:0,0:0:0:0:
464,268,96020,5,2,0:0:0:0:
428,262,96145,1,0,0:0:0:0:
392,256,96270,2,0,L|298:240,1,71.9999949417116,2|2,0:0|0:0,0:0:0:0:
367,170,96520,6,0,P|397:107|373:41,2,143.999989883423,2|8|2,0:0|0:0|0:0,0:0:0:0:
349,331,97145,1,0,0:0:0:0:
349,331,97270,2,0,L|420:342,1,71.9999949417116,8|0,0:0|0:0,0:0:0:0:
320,244,97520,2,0,L|392:256,2,71.9999949417116,2|0|8,0:0|0:0|0:0,0:0:0:0:
48,268,98020,5,2,0:0:0:0:
84,262,98145,1,0,0:0:0:0:
120,256,98270,2,0,L|213:240,1,71.9999949417116,8|0,0:0|0:0,0:0:0:0:
145,170,98520,6,0,P|114:107|138:41,2,143.999989883423,2|8|2,0:0|0:0|0:0,0:0:0:0:
163,331,99145,1,0,0:0:0:0:
163,331,99270,2,0,L|91:342,1,71.9999949417116,8|0,0:0|0:0,0:0:0:0:
191,244,99520,2,0,L|120:256,2,71.9999949417116,2|0|8,0:0|0:0|0:0,0:0:0:0:
420,41,100020,6,0,L|349:53,1,71.9999949417116,2|0,0:0|0:0,0:0:0:0:
320,139,100271,2,0,L|392:128,1,71.9999949417116,2|2,0:0|0:0,0:0:0:0:
490,211,100520,6,0,P|420:209|370:257,1,143.999989883423,2|8,0:0|0:0,0:0:0:0:
267,357,100895,1,0,0:0:0:0:
267,357,101020,2,0,P|284:326|289:291,1,71.9999949417116,2|0,0:0|0:0,0:0:0:0:
150,253,101270,2,0,P|168:283|196:305,1,71.9999949417116,8|0,0:0|0:0,0:0:0:0:
299,204,101520,6,0,P|263:204|230:218,1,71.9999949417116,2|0,0:0|0:0,0:0:0:0:
199,28,101770,2,0,P|234:27|267:13,1,71.9999949417116,8|0,0:0|0:0,0:0:0:0:
161,166,102020,2,0,P|160:130|146:97,1,71.9999949417116,2|0,0:0|0:0,0:0:0:0:
337,66,102270,2,0,P|337:101|351:134,1,71.9999949417116,8|0,0:0|0:0,0:0:0:0:
422,324,102520,6,0,P|399:295|369:277,1,71.9999949417116,2|0,0:0|0:0,0:0:0:0:
200,164,102770,2,0,P|234:173|270:169,1,71.9999949417116,8|0,0:0|0:0,0:0:0:0:
473,165,103020,2,0,P|439:176|412:200,1,71.9999949417116,2|0,0:0|0:0,0:0:0:0:
253,324,103270,2,0,P|273:293|281:258,1,71.9999949417116,8|0,0:0|0:0,0:0:0:0:
337,66,103520,2,0,P|337:101|351:134,3,71.9999949417116,2|0|8|0,0:0|0:0|0:0|0:0,0:0:0:0:
270,168,104020,5,2,0:0:0:0:
259,134,104145,1,0,0:0:0:0:
222,134,104270,1,2,0:0:0:0:
211,168,104395,1,2,0:0:0:0:
241,191,104520,1,2,0:0:0:0:
86,82,111770,5,8,0:0:0:0:
171,95,111895,1,8,0:0:0:0:
256,108,112020,1,8,0:0:0:0:
426,302,112270,5,8,0:0:0:0:
341,289,112395,1,8,0:0:0:0:
256,276,112520,6,0,P|196:312|98:280,2,167.999988197327,6|8|2,0:0|0:0|0:0,0:0:0:0:
312,192,113145,1,0,0:0:0:0:
312,192,113270,2,0,L|412:204,1,83.9999940986636,8|0,0:0|0:0,0:0:0:0:
277,91,113520,6,0,L|444:111,1,167.999988197327,2|8,0:0|0:0,0:0:0:0:
214,11,113895,1,0,0:0:0:0:
215,11,114020,2,0,L|48:31,1,167.999988197327,2|8,0:0|0:0,0:0:0:0:
245,187,114395,5,0,0:0:0:0:
245,187,114520,2,0,P|303:224|402:193,2,167.999988197327,2|8|2,0:0|0:0|0:0,0:0:0:0:
181,105,115145,1,0,0:0:0:0:
181,105,115270,2,0,L|72:120,1,83.9999940986636,8|0,0:0|0:0,0:0:0:0:
64,212,115520,6,0,P|132:257|146:337,1,167.999988197327,2|8,0:0|0:0,0:0:0:0:
244,368,115895,1,0,0:0:0:0:
244,368,116020,2,0,L|410:347,1,167.999988197327,2|2,0:0|0:0,0:0:0:0:
264,95,116520,6,0,L|98:116,2,167.999988197327,2|8|2,0:0|0:0|0:0,0:0:0:0:
368,104,117145,2,0,P|388:73|396:28,2,83.9999940986636,0|8|0,0:0|0:0|0:0,0:0:0:0:
308,188,117520,6,0,P|376:233|389:313,1,167.999988197327,2|8,0:0|0:0,0:0:0:0:
204,188,117895,1,0,0:0:0:0:
204,188,118020,2,0,P|135:233|121:313,1,167.999988197327,2|8,0:0|0:0,0:0:0:0:
13,105,118395,5,0,0:0:0:0:
13,105,118520,2,0,L|32:272,2,167.999988197327,2|8|2,0:0|0:0|0:0,0:0:0:0:
110,64,119145,1,0,0:0:0:0:
110,64,119270,2,0,L|104:148,1,83.9999940986636,8|0,0:0|0:0,0:0:0:0:
196,116,119520,1,2,0:0:0:0:
207,83,119645,1,0,0:0:0:0:
228,55,119770,1,8,0:0:0:0:
257,35,119895,1,0,0:0:0:0:
289,25,120020,6,0,P|331:21|371:34,1,83.9999940986636,2|0,0:0|0:0,0:0:0:0:
329,187,120270,2,0,L|323:104,1,83.9999940986636,2|2,0:0|0:0,0:0:0:0:
419,295,120520,6,0,L|433:111,2,167.999988197327,6|8|2,0:0|0:0|0:0,0:0:0:0:
325,333,121145,1,0,0:0:0:0:
325,333,121270,2,0,P|294:304|255:289,1,83.9999940986636,8|0,0:0|0:0,0:0:0:0:
127,243,121520,2,0,P|167:231|200:205,1,83.9999940986636,2|0,0:0|0:0,0:0:0:0:
303,117,121770,2,0,P|293:157|299:198,1,83.9999940986636,8|0,0:0|0:0,0:0:0:0:
229,46,122020,6,0,P|190:118|111:139,1,167.999988197327,2|8,0:0|0:0,0:0:0:0:
22,277,122395,1,0,0:0:0:0:
22,277,122520,2,0,L|14:110,1,167.999988197327,2|8,0:0|0:0,0:0:0:0:
113,55,122895,1,0,0:0:0:0:
114,55,123020,2,0,L|111:139,1,83.9999940986636,2|0,0:0|0:0,0:0:0:0:
208,213,123270,2,0,L|204:129,1,83.9999940986636,8|0,0:0|0:0,0:0:0:0:
400,139,123520,6,0,P|321:117|282:46,1,167.999988197327,2|8,0:0|0:0,0:0:0:0:
453,1,123895,1,0,0:0:0:0:
453,1,124020,2,0,P|413:14|382:42,1,83.9999940986636,2|0,0:0|0:0,0:0:0:0:
419,236,124270,1,2,0:0:0:0:
412,268,124395,1,2,0:0:0:0:
405,300,124520,6,0,L|231:315,1,167.999988197327,2|8,0:0|0:0,0:0:0:0:
71,259,124895,1,0,0:0:0:0:
71,259,125020,2,0,L|155:251,1,83.9999940986636,2|0,0:0|0:0,0:0:0:0:
319,183,125270,2,0,L|236:192,1,83.9999940986636,8|0,0:0|0:0,0:0:0:0:
100,124,125520,6,0,P|178:102|217:30,1,167.999988197327,2|8,0:0|0:0,0:0:0:0:
412,124,125895,1,0,0:0:0:0:
412,124,126020,2,0,P|333:102|294:30,1,167.999988197327,2|8,0:0|0:0,0:0:0:0:
152,244,126395,5,0,0:0:0:0:
152,244,126520,2,0,L|40:232,2,83.9999940986636,6|0|8,0:0|0:0|0:0,0:0:0:0:
360,244,126895,1,0,0:0:0:0:
360,244,127020,2,0,L|472:232,2,83.9999940986636,6|0|8,0:0|0:0|0:0,0:0:0:0:
185,332,127395,5,0,0:0:0:0:
185,332,127520,2,0,L|73:320,1,83.9999940986636,6|0,0:0|0:0,0:0:0:0:
327,332,127770,2,0,L|439:320,1,83.9999940986636,8|0,0:0|0:0,0:0:0:0:
256,256,128020,1,2,0:0:0:0:
256,214,128145,1,0,0:0:0:0:
256,172,128270,1,2,0:0:0:0:
256,130,128395,1,2,0:0:0:0:
256,88,128520,6,0,P|196:124|98:92,2,167.999988197327,6|8|2,0:0|0:0|0:0,0:0:0:0:
316,8,129145,1,0,0:0:0:0:
316,8,129270,2,0,L|412:28,1,83.9999940986636,8|0,0:0|0:0,0:0:0:0:
256,88,129520,2,0,L|420:122,1,167.999988197327,2|8,0:0|0:0,0:0:0:0:
440,218,129895,1,0,0:0:0:0:
440,218,130020,2,0,L|357:200,1,83.9999940986636,2|0,0:0|0:0,0:0:0:0:
238,362,130270,1,8,0:0:0:0:
247,329,130395,1,0,0:0:0:0:
256,296,130520,6,0,P|196:260|98:292,2,167.999988197327,2|8|2,0:0|0:0|0:0,0:0:0:0:
316,376,131145,1,0,0:0:0:0:
316,376,131270,2,0,L|412:356,1,83.9999940986636,8|0,0:0|0:0,0:0:0:0:
256,296,131520,2,0,L|448:256,1,167.999988197327,2|8,0:0|0:0,0:0:0:0:
440,165,131895,5,0,0:0:0:0:
440,166,132020,2,0,P|404:143|382:108,1,83.9999940986636,2|0,0:0|0:0,0:0:0:0:
346,14,132270,2,0,P|310:36|288:71,1,83.9999940986636,2|2,0:0|0:0,0:0:0:0:
136,183,132520,6,0,L|303:171,2,167.999988197327,2|8|2,0:0|0:0|0:0,0:0:0:0:
35,170,133145,1,0,0:0:0:0:
35,170,133270,2,0,P|47:130|75:99,1,83.9999940986636,8|0,0:0|0:0,0:0:0:0:
229,274,133520,2,0,L|61:285,1,167.999988197327,2|8,0:0|0:0,0:0:0:0:
196,370,133895,1,0,0:0:0:0:
196,370,134020,2,0,L|279:363,1,83.9999940986636,2|0,0:0|0:0,0:0:0:0:
309,207,134270,1,8,0:0:0:0:
300,174,134395,1,0,0:0:0:0:
291,141,134520,6,0,P|354:170|448:128,2,167.999988197327,2|8|2,0:0|0:0|0:0,0:0:0:0:
203,88,135145,1,0,0:0:0:0:
203,88,135270,2,0,L|193:171,1,83.9999940986636,8|0,0:0|0:0,0:0:0:0:
85,258,135520,2,0,L|95:175,1,83.9999940986636,2|0,0:0|0:0,0:0:0:0:
181,289,135770,2,0,L|171:372,1,83.9999940986636,8|0,0:0|0:0,0:0:0:0:
273,339,136020,5,2,0:0:0:0:
282,306,136145,1,0,0:0:0:0:
291,273,136270,1,2,0:0:0:0:
300,240,136395,1,2,0:0:0:0:
309,207,136520,6,0,P|364:249|465:227,1,167.999988197327,6|8,0:0|0:0,0:0:0:0:
436,82,136895,1,0,0:0:0:0:
436,82,137020,2,0,P|408:113|396:153,1,83.9999940986636,2|0,0:0|0:0,0:0:0:0:
265,33,137270,2,0,P|293:64|306:104,1,83.9999940986636,8|0,0:0|0:0,0:0:0:0:
202,207,137520,6,0,P|134:252|54:234,1,167.999988197327,2|8,0:0|0:0,0:0:0:0:
75,82,137895,1,0,0:0:0:0:
75,82,138020,2,0,P|103:113|116:153,1,83.9999940986636,2|0,0:0|0:0,0:0:0:0:
194,325,138270,5,8,0:0:0:0:
225,310,138395,1,0,0:0:0:0:
256,296,138520,2,0,P|337:286|400:338,1,167.999988197327,2|8,0:0|0:0,0:0:0:0:
475,172,138895,1,0,0:0:0:0:
475,172,139020,2,0,P|462:211|435:243,1,83.9999940986636,2|0,0:0|0:0,0:0:0:0:
316,192,139270,2,0,P|328:152|356:121,1,83.9999940986636,8|0,0:0|0:0,0:0:0:0:
256,296,139520,6,0,P|175:286|112:338,1,167.999988197327,2|8,0:0|0:0,0:0:0:0:
36,172,139895,1,0,0:0:0:0:
36,172,140020,2,0,P|49:211|77:243,1,83.9999940986636,2|0,0:0|0:0,0:0:0:0:
196,192,140270,2,0,P|183:152|155:121,1,83.9999940986636,2|2,0:0|0:0,0:0:0:0:
256,32,140520,6,0,L|432:48,1,167.999988197327,2|8,0:0|0:0,0:0:0:0:
492,120,140895,1,0,0:0:0:0:
492,120,141020,2,0,P|464:151|451:190,1,83.9999940986636,2|0,0:0|0:0,0:0:0:0:
380,264,141270,2,0,P|367:224|339:193,1,83.9999940986636,8|0,0:0|0:0,0:0:0:0:
120,128,141520,6,0,P|140:48|211:9,1,167.999988197327,2|8,0:0|0:0,0:0:0:0:
392,128,141895,1,0,0:0:0:0:
392,128,142020,2,0,P|371:48|300:9,1,167.999988197327,2|8,0:0|0:0,0:0:0:0:
152,244,142395,5,0,0:0:0:0:
152,244,142520,2,0,L|40:232,2,83.9999940986636,6|0|8,0:0|0:0|0:0,0:0:0:0:
360,244,142895,1,0,0:0:0:0:
360,244,143020,2,0,L|472:232,2,83.9999940986636,6|0|8,0:0|0:0|0:0,0:0:0:0:
185,332,143395,5,0,0:0:0:0:
185,332,143520,2,0,L|73:320,1,83.9999940986636,6|0,0:0|0:0,0:0:0:0:
327,332,143770,2,0,L|439:320,1,83.9999940986636,8|0,0:0|0:0,0:0:0:0:
256,256,144020,5,2,0:0:0:0:
256,216,144145,1,0,0:0:0:0:
256,176,144270,1,2,0:0:0:0:
256,136,144395,1,2,0:0:0:0:
256,96,144520,1,2,0:0:0:0:
256,72,160020,6,0,L|256:208,1,119.999995231629,2|0,0:0|0:0,0:0:0:0:
67,283,160520,5,2,0:0:0:0:
67,283,160645,1,0,0:0:0:0:
67,284,160770,2,0,L|183:312,1,119.999995231629,2|2,0:0|0:0,0:0:0:0:
183,311,161270,2,0,P|220:246|230:241,1,59.9999976158143,2|0,0:0|0:0,0:0:0:0:
313,267,161520,5,2,0:0:0:0:
313,267,161645,1,0,0:0:0:0:
313,267,161770,2,0,P|350:202|360:197,1,59.9999976158143,2|0,0:0|0:0,0:0:0:0:
381,144,162020,2,0,P|404:164|417:191,1,59.9999976158143,2|0,0:0|0:0,0:0:0:0:
253,195,162270,2,0,P|290:130|300:125,1,59.9999976158143,2|0,0:0|0:0,0:0:0:0:
325,74,162520,6,0,L|276:64,5,39.9999984105428,2|0|0|0|0|0,0:0|0:0|0:0|0:0|0:0|0:0,0:0:0:0:
259,85,163020,2,0,L|180:68,3,59.9999976158143,2|0|0|0,0:0|0:0|0:0|0:0,0:0:0:0:
157,96,163520,2,0,L|20:64,1,119.999995231629,2|0,0:0|0:0,0:0:0:0:
355,96,164020,2,0,L|471:69,1,119.999995231629,2|0,0:0|0:0,0:0:0:0:
445,283,164520,5,2,0:0:0:0:
445,283,164645,1,0,0:0:0:0:
445,284,164770,2,0,L|328:312,1,119.999995231629,2|2,0:0|0:0,0:0:0:0:
329,311,165270,2,0,P|292:246|282:241,1,59.9999976158143,2|0,0:0|0:0,0:0:0:0:
199,267,165520,5,2,0:0:0:0:
199,267,165645,1,0,0:0:0:0:
199,267,165770,2,0,P|162:202|152:197,1,59.9999976158143,2|0,0:0|0:0,0:0:0:0:
130,144,166020,2,0,P|107:164|94:191,1,59.9999976158143,2|0,0:0|0:0,0:0:0:0:
259,195,166270,2,0,P|222:130|212:125,1,59.9999976158143,2|0,0:0|0:0,0:0:0:0:
187,74,166520,6,0,L|236:64,5,39.9999984105428,2|0|0|0|0|0,0:0|0:0|0:0|0:0|0:0|0:0,0:0:0:0:
253,85,167020,2,0,L|332:68,3,59.9999976158143,2|0|0|0,0:0|0:0|0:0|0:0,0:0:0:0:
355,96,167520,2,0,L|434:79,1,59.9999976158143,2|0,0:0|0:0,0:0:0:0:
401,168,167770,5,8,0:0:0:0:
426,249,167895,1,8,0:0:0:0:
344,230,168020,1,8,0:0:0:0:
111,168,168270,5,8,0:0:0:0:
86,249,168395,1,8,0:0:0:0:
168,230,168520,6,0,P|200:241|227:263,1,71.9999949417116,2|0,0:0|0:0,0:0:0:0:
326,147,168770,2,0,P|294:161|270:186,1,71.9999949417116,8|0,0:0|0:0,0:0:0:0:
384,285,169020,2,0,P|369:253|343:229,1,71.9999949417116,2|0,0:0|0:0,0:0:0:0:
247,349,169270,2,0,P|279:333|303:307,1,71.9999949417116,8|0,0:0|0:0,0:0:0:0:
471,283,169520,6,0,L|443:349,1,71.9999949417116,2|0,0:0|0:0,0:0:0:0:
432,204,169770,2,0,L|459:137,1,71.9999949417116,8|0,0:0|0:0,0:0:0:0:
330,82,170020,2,0,L|373:139,1,71.9999949417116,2|0,0:0|0:0,0:0:0:0:
487,54,170270,2,0,L|415:62,1,71.9999949417116,8|0,0:0|0:0,0:0:0:0:
256,24,170520,6,0,L|184:32,3,71.9999949417116,2|0|8|0,0:0|0:0|0:0|0:0,0:0:0:0:
104,64,171020,2,0,P|131:128|103:192,1,143.999989883423,2|8,0:0|0:0,0:0:0:0:
185,222,171395,1,0,0:0:0:0:
185,222,171520,2,0,L|256:230,3,71.9999949417116,2|0|8|0,0:0|0:0|0:0|0:0,0:0:0:0:
103,192,172020,5,2,0:0:0:0:
109,227,172145,1,0,0:0:0:0:
115,262,172270,1,2,0:0:0:0:
122,298,172395,1,2,0:0:0:0:
128,333,172520,6,0,P|159:317|194:314,1,71.9999949417116,2|0,0:0|0:0,0:0:0:0:
281,330,172770,2,0,P|314:341|341:365,1,71.9999949417116,8|0,0:0|0:0,0:0:0:0:
342,208,173020,2,0,P|314:231|281:243,1,71.9999949417116,2|0,0:0|0:0,0:0:0:0:
417,322,173270,2,0,P|410:286|417:251,1,71.9999949417116,8|0,0:0|0:0,0:0:0:0:
479,191,173520,6,0,L|469:119,1,71.9999949417116,2|0,0:0|0:0,0:0:0:0:
386,1,173770,2,0,L|396:73,1,71.9999949417116,8|0,0:0|0:0,0:0:0:0:
342,208,174020,2,0,L|332:136,1,71.9999949417116,2|0,0:0|0:0,0:0:0:0:
249,18,174270,2,0,L|258:89,1,71.9999949417116,8|0,0:0|0:0,0:0:0:0:
170,208,174520,6,0,L|180:136,3,71.9999949417116,2|0|8|0,0:0|0:0|0:0|0:0,0:0:0:0:
342,208,175020,2,0,L|332:136,3,71.9999949417116,2|0|8|0,0:0|0:0|0:0|0:0,0:0:0:0:
256,252,175520,2,0,L|256:180,3,71.9999949417116,2|0|8|0,0:0|0:0|0:0|0:0,0:0:0:0:
184,343,176020,5,2,0:0:0:0:
218,334,176145,1,0,0:0:0:0:
254,331,176270,1,2,0:0:0:0:
290,336,176395,1,2,0:0:0:0:
323,345,176520,6,0,L|356:205,2,143.999989883423,2|8|2,0:0|0:0|0:0,0:0:0:0:
444,229,177145,1,0,0:0:0:0:
444,229,177270,2,0,L|429:300,1,71.9999949417116,8|0,0:0|0:0,0:0:0:0:
262,221,177520,6,0,L|294:80,1,143.999989883423,2|8,0:0|0:0,0:0:0:0:
354,17,177895,1,0,0:0:0:0:
354,17,178020,2,0,P|371:47|423:78,1,71.9999949417116,2|0,0:0|0:0,0:0:0:0:
483,93,178270,2,0,P|465:124|437:146,1,71.9999949417116,8|0,0:0|0:0,0:0:0:0:
294,80,178520,6,0,P|230:52|166:80,1,143.999989883423,2|8,0:0|0:0,0:0:0:0:
39,11,178895,1,0,0:0:0:0:
39,11,179020,2,0,P|65:36|78:70,1,71.9999949417116,2|0,0:0|0:0,0:0:0:0:
47,177,179270,2,0,P|76:157|112:150,1,71.9999949417116,8|0,0:0|0:0,0:0:0:0:
294,80,179520,6,0,L|261:220,1,143.999989883423,2|8,0:0|0:0,0:0:0:0:
369,316,179895,1,0,0:0:0:0:
369,316,180020,2,0,P|362:281|342:252,1,71.9999949417116,2|0,0:0|0:0,0:0:0:0:
423,221,180270,2,0,P|430:185|450:156,1,71.9999949417116,2|2,0:0|0:0,0:0:0:0:
369,316,180520,6,0,P|305:343|241:315,2,143.999989883423,2|8|2,0:0|0:0|0:0,0:0:0:0:
453,293,181145,1,0,0:0:0:0:
453,293,181270,2,0,L|442:364,1,71.9999949417116,8|0,0:0|0:0,0:0:0:0:
240,314,181520,6,0,P|208:296|174:289,1,71.9999949417116,2|0,0:0|0:0,0:0:0:0:
195,203,181770,2,0,P|160:204|126:215,1,71.9999949417116,8|0,0:0|0:0,0:0:0:0:
101,129,182020,2,0,P|70:147|46:173,1,71.9999949417116,2|0,0:0|0:0,0:0:0:0:
195,203,182270,2,0,P|160:204|126:215,1,71.9999949417116,8|0,0:0|0:0,0:0:0:0:
272,70,182520,6,0,P|304:88|338:95,1,71.9999949417116,2|0,0:0|0:0,0:0:0:0:
316,180,182770,2,0,P|351:179|385:168,1,71.9999949417116,8|0,0:0|0:0,0:0:0:0:
411,255,183020,2,0,P|441:236|465:210,1,71.9999949417116,2|0,0:0|0:0,0:0:0:0:
316,180,183270,2,0,P|351:179|385:168,1,71.9999949417116,8|0,0:0|0:0,0:0:0:0:
399,346,183520,5,2,0:0:0:0:
364,356,183645,1,0,0:0:0:0:
328,358,183770,1,8,0:0:0:0:
293,349,183895,1,0,0:0:0:0:
261,333,184020,2,0,L|248:238,1,71.9999949417116,2|0,0:0|0:0,0:0:0:0:
170,140,184270,2,0,L|179:211,1,71.9999949417116,2|2,0:0|0:0,0:0:0:0:
133,347,184520,6,0,L|124:276,3,71.9999949417116,2|0|8|0,0:0|0:0|0:0|0:0,0:0:0:0:
51,225,185020,2,0,L|42:154,1,71.9999949417116,2|0,0:0|0:0,0:0:0:0:
100,88,185270,2,0,L|90:16,1,71.9999949417116,8|0,0:0|0:0,0:0:0:0:
179,211,185520,2,0,L|170:140,3,71.9999949417116,2|0|8|0,0:0|0:0|0:0|0:0,0:0:0:0:
251,51,186020,6,0,L|264:146,1,71.9999949417116,2|0,0:0|0:0,0:0:0:0:
342,244,186270,2,0,L|332:172,1,71.9999949417116,8|0,0:0|0:0,0:0:0:0:
378,36,186520,6,0,L|388:108,3,71.9999949417116,2|0|8|0,0:0|0:0|0:0|0:0,0:0:0:0:
460,158,187020,2,0,L|470:230,1,71.9999949417116,2|0,0:0|0:0,0:0:0:0:
412,296,187270,2,0,L|421:367,1,71.9999949417116,8|0,0:0|0:0,0:0:0:0:
341,243,187520,2,0,L|332:172,1,71.9999949417116,2|0,0:0|0:0,0:0:0:0:
256,44,187770,5,8,0:0:0:0:
221,54,187895,1,0,0:0:0:0:
185,56,188020,2,0,L|175:127,1,71.9999949417116,2|0,0:0|0:0,0:0:0:0:
94,249,188270,2,0,L|107:154,1,71.9999949417116,2|2,0:0|0:0,0:0:0:0:
192,348,188520,6,0,L|211:205,1,143.999989883423,2|8,0:0|0:0,0:0:0:0:
300,208,188895,1,0,0:0:0:0:
300,208,189020,2,0,P|318:238|344:262,1,71.9999949417116,2|0,0:0|0:0,0:0:0:0:
424,296,189270,2,0,P|442:265|468:241,1,71.9999949417116,8|0,0:0|0:0,0:0:0:0:
400,188,189520,6,0,L|412:117,1,71.9999949417116,2|0,0:0|0:0,0:0:0:0:
344,13,189770,2,0,L|332:84,1,71.9999949417116,8|0,0:0|0:0,0:0:0:0:
232,176,190020,2,0,L|244:105,1,71.9999949417116,2|0,0:0|0:0,0:0:0:0:
176,1,190270,2,0,L|163:71,1,71.9999949417116,8|0,0:0|0:0,0:0:0:0:
47,221,190520,6,0,P|74:197|106:183,1,71.9999949417116,2|0,0:0|0:0,0:0:0:0:
160,316,190770,2,0,P|171:281|192:253,1,71.9999949417116,8|0,0:0|0:0,0:0:0:0:
352,316,191020,2,0,P|340:281|319:253,1,71.9999949417116,2|0,0:0|0:0,0:0:0:0:
464,221,191270,2,0,P|437:197|405:183,1,71.9999949417116,8|0,0:0|0:0,0:0:0:0:
400,40,191520,5,2,0:0:0:0:
364,41,191645,1,0,0:0:0:0:
331,54,191770,1,8,0:0:0:0:
303,77,191895,1,0,0:0:0:0:
283,107,192020,6,0,P|256:83|223:68,1,71.9999949417116,2|0,0:0|0:0,0:0:0:0:
124,182,192270,2,0,P|157:167|184:144,1,71.9999949417116,2|2,0:0|0:0,0:0:0:0:
16,20,192520,6,0,P|64:71|135:70,2,143.999989883423,2|8|2,0:0|0:0|0:0,0:0:0:0:
184,144,193145,1,0,0:0:0:0:
184,144,193270,2,0,P|157:167|124:182,1,71.9999949417116,8|0,0:0|0:0,0:0:0:0:
187,314,193520,2,0,P|180:279|184:244,1,71.9999949417116,2|0,0:0|0:0,0:0:0:0:
37,230,193770,2,0,P|71:241|100:263,1,71.9999949417116,8|0,0:0|0:0,0:0:0:0:
256,200,194020,6,0,P|284:178|318:167,1,71.9999949417116,2|0,0:0|0:0,0:0:0:0:
408,163,194270,2,0,P|443:169|475:185,1,71.9999949417116,8|0,0:0|0:0,0:0:0:0:
337,350,194520,6,0,P|355:283|417:250,2,143.999989883423,2|8|2,0:0|0:0|0:0,0:0:0:0:
475,185,195145,1,0,0:0:0:0:
475,185,195270,2,0,P|443:169|408:163,1,71.9999949417116,8|0,0:0|0:0,0:0:0:0:
336,116,195520,2,0,P|365:96|388:68,1,71.9999949417116,2|0,0:0|0:0,0:0:0:0:
465,29,195770,2,0,P|467:64|480:98,1,71.9999949417116,8|0,0:0|0:0,0:0:0:0:
417,250,196020,6,0,L|344:228,1,71.9999949417116,2|0,0:0|0:0,0:0:0:0:
195,223,196270,2,0,L|264:244,1,71.9999949417116,2|2,0:0|0:0,0:0:0:0:
421,369,196520,2,0,L|284:328,1,143.999989883423,2|8,0:0|0:0,0:0:0:0:
283,327,197020,6,0,L|352:348,1,71.9999949417116,2|0,0:0|0:0,0:0:0:0:
195,223,197270,2,0,L|264:244,1,71.9999949417116,8|0,0:0|0:0,0:0:0:0:
328,145,197520,1,2,0:0:0:0:
293,134,197645,1,0,0:0:0:0:
259,124,197770,1,8,0:0:0:0:
224,113,197895,1,0,0:0:0:0:
190,103,198020,6,0,P|167:130|137:150,1,71.9999949417116,2|0,0:0|0:0,0:0:0:0:
31,172,198270,2,0,P|54:200|84:220,1,71.9999949417116,8|0,0:0|0:0,0:0:0:0:
195,223,198520,6,0,P|175:290|113:323,2,143.999989883423,2|8|2,0:0|0:0|0:0,0:0:0:0:
316,223,199145,1,0,0:0:0:0:
317,222,199270,2,0,P|335:290|396:323,1,143.999989883423,8|2,0:0|0:0,0:0:0:0:
404,236,199645,1,0,0:0:0:0:
428,210,199770,1,8,0:0:0:0:
461,195,199895,1,0,0:0:0:0:
497,194,200020,6,0,P|491:158|474:126,1,71.9999949417116,2|0,0:0|0:0,0:0:0:0:
388,124,200270,2,0,P|371:92|365:56,1,71.9999949417116,2|2,0:0|0:0,0:0:0:0:
256,152,200520,2,0,L|268:-4,2,143.999989883423,2|8|2,0:0|0:0|0:0,0:0:0:0:
194,222,201145,1,0,0:0:0:0:
194,222,201270,2,0,P|176:290|115:323,1,143.999989883423,8|2,0:0|0:0,0:0:0:0:
108,236,201645,1,0,0:0:0:0:
84,210,201770,1,8,0:0:0:0:
51,195,201895,1,0,0:0:0:0:
15,194,202020,6,0,P|20:158|37:126,1,71.9999949417116,2|0,0:0|0:0,0:0:0:0:
124,124,202270,2,0,P|140:92|146:56,1,71.9999949417116,8|0,0:0|0:0,0:0:0:0:
256,152,202520,2,0,L|244:-4,2,143.999989883423,2|8|2,0:0|0:0|0:0,0:0:0:0:
317,222,203145,1,0,0:0:0:0:
317,222,203270,2,0,P|335:290|396:323,1,143.999989883423,8|2,0:0|0:0,0:0:0:0:
445,252,203645,2,0,P|427:220|400:196,2,71.9999949417116,0|8|0,0:0|0:0|0:0,0:0:0:0:
337,137,204020,6,0,L|347:44,1,71.9999949417116,2|0,0:0|0:0,0:0:0:0:
435,16,204270,2,0,L|428:88,1,71.9999949417116,2|2,0:0|0:0,0:0:0:0:
256,88,204520,2,0,P|206:38|137:40,1,143.999989883423,2|8,0:0|0:0,0:0:0:0:
52,60,204895,1,0,0:0:0:0:
51,60,205019,2,0,P|66:92|93:116,1,71.9999949417116,2|0,0:0|0:0,0:0:0:0:
225,167,205270,2,0,P|189:164|156:176,1,71.9999949417116,8|0,0:0|0:0,0:0:0:0:
44,264,205520,6,0,P|64:234|71:199,1,71.9999949417116,2|0,0:0|0:0,0:0:0:0:
244,288,205770,2,0,P|223:317|216:352,1,71.9999949417116,8|0,0:0|0:0,0:0:0:0:
156,176,206020,2,0,P|185:196|220:203,1,71.9999949417116,2|0,0:0|0:0,0:0:0:0:
132,376,206270,2,0,P|102:355|67:348,1,71.9999949417116,8|0,0:0|0:0,0:0:0:0:
244,288,206520,6,0,P|279:280|308:260,1,71.9999949417116,2|0,0:0|0:0,0:0:0:0:
415,82,206770,2,0,P|391:109|379:142,1,71.9999949417116,8|0,0:0|0:0,0:0:0:0:
398,349,207020,2,0,P|402:314|392:280,1,71.9999949417116,2|0,0:0|0:0,0:0:0:0:
254,123,207270,2,0,P|271:153|299:175,1,71.9999949417116,8|0,0:0|0:0,0:0:0:0:
503,221,207520,2,0,P|470:206|435:205,3,71.9999949417116,2|0|8|0,0:0|0:0|0:0|0:0,0:0:0:0:
378,142,208020,5,2,0:0:0:0:
411,126,208145,1,0,0:0:0:0:
407,90,208270,1,2,0:0:0:0:
371,82,208395,1,2,0:0:0:0:
353,114,208520,1,2,0:0:0:0:
426,82,211770,5,8,0:0:0:0:
341,95,211895,1,8,0:0:0:0:
256,108,212020,1,8,0:0:0:0:
86,302,212270,5,8,0:0:0:0:
171,289,212395,1,8,0:0:0:0:
256,276,212520,6,0,P|316:312|414:280,2,167.999988197327,6|8|2,0:0|0:0|0:0,0:0:0:0:
200,192,213145,1,0,0:0:0:0:
200,192,213270,2,0,L|76:208,1,83.9999940986636,8|0,0:0|0:0,0:0:0:0:
315,84,213520,2,0,L|148:104,1,167.999988197327,2|8,0:0|0:0,0:0:0:0:
284,180,213895,1,0,0:0:0:0:
284,180,214020,2,0,L|451:160,1,167.999988197327,2|8,0:0|0:0,0:0:0:0:
384,332,214395,5,0,0:0:0:0:
384,332,214520,2,0,P|418:272|521:255,2,167.999988197327,2|8|2,0:0|0:0|0:0,0:0:0:0:
296,380,215145,1,0,0:0:0:0:
296,380,215270,2,0,P|286:344|258:308,1,83.9999940986636,8|0,0:0|0:0,0:0:0:0:
182,134,215520,2,0,L|156:300,1,167.999988197327,2|8,0:0|0:0,0:0:0:0:
272,180,215895,1,0,0:0:0:0:
272,180,216020,2,0,L|298:14,1,167.999988197327,2|2,0:0|0:0,0:0:0:0:
69,95,216395,5,2,0:0:0:0:
69,94,216520,2,0,P|115:27|196:16,2,167.999988197327,2|8|2,0:0|0:0|0:0,0:0:0:0:
79,227,217145,2,0,P|50:196|12:180,1,83.9999940986636,0|8,0:0|0:0,0:0:0:0:
169,112,217395,1,0,0:0:0:0:
169,112,217520,2,0,P|181:192|249:237,1,167.999988197327,2|8,0:0|0:0,0:0:0:0:
441,232,217895,1,0,0:0:0:0:
441,232,218020,2,0,P|361:244|316:313,1,167.999988197327,2|8,0:0|0:0,0:0:0:0:
169,294,218395,5,0,0:0:0:0:
169,294,218520,2,0,L|-16:269,2,167.999988197327,2|8|2,0:0|0:0|0:0,0:0:0:0:
249,236,219145,1,0,0:0:0:0:
249,236,219270,2,0,P|217:210|177:197,1,83.9999940986636,8|0,0:0|0:0,0:0:0:0:
256,64,219520,5,2,0:0:0:0:
274,94,219645,1,0,0:0:0:0:
299,117,219770,1,8,0:0:0:0:
332,129,219895,1,0,0:0:0:0:
365,133,220020,2,0,P|406:128|443:107,1,83.9999940986636,2|0,0:0|0:0,0:0:0:0:
509,233,220270,2,0,P|473:212|432:208,1,83.9999940986636,2|2,0:0|0:0,0:0:0:0:
307,368,220520,6,0,P|388:368|444:308,2,167.999988197327,6|8|2,0:0|0:0|0:0,0:0:0:0:
244,288,221145,1,0,0:0:0:0:
244,288,221270,2,0,P|213:259|174:244,1,83.9999940986636,8|0,0:0|0:0,0:0:0:0:
76,264,221520,2,0,L|44:80,2,167.999988197327,2|8|2,0:0|0:0|0:0,0:0:0:0:
176,244,222145,5,0,0:0:0:0:
205,227,222270,1,8,0:0:0:0:
226,201,222395,1,0,0:0:0:0:
240,170,222520,2,0,L|208:-14,1,167.999988197327,2|8,0:0|0:0,0:0:0:0:
130,66,222895,1,0,0:0:0:0:
130,66,223020,2,0,L|144:148,1,83.9999940986636,2|0,0:0|0:0,0:0:0:0:
254,252,223270,2,0,L|239:169,1,83.9999940986636,8|0,0:0|0:0,0:0:0:0:
315,19,223520,6,0,P|370:79|451:79,1,167.999988197327,2|8,0:0|0:0,0:0:0:0:
511,160,223895,1,0,0:0:0:0:
511,160,224020,2,0,P|471:173|440:201,1,83.9999940986636,2|0,0:0|0:0,0:0:0:0:
474,356,224270,1,2,0:0:0:0:
476,322,224395,1,2,0:0:0:0:
478,288,224520,6,0,L|304:303,1,167.999988197327,2|8,0:0|0:0,0:0:0:0:
173,383,224895,1,0,0:0:0:0:
173,383,225020,2,0,L|209:307,1,83.9999940986636,2|0,0:0|0:0,0:0:0:0:
207,147,225270,2,0,L|256:216,1,83.9999940986636,8|0,0:0|0:0,0:0:0:0:
446,121,225520,6,0,P|390:60|309:60,1,167.999988197327,2|8,0:0|0:0,0:0:0:0:
66,121,225895,1,0,0:0:0:0:
66,121,226020,2,0,P|121:60|202:60,1,167.999988197327,2|8,0:0|0:0,0:0:0:0:
334,232,226395,5,0,0:0:0:0:
334,232,226520,2,0,L|435:252,2,83.9999940986636,6|0|8,0:0|0:0|0:0,0:0:0:0:
178,232,226895,1,0,0:0:0:0:
178,232,227020,2,0,L|77:252,2,83.9999940986636,6|0|8,0:0|0:0|0:0,0:0:0:0:
356,324,227395,5,0,0:0:0:0:
356,324,227520,2,0,L|457:344,1,83.9999940986636,6|0,0:0|0:0,0:0:0:0:
156,324,227770,2,0,L|55:344,1,83.9999940986636,8|0,0:0|0:0,0:0:0:0:
256,256,228020,1,2,0:0:0:0:
256,214,228145,1,0,0:0:0:0:
256,172,228270,1,2,0:0:0:0:
256,130,228395,1,2,0:0:0:0:
256,88,228520,6,0,P|176:71|110:119,1,167.999988197327,6|8,0:0|0:0,0:0:0:0:
100,220,228895,2,0,P|68:192|29:179,1,83.9999940986636,0|2,0:0|0:0,0:0:0:0:
111,319,229145,1,0,0:0:0:0:
111,319,229270,2,0,P|142:291|182:279,1,83.9999940986636,8|0,0:0|0:0,0:0:0:0:
343,306,229520,6,0,L|359:130,1,167.999988197327,2|8,0:0|0:0,0:0:0:0:
443,191,229895,1,0,0:0:0:0:
443,191,230020,2,0,L|436:275,1,83.9999940986636,2|0,0:0|0:0,0:0:0:0:
262,156,230270,1,8,0:0:0:0:
259,122,230395,1,0,0:0:0:0:
256,88,230520,6,0,P|326:47|404:72,1,167.999988197327,2|8,0:0|0:0,0:0:0:0:
499,40,230895,1,0,0:0:0:0:
499,40,231020,2,0,L|491:123,1,83.9999940986636,2|0,0:0|0:0,0:0:0:0:
395,257,231270,2,0,L|403:174,1,83.9999940986636,8|0,0:0|0:0,0:0:0:0:
304,363,231520,6,0,L|286:189,1,167.999988197327,2|8,0:0|0:0,0:0:0:0:
105,121,231895,1,0,0:0:0:0:
105,121,232020,2,0,L|113:204,1,83.9999940986636,2|0,0:0|0:0,0:0:0:0:
209,338,232270,2,0,L|201:255,1,83.9999940986636,2|2,0:0|0:0,0:0:0:0:
186,58,232520,6,0,P|115:17|37:43,1,167.999988197327,2|8,0:0|0:0,0:0:0:0:
197,158,232895,1,0,0:0:0:0:
197,158,233020,2,0,P|236:145|267:118,1,83.9999940986636,2|0,0:0|0:0,0:0:0:0:
351,173,233270,2,0,P|368:136|372:94,1,83.9999940986636,8|0,0:0|0:0,0:0:0:0:
312,267,233520,6,0,L|479:249,1,167.999988197327,2|8,0:0|0:0,0:0:0:0:
365,352,233895,1,0,0:0:0:0:
365,352,234020,2,0,L|448:342,1,83.9999940986636,2|0,0:0|0:0,0:0:0:0:
259,342,234270,5,8,0:0:0:0:
225,346,234395,1,0,0:0:0:0:
191,350,234520,2,0,P|162:273|85:244,2,167.999988197327,2|8|2,0:0|0:0|0:0,0:0:0:0:
224,214,235145,1,0,0:0:0:0:
224,214,235270,2,0,P|255:186|294:173,1,83.9999940986636,8|0,0:0|0:0,0:0:0:0:
392,143,235520,2,0,L|382:226,1,83.9999940986636,2|0,0:0|0:0,0:0:0:0:
294,173,235770,2,0,L|304:90,1,83.9999940986636,8|0,0:0|0:0,0:0:0:0:
208,55,236020,5,2,0:0:0:0:
190,85,236145,1,0,0:0:0:0:
165,108,236270,1,2,0:0:0:0:
132,120,236395,1,2,0:0:0:0:
98,124,236520,6,0,P|57:118|21:98,1,83.9999940986636,6|0,0:0|0:0,0:0:0:0:
57,242,236770,2,0,P|93:222|135:217,1,83.9999940986636,8|0,0:0|0:0,0:0:0:0:
224,265,237020,2,0,L|279:90,2,167.999988197327,2|8|2,0:0|0:0|0:0,0:0:0:0:
391,333,237645,5,0,0:0:0:0:
362,316,237770,1,8,0:0:0:0:
341,290,237895,1,0,0:0:0:0:
327,259,238020,2,0,L|354:171,1,83.9999940986636,2|0,0:0|0:0,0:0:0:0:
475,72,238270,2,0,L|450:153,1,83.9999940986636,8|0,0:0|0:0,0:0:0:0:
274,104,238520,6,0,P|216:46|135:50,1,167.999988197327,2|8,0:0|0:0,0:0:0:0:
36,72,238895,1,0,0:0:0:0:
36,72,239020,2,0,L|62:153,1,83.9999940986636,2|0,0:0|0:0,0:0:0:0:
185,259,239270,2,0,L|159:178,1,83.9999940986636,8|0,0:0|0:0,0:0:0:0:
238,103,239520,6,0,P|295:45|376:50,1,167.999988197327,2|8,0:0|0:0,0:0:0:0:
408,167,239895,1,0,0:0:0:0:
408,167,240020,2,0,P|367:161|331:141,1,83.9999940986636,2|0,0:0|0:0,0:0:0:0:
441,263,240270,2,0,P|466:230|502:208,1,83.9999940986636,2|2,0:0|0:0,0:0:0:0:
342,243,240520,6,0,P|332:324|268:384,1,167.999988197327,2|8,0:0|0:0,0:0:0:0:
156,372,240895,1,0,0:0:0:0:
156,372,241020,2,0,L|172:276,1,83.9999940986636,2|0,0:0|0:0,0:0:0:0:
81,217,241270,2,0,L|68:300,1,83.9999940986636,8|0,0:0|0:0,0:0:0:0:
84,120,241520,6,0,P|163:98|200:26,1,167.999988197327,2|8,0:0|0:0,0:0:0:0:
428,120,241895,1,0,0:0:0:0:
428,120,242020,2,0,P|348:98|311:26,1,167.999988197327,2|8,0:0|0:0,0:0:0:0:
178,232,242395,5,0,0:0:0:0:
178,232,242520,2,0,L|77:252,2,83.9999940986636,6|0|8,0:0|0:0|0:0,0:0:0:0:
334,232,242895,1,0,0:0:0:0:
334,232,243020,2,0,L|435:252,2,83.9999940986636,6|0|8,0:0|0:0|0:0,0:0:0:0:
156,324,243395,5,0,0:0:0:0:
156,324,243520,2,0,L|55:344,1,83.9999940986636,6|0,0:0|0:0,0:0:0:0:
356,324,243770,2,0,L|457:344,1,83.9999940986636,8|0,0:0|0:0,0:0:0:0:
256,360,244020,5,2,0:0:0:0:
256,276,244145,1,0,0:0:0:0:
256,192,244270,1,2,0:0:0:0:
256,108,244395,1,2,0:0:0:0:
256,24,244520,6,0,P|173:24|112:104,1,179.999999713898,6|8,0:0|0:0,0:0:0:0:
148,248,244895,1,0,0:0:0:0:
148,248,245020,2,0,P|92:188|-4:192,1,179.999999713898,2|8,0:0|0:0,0:0:0:0:
256,112,245395,5,0,0:0:0:0:
256,112,245520,2,0,P|224:139|180:156,1,89.9999998569489,2|0,0:0|0:0,0:0:0:0:
364,240,245770,2,0,P|332:212|285:196,1,89.9999998569489,8|0,0:0|0:0,0:0:0:0:
256,24,246020,6,0,P|338:24|404:96,1,179.999999713898,2|8,0:0|0:0,0:0:0:0:
364,240,246395,1,0,0:0:0:0:
364,240,246520,2,0,P|419:180|512:184,1,179.999999713898,6|8,0:0|0:0,0:0:0:0:
256,112,246895,5,0,0:0:0:0:
256,112,247020,2,0,P|288:139|332:156,1,89.9999998569489,2|0,0:0|0:0,0:0:0:0:
148,240,247270,2,0,P|180:212|227:196,1,89.9999998569489,8|0,0:0|0:0,0:0:0:0:
66,163,247520,6,0,P|36:246|75:324,1,179.999999713898,2|8,0:0|0:0,0:0:0:0:
172,330,247895,1,0,0:0:0:0:
205,305,248020,1,2,0:0:0:0:
246,295,248145,1,0,0:0:0:0:
287,302,248270,1,2,0:0:0:0:
322,325,248395,1,2,0:0:0:0:
347,357,248520,6,0,P|408:304|504:320,1,179.999999713898,6|8,0:0|0:0,0:0:0:0:
476,131,248895,1,0,0:0:0:0:
476,131,249020,2,0,L|464:224,1,89.9999998569489,2|0,0:0|0:0,0:0:0:0:
397,1,249270,2,0,L|385:94,1,89.9999998569489,8|0,0:0|0:0,0:0:0:0:
280,232,249520,6,0,P|219:179|123:195,1,179.999999713898,2|8,0:0|0:0,0:0:0:0:
115,1,249895,1,0,0:0:0:0:
115,1,250020,2,0,L|127:94,1,89.9999998569489,2|0,0:0|0:0,0:0:0:0:
36,131,250270,2,0,L|48:224,1,89.9999998569489,8|0,0:0|0:0,0:0:0:0:
150,371,250520,6,0,L|126:192,1,179.999999713898,6|8,0:0|0:0,0:0:0:0:
252,286,250895,1,0,0:0:0:0:
252,286,251020,2,0,L|228:107,1,179.999999713898,2|8,0:0|0:0,0:0:0:0:
354,201,251395,1,0,0:0:0:0:
354,201,251520,2,0,L|340:88,1,89.9999998569489,2|0,0:0|0:0,0:0:0:0:
216,17,251770,2,0,L|228:107,1,89.9999998569489,8|0,0:0|0:0,0:0:0:0:
448,261,252020,1,2,0:0:0:0:
443,219,252145,1,0,0:0:0:0:
438,177,252270,1,2,0:0:0:0:
433,135,252395,1,2,0:0:0:0:
428,94,252520,6,0,P|389:78|340:76,1,89.9999998569489,6|0,0:0|0:0,0:0:0:0:
282,242,252770,2,0,P|318:216|343:178,1,89.9999998569489,8|0,0:0|0:0,0:0:0:0:
231,37,253020,2,0,P|234:82|255:121,1,89.9999998569489,2|0,0:0|0:0,0:0:0:0:
379,284,253270,5,8,0:0:0:0:
348,312,253395,1,0,0:0:0:0:
310,328,253520,2,0,P|268:335|220:328,1,89.9999998569489,2|0,0:0|0:0,0:0:0:0:
82,244,253770,1,8,0:0:0:0:
113,216,253895,1,0,0:0:0:0:
151,200,254020,2,0,P|192:192|244:200,1,89.9999998569489,2|0,0:0|0:0,0:0:0:0:
279,12,254270,2,0,P|265:51|232:92,1,89.9999998569489,8|0,0:0|0:0,0:0:0:0:
456,251,254520,6,0,P|375:216|330:140,2,179.999999713898,6|8|2,0:0|0:0|0:0,0:0:0:0:
261,372,255145,1,0,0:0:0:0:
261,372,255270,2,0,P|288:340|304:296,1,89.9999998569489,8|0,0:0|0:0,0:0:0:0:
132,319,255520,2,0,P|172:304|208:272,1,89.9999998569489,2|0,0:0|0:0,0:0:0:0:
46,208,255770,2,0,P|87:215|136:208,1,89.9999998569489,8|0,0:0|0:0,0:0:0:0:
256,76,256020,5,2,0:0:0:0:
285,45,256145,1,0,0:0:0:0:
323,28,256270,1,2,0:0:0:0:
364,26,256395,1,2,0:0:0:0:
404,40,256520,6,0,P|426:118|508:168,1,179.999999713898,6|8,0:0|0:0,0:0:0:0:
460,256,256895,1,0,0:0:0:0:
460,256,257020,2,0,L|368:248,1,89.9999998569489,2|0,0:0|0:0,0:0:0:0:
256,144,257270,2,0,L|364:156,1,89.9999998569489,8|0,0:0|0:0,0:0:0:0:
108,40,257520,6,0,P|86:118|4:168,1,179.999999713898,2|8,0:0|0:0,0:0:0:0:
52,256,257895,1,0,0:0:0:0:
52,256,258020,2,0,L|144:248,1,89.9999998569489,2|0,0:0|0:0,0:0:0:0:
256,144,258270,2,0,L|148:156,1,89.9999998569489,8|0,0:0|0:0,0:0:0:0:
332,252,258520,6,0,L|424:244,2,89.9999998569489,6|0|8,0:0|0:0|0:0,0:0:0:0:
180,252,258895,1,0,0:0:0:0:
180,252,259020,2,0,L|88:244,2,89.9999998569489,6|0|8,0:0|0:0|0:0,0:0:0:0:
384,336,259395,5,0,0:0:0:0:
384,336,259520,2,0,L|476:328,1,89.9999998569489,6|0,0:0|0:0,0:0:0:0:
128,336,259770,2,0,L|36:328,1,89.9999998569489,8|0,0:0|0:0,0:0:0:0:
256,360,260020,5,2,0:0:0:0:
256,276,260145,1,0,0:0:0:0:
256,192,260270,1,2,0:0:0:0:
256,108,260395,1,2,0:0:0:0:
256,24,260520,6,0,P|339:24|400:104,1,179.999999713898,6|8,0:0|0:0,0:0:0:0:
256,24,260895,1,0,0:0:0:0:
256,24,261020,2,0,P|169:26|115:94,1,179.999999713898,2|8,0:0|0:0,0:0:0:0:
28,160,261395,5,0,0:0:0:0:
28,160,261519,2,0,P|69:176|104:203,1,89.9999998569489,2|0,0:0|0:0,0:0:0:0:
115,312,261770,2,0,P|156:295|191:268,1,89.9999998569489,8|0,0:0|0:0,0:0:0:0:
397,312,262020,2,0,P|355:295|320:268,1,89.9999998569489,2|0,0:0|0:0,0:0:0:0:
484,160,262270,2,0,P|442:176|407:203,1,89.9999998569489,8|0,0:0|0:0,0:0:0:0:
208,49,262520,6,0,L|24:34,1,179.999999713898,6|8,0:0|0:0,0:0:0:0:
316,145,262895,1,0,0:0:0:0:
316,145,263020,2,0,L|136:130,1,179.999999713898,2|8,0:0|0:0,0:0:0:0:
424,241,263395,5,0,0:0:0:0:
424,241,263520,2,0,L|312:233,1,89.9999998569489,2|0,0:0|0:0,0:0:0:0:
138,250,263770,2,0,L|228:257,1,89.9999998569489,8|0,0:0|0:0,0:0:0:0:
390,344,264020,2,0,L|278:336,1,89.9999998569489,2|0,0:0|0:0,0:0:0:0:
104,353,264270,2,0,L|194:360,1,89.9999998569489,2|2,0:0|0:0,0:0:0:0:
334,233,264520,6,0,P|326:146|255:95,2,179.999999713898,6|8|2,0:0|0:0|0:0,0:0:0:0:
478,100,265145,1,0,0:0:0:0:
478,100,265270,2,0,P|460:141|427:171,1,89.9999998569489,8|0,0:0|0:0,0:0:0:0:
242,194,265520,6,0,P|171:244|163:331,1,179.999999713898,2|8,0:0|0:0,0:0:0:0:
334,233,265895,1,0,0:0:0:0:
339,189,266020,1,2,0:0:0:0:
326,146,266145,1,0,0:0:0:0:
296,113,266270,1,8,0:0:0:0:
255,95,266395,1,0,0:0:0:0:
209,100,266520,6,0,P|223:57|219:13,1,89.9999998569489,6|0,0:0|0:0,0:0:0:0:
187,201,266770,2,0,P|217:235|258:254,1,89.9999998569489,8|0,0:0|0:0,0:0:0:0:
110,132,267020,2,0,P|66:140|29:166,1,89.9999998569489,2|0,0:0|0:0,0:0:0:0:
82,339,267270,2,0,P|126:331|163:306,1,89.9999998569489,8|0,0:0|0:0,0:0:0:0:
336,192,267520,5,2,0:0:0:0:
379,184,267645,1,0,0:0:0:0:
423,195,267770,1,8,0:0:0:0:
457,223,267895,1,0,0:0:0:0:
477,263,268020,2,0,P|440:288|416:327,1,89.9999998569489,2|0,0:0|0:0,0:0:0:0:
264,268,268270,5,2,0:0:0:0:
230,240,268395,1,2,0:0:0:0:
211,200,268520,2,0,P|247:175|270:137,1,89.9999998569489,6|0,0:0|0:0,0:0:0:0:
137,282,268770,2,0,P|141:326|162:365,1,89.9999998569489,8|0,0:0|0:0,0:0:0:0:
102,177,269020,2,0,P|62:157|18:157,1,89.9999998569489,2|0,0:0|0:0,0:0:0:0:
130,22,269270,2,0,P|161:54|176:97,1,89.9999998569489,8|0,0:0|0:0,0:0:0:0:
307,224,269520,6,0,L|512:213,1,179.999999713898,2|8,0:0|0:0,0:0:0:0:
467,0,269895,1,0,0:0:0:0:
467,0,270020,2,0,P|396:50|388:137,1,179.999999713898,2|8,0:0|0:0,0:0:0:0:
348,320,270395,5,0,0:0:0:0:
348,320,270520,2,0,L|168:329,2,179.999999713898,6|8|2,0:0|0:0|0:0,0:0:0:0:
196,228,271145,1,0,0:0:0:0:
196,228,271270,2,0,L|64:236,1,89.9999998569489,8|0,0:0|0:0,0:0:0:0:
45,0,271520,6,0,P|116:50|124:137,1,179.999999713898,2|8,0:0|0:0,0:0:0:0:
316,124,271895,1,0,0:0:0:0:
316,124,272020,2,0,L|184:132,1,89.9999998569489,2|0,0:0|0:0,0:0:0:0:
436,20,272270,2,0,L|304:28,1,89.9999998569489,2|2,0:0|0:0,0:0:0:0:
412,256,272520,6,0,P|419:169|490:118,2,179.999999713898,6|8|2,0:0|0:0|0:0,0:0:0:0:
308,292,273145,1,0,0:0:0:0:
308,292,273270,2,0,P|279:257|239:239,1,89.9999998569489,8|0,0:0|0:0,0:0:0:0:
88,148,273520,6,0,P|169:118|200:36,1,179.999999713898,2|8,0:0|0:0,0:0:0:0:
424,148,273895,1,0,0:0:0:0:
424,148,274020,2,0,P|342:118|311:36,1,179.999999713898,2|8,0:0|0:0,0:0:0:0:
180,252,274395,5,0,0:0:0:0:
180,252,274520,2,0,L|88:244,2,89.9999998569489,6|0|8,0:0|0:0|0:0,0:0:0:0:
332,252,274895,1,0,0:0:0:0:
332,252,275020,2,0,L|424:244,2,89.9999998569489,6|0|8,0:0|0:0|0:0,0:0:0:0:
128,336,275395,5,0,0:0:0:0:
128,336,275520,2,0,L|36:328,1,89.9999998569489,6|0,0:0|0:0,0:0:0:0:
384,336,275770,2,0,L|476:328,1,89.9999998569489,8|0,0:0|0:0,0:0:0:0:
256,360,276020,5,2,0:0:0:0:
256,276,276145,1,0,0:0:0:0:
256,192,276270,1,2,0:0:0:0:
256,108,276395,1,2,0:0:0:0:
256,25,276520,5,2,0:0:0:0:
256,25,276645,1,0,0:0:0:0:
256,24,276770,2,0,L|374:8,1,119.999995231629,2|2,0:0|0:0,0:0:0:0:
374,8,277270,2,0,P|411:73|421:78,1,59.9999976158143,2|0,0:0|0:0,0:0:0:0:
348,129,277520,5,2,0:0:0:0:
348,129,277645,1,0,0:0:0:0:
348,129,277770,2,0,P|385:194|395:199,1,59.9999976158143,2|0,0:0|0:0,0:0:0:0:
416,252,278020,2,0,P|439:232|452:205,1,59.9999976158143,2|0,0:0|0:0,0:0:0:0:
288,201,278270,2,0,P|325:266|335:271,1,59.9999976158143,2|0,0:0|0:0,0:0:0:0:
296,337,278520,6,0,L|247:347,5,39.9999984105428,2|0|0|0|0|0,0:0|0:0|0:0|0:0|0:0|0:0,0:0:0:0:
230,326,279020,2,0,L|151:343,3,59.9999976158143,2|0|0|0,0:0|0:0|0:0|0:0,0:0:0:0:
128,315,279520,2,0,L|-9:347,1,119.999995231629,2|0,0:0|0:0,0:0:0:0:
384,315,280020,2,0,L|521:347,1,119.999995231629,2|0,0:0|0:0,0:0:0:0:
256,25,280520,5,2,0:0:0:0:
256,25,280645,1,0,0:0:0:0:
256,24,280770,2,0,L|137:8,1,119.999995231629,2|2,0:0|0:0,0:0:0:0:
138,8,281270,2,0,P|101:73|91:78,1,59.9999976158143,2|0,0:0|0:0,0:0:0:0:
164,129,281520,5,2,0:0:0:0:
164,129,281645,1,0,0:0:0:0:
164,129,281770,2,0,P|127:194|117:199,1,59.9999976158143,2|0,0:0|0:0,0:0:0:0:
96,252,282020,2,0,P|73:232|60:205,1,59.9999976158143,2|0,0:0|0:0,0:0:0:0:
224,201,282270,2,0,P|187:266|177:271,1,59.9999976158143,2|0,0:0|0:0,0:0:0:0:
216,337,282520,6,0,L|265:347,5,39.9999984105428,2|0|0|0|0|0,0:0|0:0|0:0|0:0|0:0|0:0,0:0:0:0:
282,326,283020,2,0,L|361:343,3,59.9999976158143,2|0|0|0,0:0|0:0|0:0|0:0,0:0:0:0:
384,315,283520,2,0,L|521:347,1,119.999995231629,2|0,0:0|0:0,0:0:0:0:
128,315,284020,2,0,L|-9:347,1,119.999995231629,2|0,0:0|0:0,0:0:0:0:
