osu file format v14

[General]
AudioFilename: audio.mp3
AudioLeadIn: 0
PreviewTime: 100286
Countdown: 1
SampleSet: None
StackLeniency: 0.7
Mode: 2
LetterboxInBreaks: 0
WidescreenStoryboard: 0

[Editor]
DistanceSpacing: 0.8
BeatDivisor: 8
GridSize: 16
TimelineZoom: 1

[Metadata]
Title:SWITCHED-ON LOTUS
TitleUnicode:SWITCHED-ON LOTUS
Artist:Susumu Hirasawa
ArtistUnicode:Susumu Hirasawa
Creator:Negri_sk
Version:?
Source:
Tags:
BeatmapID:1217811
BeatmapSetID:575058

[Difficulty]
HPDrainRate:6
CircleSize:4
OverallDifficulty:9
ApproachRate:9
SliderMultiplier:1.4
SliderTickRate:1

[Events]
//Background and Video events
//Break Periods
2,22496,99686
2,138061,224913
//Storyboard Layer 0 (Background)
//Storyboard Layer 1 (Fail)
//Storyboard Layer 2 (Pass)
//Storyboard Layer 3 (Foreground)
//Storyboard Sound Samples

[TimingPoints]
8470,521.739130434783,4,1,0,30,1,0
11600,-50,4,1,0,30,0,0
104459,-50,4,1,0,30,0,1
137851,-50,4,1,0,30,0,0
225493,-50,4,1,0,30,0,1
241145,-50,4,1,0,30,0,0
242188,-50,4,1,0,30,0,1
258884,-50,4,1,0,30,0,0

[HitObjects]
64,80,8470,5,0,0:0:0:0:
144,80,8600,1,0,0:0:0:0:
64,80,8730,1,0,0:0:0:0:
144,80,8861,1,0,0:0:0:0:
224,80,8991,1,0,0:0:0:0:
304,80,9122,1,0,0:0:0:0:
224,80,9252,1,0,0:0:0:0:
304,80,9383,1,0,0:0:0:0:
384,80,9513,5,0,0:0:0:0:
448,80,9578,1,0,0:0:0:0:
384,80,9643,1,0,0:0:0:0:
448,80,9709,1,0,0:0:0:0:
384,80,9774,1,0,0:0:0:0:
64,224,9904,5,0,0:0:0:0:
128,256,10035,1,0,0:0:0:0:
64,224,10165,1,0,0:0:0:0:
32,160,10296,1,0,0:0:0:0:
64,96,10426,1,0,0:0:0:0:
320,256,10556,5,0,0:0:0:0:
416,256,10687,1,0,0:0:0:0:
320,256,10817,1,0,0:0:0:0:
416,256,10948,1,0,0:0:0:0:
128,192,11078,1,0,0:0:0:0:
80,192,11143,1,0,0:0:0:0:
128,192,11209,1,0,0:0:0:0:
80,192,11274,1,0,0:0:0:0:
128,192,11339,1,0,0:0:0:0:
432,256,11469,5,0,0:0:0:0:
224,176,11600,2,0,L|304:176,1,70
112,128,11861,2,0,L|192:128,1,70
0,80,12122,2,0,L|80:80,2,70
400,80,12513,5,0,0:0:0:0:
320,80,12643,1,0,0:0:0:0:
400,80,12774,1,0,0:0:0:0:
320,80,12904,1,0,0:0:0:0:
240,80,13035,1,0,0:0:0:0:
160,80,13165,1,0,0:0:0:0:
240,80,13296,1,0,0:0:0:0:
160,80,13426,1,0,0:0:0:0:
80,80,13556,1,0,0:0:0:0:
160,80,13687,5,0,0:0:0:0:
208,80,13752,1,0,0:0:0:0:
160,80,13817,1,0,0:0:0:0:
208,80,13883,1,0,0:0:0:0:
160,80,13948,1,0,0:0:0:0:
336,272,14078,1,0,0:0:0:0:
448,272,14209,1,0,0:0:0:0:
272,224,14339,1,0,0:0:0:0:
496,208,14469,1,0,0:0:0:0:
80,128,14600,5,0,0:0:0:0:
176,128,14730,1,0,0:0:0:0:
80,128,14861,1,0,0:0:0:0:
176,128,14991,1,0,0:0:0:0:
432,128,15122,1,0,0:0:0:0:
336,128,15252,1,0,0:0:0:0:
432,128,15383,1,0,0:0:0:0:
336,128,15513,1,0,0:0:0:0:
96,64,15643,5,0,0:0:0:0:
416,64,15774,1,0,0:0:0:0:
256,192,15904,1,0,0:0:0:0:
96,96,16035,1,0,0:0:0:0:
48,96,16100,1,0,0:0:0:0:
96,96,16165,1,0,0:0:0:0:
336,320,16296,5,0,0:0:0:0:
368,256,16361,1,0,0:0:0:0:
144,160,16426,1,0,0:0:0:0:
384,144,16556,1,0,0:0:0:0:
416,80,16622,1,0,0:0:0:0:
384,32,16687,1,0,0:0:0:0:
144,160,16817,1,0,0:0:0:0:
240,160,16948,1,0,0:0:0:0:
144,160,17078,1,0,0:0:0:0:
240,160,17209,1,0,0:0:0:0:
336,160,17339,1,0,0:0:0:0:
432,160,17470,1,0,0:0:0:0:
336,160,17600,1,0,0:0:0:0:
432,160,17730,1,0,0:0:0:0:
336,160,17861,1,0,0:0:0:0:
272,160,17926,1,0,0:0:0:0:
336,160,17991,1,0,0:0:0:0:
272,160,18056,1,0,0:0:0:0:
336,160,18122,1,0,0:0:0:0:
96,176,18252,1,0,0:0:0:0:
128,112,18383,1,0,0:0:0:0:
192,80,18513,1,0,0:0:0:0:
256,96,18643,1,0,0:0:0:0:
32,32,18774,1,0,0:0:0:0:
128,32,18904,1,0,0:0:0:0:
32,32,19035,1,0,0:0:0:0:
128,32,19165,1,0,0:0:0:0:
224,32,19296,1,0,0:0:0:0:
128,32,19426,1,0,0:0:0:0:
192,32,19491,1,0,0:0:0:0:
128,32,19556,1,0,0:0:0:0:
192,32,19622,1,0,0:0:0:0:
128,32,19687,1,0,0:0:0:0:
192,224,19817,2,0,L|112:224,1,70
304,224,20078,2,0,L|224:224,1,70
416,224,20339,2,0,L|320:224,1,70
320,224,20600,2,0,L|400:224,1,70
208,224,20861,2,0,L|288:224,2,70
48,80,21252,1,0,0:0:0:0:
160,80,21383,1,0,0:0:0:0:
48,80,21513,1,0,0:0:0:0:
160,80,21643,1,0,0:0:0:0:
272,80,21774,1,0,0:0:0:0:
160,80,21904,1,0,0:0:0:0:
272,80,22035,1,0,0:0:0:0:
192,80,22100,1,0,0:0:0:0:
272,80,22165,1,0,0:0:0:0:
192,80,22230,1,0,0:0:0:0:
272,80,22296,1,0,0:0:0:0:
288,320,100286,5,0,0:0:0:0:
176,224,100416,1,0,0:0:0:0:
368,144,100546,1,0,0:0:0:0:
48,144,100677,1,0,0:0:0:0:
240,128,100807,1,0,0:0:0:0:
176,128,100938,1,0,0:0:0:0:
368,96,101068,1,0,0:0:0:0:
160,64,101199,1,0,0:0:0:0:
432,64,101329,1,0,0:0:0:0:
112,32,101459,1,0,0:0:0:0:
304,240,101590,1,0,0:0:0:0:
304,240,101720,1,0,0:0:0:0:
96,240,101851,1,0,0:0:0:0:
304,240,101981,1,0,0:0:0:0:
96,128,102112,1,0,0:0:0:0:
320,128,102242,1,0,0:0:0:0:
16,48,102372,1,0,0:0:0:0:
320,96,103286,1,0,0:0:0:0:
320,96,103351,1,0,0:0:0:0:
320,96,103416,1,0,0:0:0:0:
256,192,103938,12,0,104329,0:0:0:0:
144,144,104459,5,0,0:0:0:0:
256,144,104590,1,0,0:0:0:0:
368,144,104720,1,0,0:0:0:0:
256,144,104851,1,0,0:0:0:0:
144,144,104981,1,0,0:0:0:0:
256,144,105112,1,0,0:0:0:0:
144,144,105242,1,0,0:0:0:0:
32,144,105372,1,0,0:0:0:0:
320,320,105503,5,0,0:0:0:0:
208,320,105643,1,0,0:0:0:0:
320,320,105774,1,0,0:0:0:0:
208,320,105904,1,0,0:0:0:0:
96,320,106035,1,0,0:0:0:0:
304,192,106165,5,0,0:0:0:0:
368,192,106296,1,0,0:0:0:0:
304,192,106426,1,0,0:0:0:0:
368,192,106556,1,0,0:0:0:0:
256,192,106687,1,0,0:0:0:0:
416,192,106817,1,0,0:0:0:0:
256,192,106948,1,0,0:0:0:0:
416,192,107078,1,0,0:0:0:0:
128,96,107209,6,0,L|32:96,1,70
384,96,107470,2,0,L|480:96,1,70
128,96,107730,2,0,L|32:96,1,70
256,272,107991,1,0,0:0:0:0:
320,272,108122,1,0,0:0:0:0:
400,272,108252,1,0,0:0:0:0:
496,272,108383,1,0,0:0:0:0:
384,272,108513,1,0,0:0:0:0:
80,128,108643,5,0,0:0:0:0:
256,128,108774,1,0,0:0:0:0:
80,128,108904,1,0,0:0:0:0:
256,128,109035,1,0,0:0:0:0:
80,128,109165,1,0,0:0:0:0:
256,128,109296,1,0,0:0:0:0:
80,128,109426,1,0,0:0:0:0:
256,128,109556,1,0,0:0:0:0:
80,128,109687,1,0,0:0:0:0:
256,128,109817,1,0,0:0:0:0:
80,128,109948,1,0,0:0:0:0:
256,128,110078,1,0,0:0:0:0:
80,128,110209,1,0,0:0:0:0:
256,128,110339,5,0,0:0:0:0:
432,128,110470,1,0,0:0:0:0:
256,128,110600,1,0,0:0:0:0:
432,128,110730,1,0,0:0:0:0:
256,128,110861,1,0,0:0:0:0:
432,128,110991,1,0,0:0:0:0:
256,128,111122,1,0,0:0:0:0:
432,128,111252,1,0,0:0:0:0:
256,128,111383,1,0,0:0:0:0:
432,128,111513,1,0,0:0:0:0:
256,128,111643,1,0,0:0:0:0:
432,128,111774,1,0,0:0:0:0:
256,128,111904,1,0,0:0:0:0:
432,128,112035,1,0,0:0:0:0:
256,128,112165,1,0,0:0:0:0:
432,128,112296,1,0,0:0:0:0:
96,160,112426,5,0,0:0:0:0:
96,160,112556,1,0,0:0:0:0:
96,160,112687,1,0,0:0:0:0:
288,304,112817,5,0,0:0:0:0:
368,272,112948,1,0,0:0:0:0:
288,240,113078,1,0,0:0:0:0:
208,208,113209,1,0,0:0:0:0:
288,160,113339,1,0,0:0:0:0:
64,80,113470,1,0,0:0:0:0:
160,80,113600,1,0,0:0:0:0:
64,80,113730,1,0,0:0:0:0:
160,80,113861,1,0,0:0:0:0:
384,160,113991,6,0,L|304:160,2,70
160,256,114383,2,0,L|240:256,2,70
432,304,114774,2,0,L|352:304,2,70
96,128,115165,2,0,L|192:128,2,70
416,128,115556,2,0,L|346:128,2,70
80,304,115947,2,0,L|150:304,2,70
352,256,116338,2,0,L|282:256,2,70
128,160,116730,2,0,L|198:160,2,70
272,176,117122,6,0,L|192:176,1,70
384,128,117383,2,0,L|304:128,1,70
496,80,117643,2,0,L|416:80,1,70
240,176,117904,2,0,L|320:176,1,70
128,128,118165,2,0,L|208:128,1,70
16,80,118425,2,0,L|96:80,1,70
416,112,118687,1,0,0:0:0:0:
96,192,118817,1,0,0:0:0:0:
320,256,118948,1,0,0:0:0:0:
96,192,119078,5,0,0:0:0:0:
32,160,119209,1,0,0:0:0:0:
64,96,119339,1,0,0:0:0:0:
128,80,119470,1,0,0:0:0:0:
192,80,119600,1,0,0:0:0:0:
128,80,119730,1,0,0:0:0:0:
192,80,119861,1,0,0:0:0:0:
416,160,119991,1,0,0:0:0:0:
80,224,120122,1,0,0:0:0:0:
272,160,120252,6,0,L|192:160,1,70
272,160,120513,2,0,L|368:160,1,70
208,160,120774,2,0,L|128:160,1,70
320,160,121035,2,0,L|400:160,1,70
192,64,121296,1,0,0:0:0:0:
128,96,121426,1,0,0:0:0:0:
192,128,121556,1,0,0:0:0:0:
256,160,121687,1,0,0:0:0:0:
64,128,121817,5,0,0:0:0:0:
0,160,121948,1,0,0:0:0:0:
320,192,122078,1,0,0:0:0:0:
384,224,122209,1,0,0:0:0:0:
320,64,122339,1,0,0:0:0:0:
384,96,122469,1,0,0:0:0:0:
320,128,122599,1,0,0:0:0:0:
256,160,122730,1,0,0:0:0:0:
448,128,122860,5,0,0:0:0:0:
512,160,122991,1,0,0:0:0:0:
192,192,123121,1,0,0:0:0:0:
128,224,123252,1,0,0:0:0:0:
304,112,123383,1,0,0:0:0:0:
240,144,123513,1,0,0:0:0:0:
304,160,123643,1,0,0:0:0:0:
240,192,123774,1,0,0:0:0:0:
416,80,123905,5,0,0:0:0:0:
352,112,124035,1,0,0:0:0:0:
320,192,124165,1,0,0:0:0:0:
384,224,124296,1,0,0:0:0:0:
208,112,124427,1,0,0:0:0:0:
272,144,124557,1,0,0:0:0:0:
208,160,124687,1,0,0:0:0:0:
272,192,124818,1,0,0:0:0:0:
96,80,124949,5,0,0:0:0:0:
160,112,125079,1,0,0:0:0:0:
96,80,125209,1,0,0:0:0:0:
64,176,125339,1,0,0:0:0:0:
240,176,125469,1,0,0:0:0:0:
80,240,125600,1,0,0:0:0:0:
224,240,125730,1,0,0:0:0:0:
64,304,125861,1,0,0:0:0:0:
240,304,125991,5,0,0:0:0:0:
80,368,126122,1,0,0:0:0:0:
224,368,126252,1,0,0:0:0:0:
64,304,126383,1,0,0:0:0:0:
240,304,126513,1,0,0:0:0:0:
80,240,126643,1,0,0:0:0:0:
224,240,126774,1,0,0:0:0:0:
64,176,126904,1,0,0:0:0:0:
240,176,127035,1,0,0:0:0:0:
384,176,127165,5,0,0:0:0:0:
144,176,127296,1,0,0:0:0:0:
448,176,127426,1,0,0:0:0:0:
272,176,127556,1,0,0:0:0:0:
432,240,127687,1,0,0:0:0:0:
288,240,127817,1,0,0:0:0:0:
448,304,127948,1,0,0:0:0:0:
272,304,128078,1,0,0:0:0:0:
432,368,128209,5,0,0:0:0:0:
288,368,128339,1,0,0:0:0:0:
448,304,128470,1,0,0:0:0:0:
272,304,128600,1,0,0:0:0:0:
432,240,128730,1,0,0:0:0:0:
288,240,128861,1,0,0:0:0:0:
448,176,128991,1,0,0:0:0:0:
272,176,129122,1,0,0:0:0:0:
166,80,129252,2,0,L|96:80,1,70
346,80,129513,6,0,L|416:80,1,70
160,144,129774,1,0,0:0:0:0:
96,144,129904,1,0,0:0:0:0:
160,144,130035,1,0,0:0:0:0:
96,144,130165,1,0,0:0:0:0:
352,144,130296,1,0,0:0:0:0:
416,144,130426,1,0,0:0:0:0:
352,144,130557,1,0,0:0:0:0:
416,144,130687,1,0,0:0:0:0:
192,240,130817,6,0,L|288:240,1,70
80,192,131078,2,0,L|160:192,1,70
320,240,131339,2,0,L|224:240,1,70
432,192,131600,2,0,L|352:192,1,70
128,240,131861,6,0,L|224:240,1,70
16,192,132122,2,0,L|96:192,1,70
384,240,132383,2,0,L|288:240,1,70
496,192,132644,2,0,L|416:192,1,70
128,96,132904,5,0,0:0:0:0:
256,96,133035,1,0,0:0:0:0:
128,96,133165,1,0,0:0:0:0:
256,96,133296,1,0,0:0:0:0:
384,96,133426,1,0,0:0:0:0:
256,96,133556,1,0,0:0:0:0:
384,96,133687,1,0,0:0:0:0:
256,96,133817,5,0,0:0:0:0:
128,96,133948,1,0,0:0:0:0:
256,96,134078,1,0,0:0:0:0:
384,96,134209,1,0,0:0:0:0:
128,192,134339,2,0,L|128:304,1,70
384,192,134600,2,0,L|384:80,1,70
64,192,134861,2,0,L|160:192,1,70
416,192,135122,2,0,L|320:192,1,70
256,192,135383,5,0,0:0:0:0:
64,192,135513,1,0,0:0:0:0:
448,192,135643,1,0,0:0:0:0:
208,192,135774,6,0,L|144:144,1,70
304,192,136035,2,0,L|368:144,1,70
144,192,136296,2,0,L|64:160,1,70
368,192,136556,2,0,L|448:160,1,70
80,192,136817,2,0,L|0:192,1,70
432,192,137078,2,0,L|512:192,1,70
80,96,137339,5,0,0:0:0:0:
336,96,137470,1,0,0:0:0:0:
144,96,137600,1,0,0:0:0:0:
208,96,137730,1,0,0:0:0:0:
16,96,137861,1,0,0:0:0:0:
112,240,225513,5,0,0:0:0:0:
64,176,225643,1,0,0:0:0:0:
128,144,225774,1,0,0:0:0:0:
32,112,225904,1,0,0:0:0:0:
144,64,226035,1,0,0:0:0:0:
0,48,226165,1,0,0:0:0:0:
176,16,226296,1,0,0:0:0:0:
304,224,226426,6,0,L|224:224,1,70
416,176,226687,2,0,L|336:176,1,70
160,160,226948,1,0,0:0:0:0:
272,160,227078,1,0,0:0:0:0:
160,160,227209,1,0,0:0:0:0:
272,160,227339,1,0,0:0:0:0:
384,160,227470,5,0,0:0:0:0:
496,160,227600,1,0,0:0:0:0:
384,160,227730,1,0,0:0:0:0:
496,160,227861,1,0,0:0:0:0:
384,160,227991,1,0,0:0:0:0:
272,160,228122,5,0,0:0:0:0:
384,160,228252,1,0,0:0:0:0:
272,160,228383,1,0,0:0:0:0:
160,160,228513,1,0,0:0:0:0:
272,160,228643,1,0,0:0:0:0:
144,160,228774,1,0,0:0:0:0:
288,160,228904,5,0,0:0:0:0:
128,160,229035,1,0,0:0:0:0:
304,160,229165,1,0,0:0:0:0:
304,160,229296,1,0,0:0:0:0:
304,160,229426,1,0,0:0:0:0:
304,160,229556,1,0,0:0:0:0:
128,160,229687,5,0,0:0:0:0:
304,160,229817,1,0,0:0:0:0:
144,160,229948,1,0,0:0:0:0:
320,160,230078,1,0,0:0:0:0:
160,160,230209,1,0,0:0:0:0:
336,160,230339,1,0,0:0:0:0:
176,160,230470,1,0,0:0:0:0:
352,160,230600,1,0,0:0:0:0:
192,160,230730,1,0,0:0:0:0:
368,160,230861,1,0,0:0:0:0:
208,160,230991,1,0,0:0:0:0:
384,160,231122,1,0,0:0:0:0:
224,160,231252,1,0,0:0:0:0:
400,160,231383,1,0,0:0:0:0:
240,160,231513,5,0,0:0:0:0:
400,160,231643,1,0,0:0:0:0:
224,160,231774,1,0,0:0:0:0:
384,160,231904,1,0,0:0:0:0:
208,160,232035,1,0,0:0:0:0:
368,160,232165,1,0,0:0:0:0:
192,160,232296,1,0,0:0:0:0:
352,160,232426,1,0,0:0:0:0:
176,160,232556,1,0,0:0:0:0:
336,160,232687,1,0,0:0:0:0:
160,160,232817,1,0,0:0:0:0:
320,160,232948,1,0,0:0:0:0:
144,160,233078,1,0,0:0:0:0:
304,160,233209,1,0,0:0:0:0:
128,160,233339,5,0,0:0:0:0:
128,160,233470,1,0,0:0:0:0:
128,160,233600,1,0,0:0:0:0:
128,160,233730,1,0,0:0:0:0:
352,304,233861,2,0,P|400:240|400:208,1,70
160,80,234122,2,0,P|112:144|112:176,1,70
432,192,234383,6,0,P|448:160|432:128,1,70
76,194,234643,2,0,P|64:226|80:256,1,70
400,64,234904,2,0,P|384:32|336:32,1,70
112,320,235165,2,0,P|128:352|176:352,1,70
384,176,235426,1,0,0:0:0:0:
144,112,235556,1,0,0:0:0:0:
80,112,235687,1,0,0:0:0:0:
384,176,235817,1,0,0:0:0:0:
96,272,235948,6,0,L|176:272,2,70
416,272,236339,2,0,L|336:272,2,70
48,224,236730,2,0,L|128:224,2,70
464,224,237122,2,0,L|384:224,2,70
256,192,237513,1,0,0:0:0:0:
256,192,237643,1,0,0:0:0:0:
256,192,237774,1,0,0:0:0:0:
256,192,237904,1,0,0:0:0:0:
240,192,238035,5,0,0:0:0:0:
272,192,238165,1,0,0:0:0:0:
224,192,238296,1,0,0:0:0:0:
288,192,238426,1,0,0:0:0:0:
208,192,238556,1,0,0:0:0:0:
304,192,238687,1,0,0:0:0:0:
192,192,238817,1,0,0:0:0:0:
320,192,238948,1,0,0:0:0:0:
176,192,239078,1,0,0:0:0:0:
336,192,239209,1,0,0:0:0:0:
160,192,239339,1,0,0:0:0:0:
288,192,239470,6,0,L|208:192,1,70
400,192,239730,2,0,L|320:192,1,70
512,192,239991,2,0,L|432:192,1,70
224,192,240252,2,0,L|304:192,1,70
112,192,240512,2,0,L|192:192,1,70
0,192,240773,2,0,L|80:192,2,70
512,192,241165,2,0,L|432:192,2,70
160,96,241556,1,0,0:0:0:0:
32,96,241687,1,0,0:0:0:0:
96,96,241817,1,0,0:0:0:0:
224,96,241948,5,0,0:0:0:0:
352,96,242078,1,0,0:0:0:0:
480,96,242209,1,0,0:0:0:0:
96,96,242339,1,0,0:0:0:0:
288,96,242470,1,0,0:0:0:0:
32,96,242600,5,0,0:0:0:0:
224,96,242730,1,0,0:0:0:0:
416,96,242861,1,0,0:0:0:0:
224,96,242992,1,0,0:0:0:0:
480,96,243122,1,0,0:0:0:0:
288,96,243252,5,0,0:0:0:0:
32,96,243383,1,0,0:0:0:0:
352,96,243513,1,0,0:0:0:0:
160,96,243643,1,0,0:0:0:0:
480,96,243774,1,0,0:0:0:0:
256,96,243904,5,0,0:0:0:0:
0,96,244035,1,0,0:0:0:0:
256,96,244165,1,0,0:0:0:0:
512,96,244296,1,0,0:0:0:0:
256,96,244426,1,0,0:0:0:0:
128,96,244556,1,0,0:0:0:0:
384,96,244687,1,0,0:0:0:0:
128,96,244817,1,0,0:0:0:0:
384,96,244948,1,0,0:0:0:0:
160,96,245078,5,0,0:0:0:0:
352,96,245209,1,0,0:0:0:0:
160,96,245339,1,0,0:0:0:0:
352,96,245470,1,0,0:0:0:0:
192,96,245600,1,0,0:0:0:0:
320,96,245730,1,0,0:0:0:0:
192,96,245861,1,0,0:0:0:0:
320,96,245991,1,0,0:0:0:0:
256,96,246122,5,0,0:0:0:0:
192,96,246252,1,0,0:0:0:0:
384,96,246383,1,0,0:0:0:0:
256,96,246513,1,0,0:0:0:0:
128,96,246643,1,0,0:0:0:0:
256,96,246774,1,0,0:0:0:0:
448,96,246904,1,0,0:0:0:0:
256,96,247035,1,0,0:0:0:0:
64,96,247165,5,0,0:0:0:0:
256,96,247296,1,0,0:0:0:0:
512,96,247426,1,0,0:0:0:0:
256,96,247556,1,0,0:0:0:0:
0,96,247687,1,0,0:0:0:0:
192,96,247817,1,0,0:0:0:0:
0,96,247948,1,0,0:0:0:0:
256,96,248078,1,0,0:0:0:0:
64,96,248209,5,0,0:0:0:0:
320,96,248339,1,0,0:0:0:0:
128,96,248470,1,0,0:0:0:0:
384,96,248600,1,0,0:0:0:0:
192,96,248730,1,0,0:0:0:0:
512,160,248861,1,0,0:0:0:0:
320,160,248991,1,0,0:0:0:0:
512,160,249122,1,0,0:0:0:0:
256,160,249252,5,0,0:0:0:0:
448,160,249383,1,0,0:0:0:0:
192,160,249513,1,0,0:0:0:0:
384,160,249644,1,0,0:0:0:0:
128,160,249774,1,0,0:0:0:0:
320,160,249904,1,0,0:0:0:0:
0,160,250035,1,0,0:0:0:0:
352,80,250165,5,0,0:0:0:0:
208,80,250296,1,0,0:0:0:0:
416,80,250426,1,0,0:0:0:0:
144,80,250556,1,0,0:0:0:0:
416,256,250687,1,0,0:0:0:0:
208,256,250817,1,0,0:0:0:0:
416,336,250948,1,0,0:0:0:0:
240,336,251078,1,0,0:0:0:0:
352,336,251209,1,0,0:0:0:0:
288,336,251339,1,0,0:0:0:0:
160,80,251470,5,0,0:0:0:0:
304,80,251601,1,0,0:0:0:0:
96,80,251731,1,0,0:0:0:0:
368,80,251861,1,0,0:0:0:0:
96,256,251992,1,0,0:0:0:0:
304,256,252122,1,0,0:0:0:0:
96,336,252253,1,0,0:0:0:0:
272,336,252383,1,0,0:0:0:0:
160,336,252514,1,0,0:0:0:0:
224,336,252644,1,0,0:0:0:0:
32,112,252774,5,0,0:0:0:0:
304,112,252904,1,0,0:0:0:0:
96,112,253035,1,0,0:0:0:0:
368,112,253165,1,0,0:0:0:0:
160,112,253296,1,0,0:0:0:0:
432,112,253426,1,0,0:0:0:0:
224,112,253556,1,0,0:0:0:0:
496,112,253687,1,0,0:0:0:0:
480,112,253817,5,0,0:0:0:0:
208,112,253947,1,0,0:0:0:0:
416,112,254078,1,0,0:0:0:0:
144,112,254208,1,0,0:0:0:0:
352,112,254339,1,0,0:0:0:0:
80,112,254469,1,0,0:0:0:0:
288,112,254599,1,0,0:0:0:0:
16,112,254730,1,0,0:0:0:0:
336,304,254861,6,0,L|256:304,1,70
448,256,255122,2,0,L|368:256,1,70
176,304,255383,2,0,L|256:304,1,70
64,256,255644,2,0,L|144:256,1,70
256,320,255904,1,0,0:0:0:0:
320,288,256035,1,0,0:0:0:0:
320,224,256165,1,0,0:0:0:0:
256,192,256296,1,0,0:0:0:0:
192,144,256426,5,0,0:0:0:0:
192,80,256556,1,0,0:0:0:0:
256,32,256687,1,0,0:0:0:0:
240,192,256817,1,0,0:0:0:0:
272,192,256948,1,0,0:0:0:0:
224,192,257078,1,0,0:0:0:0:
288,192,257209,1,0,0:0:0:0:
208,192,257339,1,0,0:0:0:0:
304,192,257470,5,0,0:0:0:0:
192,192,257600,1,0,0:0:0:0:
320,192,257730,1,0,0:0:0:0:
176,192,257861,1,0,0:0:0:0:
336,192,257991,1,0,0:0:0:0:
160,192,258122,1,0,0:0:0:0:
352,192,258252,5,0,0:0:0:0:
144,192,258383,1,0,0:0:0:0:
368,192,258513,1,0,0:0:0:0:
128,192,258643,1,0,0:0:0:0:
384,192,258774,1,0,0:0:0:0:
112,192,258904,1,0,0:0:0:0:
208,96,259687,6,0,L|256:176,2,70
96,48,260470,1,0,0:0:0:0:
48,96,260600,1,0,0:0:0:0:
16,160,260730,1,0,0:0:0:0:
112,240,260991,5,0,0:0:0:0:
144,256,261122,1,0,0:0:0:0:
176,272,261252,1,0,0:0:0:0:
208,288,261383,1,0,0:0:0:0:
176,272,261513,1,0,0:0:0:0:
144,256,261643,1,0,0:0:0:0:
112,240,261774,1,0,0:0:0:0:
64,96,262035,5,0,0:0:0:0:
64,96,262165,1,0,0:0:0:0:
64,96,262296,1,0,0:0:0:0:
160,96,262556,1,0,0:0:0:0:
160,96,262687,1,0,0:0:0:0:
160,96,262817,1,0,0:0:0:0:
256,96,263078,1,0,0:0:0:0:
320,128,263861,6,0,L|320:208,2,70
208,128,264643,1,0,0:0:0:0:
208,128,264774,1,0,0:0:0:0:
208,128,264904,1,0,0:0:0:0:
336,256,265165,1,0,0:0:0:0:
400,256,265296,1,0,0:0:0:0:
432,256,265426,1,0,0:0:0:0:
400,256,265556,1,0,0:0:0:0:
336,256,265687,5,0,0:0:0:0:
272,256,265817,1,0,0:0:0:0:
240,256,265948,1,0,0:0:0:0:
272,256,266078,1,0,0:0:0:0:
336,256,266209,1,0,0:0:0:0:
368,240,266339,1,0,0:0:0:0:
400,224,266470,1,0,0:0:0:0:
304,240,266600,1,0,0:0:0:0:
272,224,266730,1,0,0:0:0:0:
240,208,266861,1,0,0:0:0:0:
272,224,266991,5,0,0:0:0:0:
256,192,267252,12,0,269339,0:0:0:0:
