osu file format v14

[General]
AudioFilename: audio.mp3
AudioLeadIn: 0
PreviewTime: 43506
Countdown: 0
SampleSet: Soft
StackLeniency: 0.2
Mode: 0
LetterboxInBreaks: 0
WidescreenStoryboard: 1

[Editor]
DistanceSpacing: 1
BeatDivisor: 4
GridSize: 32
TimelineZoom: 2.4

[Metadata]
Title:Day Scanner
TitleUnicode:Day Scanner
Artist:Susumu Hirasawa
ArtistUnicode:平沢進
Creator:Monstrata
Version:Voli's Insane
Source:
Tags:nevo mentai shmiklak marvollo m_a_r_v_o_l_l_o voli mariahcarey mariah carey siren セイレーン
BeatmapID:1477380
BeatmapSetID:694970

[Difficulty]
HPDrainRate:6
CircleSize:4.5
OverallDifficulty:8
ApproachRate:9
SliderMultiplier:1.600120009
SliderTickRate:1

[Events]
//Background and Video events
0,0,"827547.png",0,0
//Break Periods
//Storyboard Layer 0 (Background)
//Storyboard Layer 1 (Fail)
//Storyboard Layer 2 (Pass)
//Storyboard Layer 3 (Foreground)
//Storyboard Sound Samples

[TimingPoints]
678,300.022501687627,4,2,0,35,1,0
4878,-200,4,2,0,35,0,0
5478,-100,4,2,0,55,0,0
27079,-83.3333333333333,4,2,0,55,0,0
28279,-100,4,2,0,55,0,0
29479,-83.3333333333333,4,2,0,55,0,0
31880,-100,4,2,0,55,0,0
36680,-83.3333333333333,4,2,0,55,0,0
37730,-100,4,2,0,55,0,0
39080,-83.3333333333333,4,2,0,55,0,0
40130,-100,4,2,0,55,0,0
43880,-200,4,3,0,55,0,0
53481,-74.0740740740741,4,3,0,75,0,1
57082,-125,4,1,0,55,0,1
57982,-125,4,1,0,70,0,1
58282,-74.0740740740741,4,1,0,75,0,1
61882,-100,4,1,0,55,0,1
62782,-100,4,1,0,70,0,1
63082,-74.0740740740741,4,1,0,75,0,1
72683,-100,4,2,0,55,0,0
83483,-100,4,2,0,50,0,0
84083,-100,4,2,0,45,0,0
84683,-100,4,2,0,40,0,0
84684,-125,4,2,0,40,0,0
85284,-125,4,2,0,35,0,0
85884,-125,4,2,0,30,0,0
86484,-125,4,2,0,25,0,0
87084,-166.666666666667,4,2,0,20,0,0
87684,-166.666666666667,4,2,0,15,0,0
88284,-166.666666666667,4,2,0,10,0,0
88884,-166.666666666667,4,2,0,7,0,0
89559,-166.666666666667,4,2,0,5,0,0

[Colours]
Combo1 : 112,112,112
Combo2 : 207,207,207

[HitObjects]
256,192,677,5,2,0:0:0:0:
320,96,978,1,0,0:0:0:0:
320,96,1128,1,0,0:0:0:0:
320,96,1278,1,2,0:0:0:0:
192,96,1578,1,0,0:0:0:0:
192,96,1728,1,0,0:0:0:0:
192,96,1878,5,2,0:0:0:0:
117,115,2028,1,2,0:0:0:0:
128,192,2178,1,2,0:0:0:0:
117,269,2328,1,2,0:0:0:0:
192,288,2478,1,2,0:0:0:0:
320,96,2778,5,0,0:0:0:0:
320,96,2928,1,0,0:0:0:0:
320,96,3078,1,2,0:0:0:0:
192,96,3378,1,0,0:0:0:0:
192,96,3528,1,0,0:0:0:0:
192,96,3678,1,2,0:0:0:0:
320,96,3978,1,0,0:0:0:0:
320,96,4128,1,0,0:0:0:0:
320,96,4278,5,2,0:0:0:0:
395,115,4428,1,2,0:0:0:0:
384,192,4578,1,2,0:0:0:0:
395,269,4728,1,2,0:0:0:0:
320,288,4878,2,2,P|296:298|330:303,1,80.00600045,2|0,0:1|0:0,1:0:0:0:
161,206,5478,6,0,P|99:250|10:211,1,159.999995231628,6|0,0:3|0:0,0:0:0:0:
84,168,5928,1,0,0:0:0:0:
163,130,6078,2,2,L|334:149,1,159.999995231628,10|2,0:0|0:0,0:0:0:0:
401,110,6528,1,2,0:0:0:0:
461,215,6678,2,0,P|477:255|467:309,1,79.9999976158142,8|0,0:3|0:3,0:3:0:0:
326,252,6978,2,0,P|365:249|402:265,1,79.9999976158142,4|0,0:3|0:0,0:0:0:0:
349,336,7278,2,0,P|268:318|243:238,1,159.999995231628,8|0,0:0|0:0,0:0:0:0:
270,169,7728,1,2,0:3:0:0:
183,11,7878,6,0,B|135:75|135:75|183:139,1,159.999995231628,6|0,0:3|0:0,0:0:0:0:
270,169,8328,1,0,0:0:0:0:
241,252,8478,2,2,B|165:273|165:273|128:243|79:252,1,159.999995231628,10|2,0:0|0:0,0:0:0:0:
102,344,8928,1,2,0:0:0:0:
89,250,9078,2,0,B|41:186|41:186,1,79.9999976158142,8|0,0:3|0:0,0:0:0:0:
89,34,9378,2,0,B|41:98,1,79.9999976158142,4|0,0:3|0:0,0:0:0:0:
128,144,9678,2,0,L|320:144,1,159.999995231628,8|0,0:0|0:0,0:0:0:0:
370,173,10128,1,2,0:3:0:0:
442,304,10278,6,0,P|369:332|296:303,1,159.999995231628,6|0,0:3|0:0,0:0:0:0:
275,218,10728,1,0,0:0:0:0:
370,173,10878,2,2,P|355:91|286:57,1,159.999995231628,10|2,0:0|0:0,0:0:0:0:
215,102,11328,1,2,0:0:0:0:
152,163,11478,2,0,P|115:177|79:162,1,79.9999976158142,8|0,0:3|0:0,0:0:0:0:
10,81,11778,2,0,P|46:66|82:81,1,79.9999976158142,4|0,0:3|0:0,0:0:0:0:
45,244,12078,2,0,B|22:293|44:329|44:329|82:351|144:344,1,159.999995231628,8|0,0:0|0:0,0:0:0:0:
190,305,12528,1,2,0:3:0:0:
240,176,12678,6,0,B|272:80|272:80|304:192,1,159.999995231628,6|0,0:3|0:0,0:0:0:0:
329,214,13128,1,0,0:0:0:0:
334,55,13278,2,2,P|288:16|208:59,1,159.999995231628,10|2,0:0|0:0,0:0:0:0:
174,138,13728,1,2,0:0:0:0:
135,217,13878,2,0,B|118:257|118:257|132:310,1,79.9999976158142,8|0,0:3|0:0,0:0:0:0:
207,350,14179,2,0,B|224:310|224:310|210:257,1,79.9999976158142,4|0,0:3|0:0,0:0:0:0:
79,167,14479,2,0,B|43:251|43:251|72:362,1,159.999995231628,8|0,0:0|0:0,0:0:0:0:
137,367,14929,1,2,0:3:0:0:
147,150,15079,6,0,P|94:97|16:133,1,159.999995231628,6|0,0:3|0:0,0:0:0:0:
41,25,15529,1,0,0:0:0:0:
128,14,15679,2,2,B|220:22|220:22|259:8|300:31,1,159.999995231628,10|2,0:0|0:0,0:0:0:0:
248,107,16129,1,2,0:0:0:0:
371,64,16279,2,0,L|378:151,1,79.9999976158142,8|0,0:3|0:0,0:0:0:0:
241,186,16579,2,0,L|247:106,1,79.9999976158142,4|0,0:3|0:0,0:0:0:0:
317,193,16879,2,0,P|272:256|184:237,1,159.999995231628,8|0,0:0|0:0,0:0:0:0:
160,168,17329,1,2,0:3:0:0:
78,324,17479,6,0,B|170:317|170:317|210:339|266:336,1,159.999995231628,6|0,0:3|0:0,0:0:0:0:
319,311,17929,1,0,0:0:0:0:
241,186,18079,2,2,B|200:113|200:113|254:27,1,160.0120009,10|2,0:0|0:0,0:0:0:0:
298,115,18529,1,2,0:0:0:0:
144,178,18679,2,0,P|96:192|52:186,1,79.9999976158142,8|0,0:3|0:0,0:0:0:0:
48,78,18979,2,0,P|96:64|140:70,1,79.9999976158142,4|0,0:3|0:0,0:0:0:0:
144,178,19279,2,0,B|112:258|176:258|144:338,1,159.999995231628,8|0,0:0|0:0,0:0:0:0:
66,295,19729,1,2,0:3:0:0:
256,256,19879,6,0,B|336:242|336:242|416:256,1,159.999995231628,6|0,0:3|0:0,0:0:0:0:
441,339,20329,1,0,0:0:0:0:
413,167,20479,2,2,B|335:154|335:154|255:167,1,159.999995231628,10|2,0:0|0:0,0:0:0:0:
256,256,20929,1,2,0:0:0:0:
185,203,21079,2,0,P|174:161|195:109,1,79.9999976158142,8|0,0:3|0:0,0:0:0:0:
327,77,21379,2,0,B|247:90,1,79.9999976158142,4|0,0:3|0:0,0:0:0:0:
380,18,21679,2,0,P|408:89|352:152,1,159.999995231628,8|0,0:0|0:0,0:0:0:0:
275,173,22129,1,2,0:3:0:0:
133,308,22279,6,0,B|119:262|135:207|135:207|186:275,1,159.999995231628,6|0,0:3|0:0,0:0:0:0:
229,317,22729,1,0,0:0:0:0:
186,157,22879,2,2,P|111:142|65:228,1,159.999995231628,10|2,0:0|0:0,0:0:0:0:
57,288,23329,1,2,0:0:0:0:
151,311,23479,2,0,B|204:324|204:324|246:311,1,79.9999976158142,8|0,0:3|0:0,0:0:0:0:
302,244,23779,2,0,B|326:236|326:236|379:249,1,79.9999976158142,4|0,0:3|0:0,0:0:0:0:
486,333,24079,2,2,P|473:289|489:251,1,80.00600045,10|0,0:0|0:0,0:0:0:0:
403,171,24379,1,2,0:0:0:0:
501,99,24529,1,2,0:0:0:0:
335,29,24679,6,0,L|255:41,1,79.9999976158142,6|0,0:3|0:0,0:0:0:0:
189,149,24979,2,0,L|269:137,1,79.9999976158142,0|0,0:0|0:0,0:0:0:0:
129,102,25279,2,0,P|113:148|131:197,1,79.9999976158142,8|0,0:3|0:0,0:0:0:0:
159,271,25579,1,2,0:0:0:0:
55,298,25729,1,2,0:0:0:0:
159,271,25879,6,0,B|197:258|197:258|235:271,1,79.9999976158142,8|8,0:3|0:3,0:0:0:0:
346,336,26179,2,0,B|307:348|307:348|269:336,1,79.9999976158142,4|0,0:3|0:0,0:0:0:0:
380,271,26479,2,0,B|418:258|418:258|456:271,1,79.9999976158142,8|0,0:3|0:0,0:0:0:0:
410,143,26779,1,2,0:0:0:0:
455,270,26929,1,2,0:0:0:0:
458,79,27079,6,0,B|392:35|321:87|330:159|330:159|296:109|233:101,1,288.021592830279,6|0,0:3|0:0,0:0:0:0:
52,80,27680,2,0,B|118:36|189:88|180:160|180:160|214:110|315:89,1,287.999982627869,8|0,0:3|0:0,0:0:0:0:
211,221,28280,2,8,P|161:226|121:196,1,79.9999976158142,8|8,0:3|0:3,0:3:0:0:
301,221,28580,2,0,P|351:226|391:196,1,79.9999976158142,4|0,0:3|0:0,0:0:0:0:
256,288,28880,2,0,L|256:368,1,79.9999976158142,8|0,0:0|0:0,0:0:0:0:
332,160,29180,5,2,0:0:0:0:
256,288,29330,1,2,0:0:0:0:
256,96,29480,6,0,B|224:48|160:32|160:32|128:112|160:160|160:160|144:208,1,287.999982627869,6|0,0:3|0:0,0:0:0:0:
256,96,30080,2,0,B|288:48|352:32|352:32|384:112|352:160|352:160|368:208,1,287.999982627869,8|0,0:3|0:0,0:0:0:0:
400,304,30680,1,8,0:3:0:0:
320,352,30830,1,8,0:3:0:0:
256,272,30980,1,4,0:3:0:0:
192,352,31130,1,4,0:3:0:0:
112,304,31280,1,8,0:3:0:0:
112,304,31580,5,2,0:0:0:0:
256,272,31730,1,2,0:0:0:0:
82,221,31880,6,0,L|54:139,1,79.9999976158142,6|0,0:3|0:0,0:0:0:0:
224,128,32180,2,0,L|148:153,1,79.9999976158142
194,58,32480,2,0,P|244:55|290:89,1,79.9999976158142,8|0,0:3|0:0,0:0:0:0:
390,165,32780,2,0,P|340:168|294:134,1,79.9999976158142
215,243,33080,1,4,0:3:0:0:
321,320,33230,1,4,0:3:0:0:
190,320,33380,1,4,0:3:0:0:
296,243,33530,1,4,0:3:0:0:
256,368,33680,1,8,0:0:0:0:
375,259,33980,5,2,0:0:0:0:
475,282,34130,1,2,0:0:0:0:
368,171,34280,6,0,L|358:79,1,79.9999976158142,6|0,0:3|0:0,0:0:0:0:
478,14,34580,2,0,L|469:93,1,79.9999976158142,0|0,0:0|0:0,0:0:0:0:
368,171,34880,2,0,L|288:179,1,79.9999976158142,8|0,0:3|0:0,0:0:0:0:
198,273,35180,1,2,0:0:0:0:
300,264,35330,1,2,0:0:0:0:
156,335,35480,2,0,P|128:297|126:257,1,79.9999976158142,8|8,0:3|0:3,0:3:0:0:
244,212,35780,2,0,P|225:255|191:276,1,79.9999976158142,4|0,0:3|0:0,0:0:0:0:
93,198,36080,2,0,P|139:192|175:211,1,79.9999976158142,8|0,0:3|0:0,0:0:0:0:
197,98,36380,5,2,0:0:0:0:
168,205,36530,1,2,0:0:0:0:
197,98,36680,6,0,B|332:98|332:16|468:16,1,287.999982627869,6|0,0:3|0:0,0:0:0:0:
468,179,37280,2,0,B|331:179|331:97|196:97,1,287.999982627869,8|0,0:3|0:0,0:0:0:0:
222,270,37880,2,0,P|187:290|148:295,1,79.9999976158142,8|8,0:3|0:3,0:3:0:0:
213,180,38180,2,0,P|253:185|287:206,1,79.9999976158142,4|0,0:3|0:0,0:0:0:0:
291,337,38480,1,8,0:0:0:0:
291,337,38780,5,2,0:0:0:0:
286,205,38930,1,2,0:0:0:0:
369,87,39080,6,0,B|405:103|502:88|559:47|373:-38|378:30|429:115|465:130,1,287.999982627869,6|0,0:3|0:0,0:0:0:0:
466,252,39680,2,0,B|429:268|378:353|373:422|559:336|502:295|405:280|369:297,1,287.999982627869,10|0,0:3|0:0,0:0:0:0:
192,192,40280,1,8,0:3:0:0:
320,192,40430,1,8,0:3:0:0:
256,128,40580,1,4,0:3:0:0:
256,256,40731,1,4,0:3:0:0:
343,104,40881,1,8,0:3:0:0:
343,104,41181,5,2,0:0:0:0:
169,104,41331,1,2,0:0:0:0:
343,104,41481,6,0,L|436:79,1,79.9999976158142,6|0,0:3|0:0,0:0:0:0:
306,31,41781,2,0,L|379:0,1,79.9999976158142
206,31,42081,2,0,L|104:-11,1,79.9999976158142,8|0,0:3|0:0,0:0:0:0:
169,104,42381,2,0,L|76:79,1,79.9999976158142,2|2,0:0|0:0,0:0:0:0:
128,208,42681,1,4,0:3:0:0:
176,288,42831,1,4,0:3:0:0:
256,240,42981,1,4,0:3:0:0:
336,288,43131,1,4,0:3:0:0:
384,208,43281,1,8,0:3:0:0:
256,240,43581,5,0,0:0:0:0:
425,111,43881,6,0,B|340:5|255:5|171:5|86:111,1,400.03000225,6|0,0:0|2:0,0:0:0:0:
222,144,45681,2,0,B|238:123|255:123|272:123|288:144,1,79.9999976158142,2|0,0:2|2:0,0:0:0:0:
408,303,46281,6,0,B|395:261|395:261|325:303|325:303|256:275|256:275|186:303|186:303|116:261|116:261|103:303,1,399.999988079071,10|0,0:0|2:0,0:0:0:0:
256,107,48081,5,0,0:0:0:0:
256,277,48381,1,2,0:2:0:0:
96,128,48681,6,0,B|32:160|112:224|129:244|255:155|185:62|142:22|50:22|5:122,1,399.999988079071,6|0,0:0|2:0,0:0:0:0:
341,192,50481,5,0,0:0:0:0:
171,191,50781,1,10,0:2:0:0:
416,128,51081,6,8,B|480:160|400:224|383:244|257:155|327:62|370:22|462:22|507:122,1,399.999988079071,10|10,0:0|2:0,0:0:0:0:
256,71,52881,1,2,0:2:0:0:
256,71,53181,2,0,L|256:135,1,39.9999988079071
368,288,53481,6,0,B|256:304|256:304|144:288,1,215.999994386673,6|0,0:3|0:0,0:0:0:0:
93,199,53931,1,0,0:0:0:0:
205,224,54082,2,0,B|255:231|255:231|311:223,1,107.999997193337,8|0,0:0|0:0,0:0:0:0:
355,123,54382,2,0,P|372:69|354:12,1,107.999997193337,8|8,0:3|0:3,0:0:0:0:
152,20,54682,2,0,P|140:72|157:123,1,107.999997193337,8|8,0:3|0:3,0:0:0:0:
256,192,54982,1,4,0:3:0:0:
256,72,55132,1,4,0:3:0:0:
67,110,55282,6,0,B|50:159|1:192|1:192|50:225|67:274,1,215.999994386673,10|0,0:0|0:0,0:0:0:0:
166,320,55732,1,0,0:0:0:0:
256,192,55882,2,0,P|320:256|240:352,1,215.999994386673,6|0,2:3|0:0,0:0:0:0:
166,320,56332,1,0,0:0:0:0:
313,139,56482,2,0,P|359:178|382:222,1,107.999997193337,8|0,0:0|0:0,0:0:0:0:
199,139,56782,2,8,P|153:178|130:222,1,107.999997193337,8|8,0:3|0:3,0:3:0:0:
256,64,57082,6,8,L|320:48,1,63.9999980926514,8|8,0:3|0:3,0:3:0:0:
256,64,57382,2,4,L|192:48,1,63.9999980926514,4|4,0:3|0:3,0:3:0:0:
199,139,57682,5,4,0:3:0:0:
312,139,57832,1,4,0:3:0:0:
171,216,57982,1,8,0:3:0:0:
342,216,58132,1,8,0:3:0:0:
188,300,58282,6,0,P|107:271|111:154,1,215.999994386673,6|0,0:3|0:0,0:0:0:0:
199,139,58732,1,0,0:0:0:0:
252,261,58882,2,0,P|260:317|228:362,1,107.999997193337,8|0,0:0|0:0,0:0:0:0:
352,256,59182,2,0,L|480:288,1,107.999997193337,8|8,0:3|0:3,0:0:0:0:
456,101,59482,2,8,L|352:128,1,107.999997193337,8|8,0:3|0:3,0:3:0:0:
256,192,59782,1,4,0:3:0:0:
352,256,59932,1,4,0:3:0:0:
256,119,60082,6,0,B|197:126|184:180|184:180|153:129|184:67,1,215.999994386673,10|0,0:0|0:0,0:0:0:0:
280,22,60532,1,0,0:0:0:0:
124,31,60682,2,0,P|99:147|144:242,1,215.999994386673,6|0,0:3|0:0,0:0:0:0:
256,256,61132,1,0,0:0:0:0:
208,336,61282,2,0,L|96:320,1,107.999997193337,8|0,0:0|0:0,0:0:0:0:
304,336,61582,2,8,L|416:320,1,107.999997193337,8|8,0:3|0:3,0:3:0:0:
205,156,61882,6,8,L|170:259,1,79.9999976158142,8|8,0:3|0:3,0:3:0:0:
332,231,62182,2,4,L|307:156,1,79.9999976158142,4|4,0:3|0:3,0:3:0:0:
256,256,62482,5,8,0:3:0:0:
205,156,62632,1,8,0:3:0:0:
256,256,62782,1,4,0:3:0:0:
307,156,62932,1,4,0:3:0:0:
80,17,63082,6,0,B|95:91|95:91|75:145|75:145|95:226,1,215.999994386673,6|0,0:3|0:0,0:0:0:0:
124,329,63532,1,0,0:0:0:0:
256,256,63682,6,0,L|375:274,1,107.999997193337,8|0,0:0|0:0,0:0:0:0:
429,101,63982,2,8,P|390:136|335:134,1,108.008101019518,8|8,0:3|0:3,0:3:0:0:
152,41,64282,2,8,P|191:6|246:8,1,108.008101019518,8|8,0:3|0:3,0:3:0:0:
366,71,64582,1,4,0:3:0:0:
256,144,64732,1,4,0:3:0:0:
432,192,64882,2,0,L|496:288,1,107.999997193337,10|0,0:0|0:0,0:0:0:0:
336,252,65182,2,0,P|352:300|352:364,1,107.999997193337,2|2,0:0|0:3,0:0:0:0:
176,252,65482,2,0,P|160:300|160:364,1,107.999997193337,10|0,0:0|0:0,0:0:0:0:
80,192,65782,2,0,L|16:288,1,107.999997193337,2|0,0:0|0:0,0:0:0:0:
160,80,66082,5,8,0:3:0:0:
304,176,66232,1,8,0:3:0:0:
208,176,66382,1,12,0:3:0:0:
352,80,66532,1,4,0:3:0:0:
195,5,66682,2,0,P|137:1|87:38,1,107.999997193337,10|0,0:0|0:0,0:0:0:0:
317,5,66982,2,0,P|375:1|425:38,1,107.999997193337,2|2,0:0|0:0,0:0:0:0:
416,176,67282,6,0,P|256:176|64:176,1,324.024303058555,6|0,0:3|0:0,0:0:0:0:
208,256,67883,6,0,B|288:256|288:256|320:288,1,107.999997193337,10|0,0:0|0:0,0:0:0:0:
256,352,68183,1,0,0:0:0:0:
163,316,68333,2,0,P|134:266|149:209,1,107.999997193337,2|8,0:0|0:0,0:0:0:0:
216,108,68633,2,0,P|223:55|195:10,1,107.999997193337,2|0,0:0|0:0,0:0:0:0:
83,28,68933,1,0,0:0:0:0:
328,46,69083,6,0,L|455:57,1,107.999997193337,10|0,0:0|0:0,0:0:0:0:
512,208,69383,2,0,L|404:217,1,107.999997193337,2|0,0:0|0:0,0:0:0:0:
256,128,69683,1,8,0:3:0:0:
256,256,69833,1,8,0:3:0:0:
320,192,69983,1,4,0:3:0:0:
192,192,70133,1,4,0:3:0:0:
370,121,70283,6,0,P|402:163|403:216,1,107.999997193337,10|2,0:0|0:3,0:0:0:0:
256,128,70583,2,0,L|256:16,1,107.999997193337,2|2,0:0|0:3,0:0:0:0:
142,121,70883,2,0,P|109:163|108:216,1,107.999997193337,10|2,0:0|0:3,0:0:0:0:
256,364,71183,2,0,L|256:256,1,107.999997193337,2|2,0:0|0:3,0:0:0:0:
142,121,71483,5,8,0:3:0:0:
256,20,71633,1,8,0:3:0:0:
370,121,71783,1,4,0:3:0:0:
256,128,71933,1,4,0:3:0:0:
87,68,72083,6,0,P|67:117|84:168,1,107.999997193337,2|2,0:0|0:0,0:0:0:0:
427,168,72383,2,0,P|444:118|425:69,1,107.999997193337,10|2,0:0|0:0,0:0:0:0:
300,318,72683,6,0,L|466:285,1,160.0120009,6|0,0:3|0:0,0:0:0:0:
427,168,73133,1,0,0:0:0:0:
381,371,73283,2,0,L|350:213,1,160.0120009,8|0,0:0|0:0,0:0:0:0:
255,230,73733,1,2,0:0:0:0:
161,208,73883,2,0,L|59:228,1,79.9999976158142,8|0,0:3|0:0,0:0:0:0:
176,286,74183,2,0,L|156:184,1,79.9999976158142,4|0,0:3|0:0,0:0:0:0:
239,148,74483,2,0,L|269:305,1,159.999995231628,8|0,0:0|0:0,0:0:0:0:
337,249,74933,1,2,0:3:0:0:
308,110,75083,6,0,P|244:70|168:109,1,159.999995231628,6|0,0:3|0:0,0:0:0:0:
148,186,75533,1,0,0:0:0:0:
239,148,75683,2,0,P|241:72|316:31,1,159.999995231628,8|2,0:0|0:0,0:0:0:0:
391,59,76133,1,2,0:0:0:0:
434,135,76283,2,0,L|446:248,1,79.9999976158142,8|0,0:3|0:3,0:3:0:0:
346,276,76583,2,0,L|355:197,1,79.9999976158142,4|0,0:3|0:0,0:0:0:0:
214,331,76883,2,0,B|243:315|248:282|248:282|365:275,1,159.999995231628,8|0,0:0|0:0,0:0:0:0:
299,351,77333,1,2,0:3:0:0:
181,270,77483,6,0,P|177:188|154:110,1,159.999995231628,6|0,0:3|0:0,0:0:0:0:
77,72,77933,1,0,0:0:0:0:
155,113,78083,2,0,B|232:140|232:140|356:114,1,159.999995231628,8|2,0:0|0:0,0:0:0:0:
394,102,78533,1,2,0:0:0:0:
479,122,78683,2,0,L|462:200,1,79.9999976158142,8|0,0:3|0:0,0:0:0:0:
394,102,78983,2,0,L|377:24,1,79.9999976158142,4|0,0:3|0:0,0:0:0:0:
308,123,79283,2,0,B|337:173|317:228|317:228|207:253,1,159.999995231628,8|0,0:0|0:0,0:0:0:0:
181,260,79733,1,2,0:3:0:0:
340,310,79883,6,0,B|183:345,1,159.999995231628,6|0,0:3|0:0,0:0:0:0:
181,260,80333,1,0,0:0:0:0:
102,220,80483,2,0,P|85:137|105:51,1,160.0120009,8|2,0:0|0:0,0:0:0:0:
181,32,80934,1,2,0:0:0:0:
254,81,81084,2,0,B|291:103|291:103|355:88,1,79.9999976158142,8|0,0:3|0:0,0:0:0:0:
417,162,81384,2,0,B|380:184|380:184|316:169,1,79.9999976158142,4|0,0:3|0:0,0:0:0:0:
420,68,81684,2,0,P|496:107|493:215,1,159.999995231628,8|0,0:0|0:0,0:0:0:0:
417,162,82134,1,2,0:3:0:0:
212,248,82284,6,0,B|268:260|268:260|304:244|304:244|376:260,1,159.999995231628,6|0,0:3|0:0,0:0:0:0:
312,328,82734,1,0,0:0:0:0:
161,303,82884,2,2,P|137:235|197:175,1,159.999995231628,10|2,0:0|0:0,0:0:0:0:
278,165,83334,1,2,0:0:0:0:
256,80,83484,2,0,L|172:80,1,79.9999976158142,8|0,0:3|0:0,0:0:0:0:
256,80,83784,2,0,L|340:80,1,79.9999976158142,4|0,0:3|0:0,0:0:0:0:
176,80,84084,2,0,B|101:131|101:131|122:173|95:226,1,159.999995231628,8|0,0:0|0:0,0:0:0:0:
18,170,84534,1,2,0:3:0:0:
105,198,84684,6,0,P|125:275|46:261,1,192.01440108,4|0,0:3|0:0,0:0:0:0:
125,353,85284,2,0,P|195:292|197:198,1,192.01440108,8|0,0:0|0:0,0:0:0:0:
218,110,85884,2,0,P|252:91|292:92,1,64.00480036,8|0,0:3|0:0,0:0:0:0:
335,68,86184,2,0,P|300:86|260:85,1,64.00480036,4|0,0:3|0:0,0:0:0:0:
272,163,86484,2,0,B|345:167|363:143|381:115|459:126,1,192.01440108,8|0,0:0|0:0,0:0:0:0:
426,223,87084,6,0,L|405:367,1,144.010796415139,4|0,0:3|0:0,0:0:0:0:
390,340,87684,2,0,L|247:360,1,144.010796415139,8|0,0:0|0:0,0:0:0:0:
226,335,88284,2,0,P|179:329|137:350,2,96.0071976100928,8|4|8,0:3|0:3|0:0,0:0:0:0:
403,88,89484,5,2,0:0:0:0:
256,192,89559,12,0,91284,0:0:0:0:
