osu file format v14

[General]
AudioFilename: audio.mp3
AudioLeadIn: 0
PreviewTime: 43506
Countdown: 0
SampleSet: Soft
StackLeniency: 0.2
Mode: 0
LetterboxInBreaks: 0
WidescreenStoryboard: 1

[Editor]
DistanceSpacing: 1
BeatDivisor: 4
GridSize: 32
TimelineZoom: 2.4

[Metadata]
Title:Day Scanner
TitleUnicode:Day Scanner
Artist:Susumu Hirasawa
ArtistUnicode:平沢進
Creator:Monstrata
Version:Dystopia
Source:
Tags:nevo mentai shmiklak marvollo m_a_r_v_o_l_l_o voli mariahcarey mariah carey siren セイレーン
BeatmapID:1470146
BeatmapSetID:694970

[Difficulty]
HPDrainRate:6
CircleSize:4
OverallDifficulty:8
ApproachRate:9
SliderMultiplier:1.7
SliderTickRate:1

[Events]
//Background and Video events
0,0,"827547.png",0,0
//Break Periods
//Storyboard Layer 0 (Background)
//Storyboard Layer 1 (Fail)
//Storyboard Layer 2 (Pass)
//Storyboard Layer 3 (Foreground)
//Storyboard Sound Samples

[TimingPoints]
678,300.022501687627,4,2,0,35,1,0
4878,-100,4,2,0,35,0,0
5478,-100,4,2,0,55,0,0
43880,-100,4,3,0,55,0,0
43881,-133.333333333333,4,3,0,55,0,0
52844,-100,4,3,0,55,0,0
53481,-100,4,3,0,75,0,1
57082,-100,4,1,0,55,0,1
57982,-100,4,1,0,70,0,1
58282,-100,4,1,0,75,0,1
61882,-100,4,1,0,55,0,1
62782,-100,4,1,0,70,0,1
63082,-100,4,1,0,75,0,1
72683,-100,4,2,0,55,0,0
83483,-100,4,2,0,50,0,0
84083,-100,4,2,0,45,0,0
84683,-100,4,2,0,40,0,0
85284,-100,4,2,0,35,0,0
85884,-100,4,2,0,30,0,0
86484,-100,4,2,0,25,0,0
87084,-100,4,2,0,20,0,0
87684,-100,4,2,0,15,0,0
88284,-100,4,2,0,10,0,0
88884,-100,4,2,0,5,0,0

[Colours]
Combo1 : 112,112,112
Combo2 : 207,207,207

[HitObjects]
204,270,678,5,2,0:0:0:0:
257,55,978,1,0,0:0:0:0:
257,55,1128,1,0,0:0:0:0:
257,55,1278,1,2,0:0:0:0:
257,55,1578,1,0,0:0:0:0:
257,55,1728,1,0,0:0:0:0:
257,55,1878,1,2,0:0:0:0:
301,219,2028,5,2,0:0:0:0:
361,158,2178,1,2,0:0:0:0:
443,179,2328,1,2,0:0:0:0:
323,301,2478,1,2,0:0:0:0:
323,301,2778,1,0,0:0:0:0:
323,301,2928,1,0,0:0:0:0:
323,301,3078,5,2,0:0:0:0:
257,55,3378,1,0,0:0:0:0:
257,55,3528,1,0,0:0:0:0:
257,55,3678,1,2,0:0:0:0:
257,55,3978,1,0,0:0:0:0:
257,55,4128,1,0,0:0:0:0:
257,55,4278,1,2,0:0:0:0:
159,259,4428,5,2,0:0:0:0:
219,198,4578,1,2,0:0:0:0:
193,116,4728,1,2,0:0:0:0:
41,251,4878,6,0,P|100:233|158:257,1,127.5,2|0,0:1|0:0,0:0:0:0:
179,338,5178,2,0,P|215:361|257:363,1,85,0|0,0:0|0:0,0:0:0:0:
270,204,5478,6,0,P|245:238|242:280,1,85,6|0,0:3|0:0,0:0:0:0:
382,332,5778,2,0,P|406:298|410:256,1,85,0|0,0:0|0:0,0:0:0:0:
259,120,6078,2,0,L|157:133,1,85,10|0,0:0|0:0,0:0:0:0:
410,256,6378,2,0,L|495:244,1,85,2|2,0:0|0:0,0:0:0:0:
386,86,6678,1,8,0:3:0:0:
325,268,6828,6,0,L|240:280,1,85,0|4,0:3|0:3,0:0:0:0:
356,189,7128,1,0,0:0:0:0:
452,336,7278,2,0,L|537:324,1,85,8|0,0:0|0:0,0:0:0:0:
325,268,7578,2,0,L|337:353,1,85,0|2,0:0|0:3,0:0:0:0:
356,189,7878,6,0,B|311:174|274:200|274:200|235:227|190:210,1,170,6|0,0:3|0:0,0:0:0:0:
224,131,8328,1,0,0:0:0:0:
247,48,8478,2,0,P|283:69|305:106,1,85,10|0,0:0|0:0,0:0:0:0:
140,152,8778,2,0,P|140:109|161:73,1,85,2|2,0:0|0:0,0:0:0:0:
284,193,9078,5,8,0:3:0:0:
110,232,9228,2,0,P|75:207|57:169,1,85,0|4,0:0|0:3,0:0:0:0:
224,131,9528,1,0,0:0:0:0:
260,275,9678,2,0,L|231:372,1,85,8|0,0:0|0:0,0:0:0:0:
110,232,9978,2,0,L|139:329,1,85,0|2,0:0|0:3,0:0:0:0:
284,193,10278,6,0,L|384:199,1,85,6|0,0:3|0:0,0:0:0:0:
368,63,10578,2,0,L|284:69,1,85,0|0,0:0|0:0,0:0:0:0:
199,187,10878,2,0,P|214:241|256:272,1,85,10|0,0:0|0:0,0:0:0:0:
368,198,11178,1,2,0:0:0:0:
284,193,11328,1,2,0:0:0:0:
363,283,11478,5,8,0:3:0:0:
373,113,11628,2,0,L|378:28,1,85,0|4,0:0|0:3,0:0:0:0:
284,193,11928,1,0,0:0:0:0:
139,113,12078,2,0,L|133:28,1,85,8|0,0:0|0:0,0:0:0:0:
233,260,12378,2,0,L|238:344,1,85,0|2,0:0|0:3,0:0:0:0:
284,193,12678,6,0,P|198:183|149:259,1,170,6|0,0:3|0:0,0:0:0:0:
139,113,13128,1,0,0:0:0:0:
335,126,13278,2,0,P|368:101|386:44,1,85,10|0,0:0|0:0,0:0:0:0:
218,37,13578,1,2,0:0:0:0:
284,193,13728,1,2,0:0:0:0:
303,50,13878,5,8,0:3:0:0:
200,180,14029,2,0,P|203:222|226:258,1,85,0|4,0:0|0:3,0:0:0:0:
252,117,14329,1,0,0:0:0:0:
116,167,14479,2,0,L|100:81,1,85,8|0,0:0|0:0,0:0:0:0:
13,213,14779,2,0,L|29:130,1,85,0|2,0:0|0:3,0:0:0:0:
61,283,15079,6,0,L|144:298,1,85,6|0,0:3|0:0,0:0:0:0:
267,207,15379,2,0,L|184:223,1,85,0|0,0:0|0:0,0:0:0:0:
326,268,15679,2,0,P|348:233|351:191,1,85,10|0,0:0|0:0,0:0:0:0:
243,288,15979,2,0,P|262:325|298:347,1,85,2|2,0:0|0:0,0:0:0:0:
295,126,16279,5,8,0:3:0:0:
159,272,16429,2,0,L|242:287,1,85,0|4,0:0|0:3,0:0:0:0:
212,111,16729,1,0,0:0:0:0:
75,256,16879,2,0,P|77:298|101:337,1,85,8|0,0:0|0:0,0:0:0:0:
182,193,17179,2,0,P|180:235|156:274,1,85,0|2,0:0|0:3,0:0:0:0:
46,99,17479,6,0,B|94:85|94:85|211:110,1,170,6|0,0:3|0:0,0:0:0:0:
158,271,17929,1,0,0:0:0:0:
98,175,18079,2,0,L|181:192,1,85,10|0,0:0|0:0,0:0:0:0:
265,179,18379,2,0,L|247:262,1,85,2|2,0:0|0:0,0:0:0:0:
140,354,18679,5,8,0:3:0:0:
158,271,18829,1,0,0:0:0:0:
229,345,18979,1,4,0:3:0:0:
247,262,19129,1,0,0:0:0:0:
318,336,19279,2,0,L|410:326,1,85,8|0,0:0|0:0,0:0:0:0:
265,179,19579,2,0,L|357:189,1,85,0|2,0:0|0:3,0:0:0:0:
217,42,19879,6,0,P|277:98|264:178,1,170,6|0,0:3|0:0,0:0:0:0:
197,126,20329,1,0,0:0:0:0:
357,70,20479,2,0,L|437:42,1,85,10|0,0:0|0:0,0:0:0:0:
349,188,20779,1,2,0:0:0:0:
264,179,20929,1,2,0:0:0:0:
333,335,21079,5,8,0:3:0:0:
434,198,21229,2,0,P|423:143|384:109,1,85,0|4,0:0|0:3,0:0:0:0:
298,256,21529,1,0,0:0:0:0:
179,168,21679,2,0,P|191:128|223:101,1,85,8|0,0:0|0:0,0:0:0:0:
274,31,21979,2,0,P|302:62|310:103,1,85,0|2,0:0|0:3,0:0:0:0:
213,247,22279,6,0,P|171:255|132:242,1,85,6|0,0:3|0:0,0:0:0:0:
98,164,22579,2,0,P|139:155|178:168,1,85,0|0,0:0|0:0,0:0:0:0:
333,335,22879,2,0,P|374:343|413:330,1,85,10|0,0:0|0:0,0:0:0:0:
298,256,23179,1,2,0:0:0:0:
247,325,23329,1,2,0:0:0:0:
263,177,23479,5,8,0:3:0:0:
333,335,23629,2,0,P|374:343|413:330,1,85,0|4,0:0|0:3,0:0:0:0:
451,254,23929,1,0,0:0:0:0:
355,176,24079,2,0,L|369:259,1,85,10|0,0:0|0:0,0:0:0:0:
420,121,24379,1,2,0:0:0:0:
307,24,24529,1,2,0:0:0:0:
226,207,24679,6,0,L|241:295,1,85,6|0,0:3|0:0,0:0:0:0:
224,39,24979,2,0,L|238:122,1,85,0|0,0:0|0:0,0:0:0:0:
75,154,25279,2,0,P|115:141|157:149,1,85,8|0,0:3|0:0,0:0:0:0:
321,263,25579,1,2,0:0:0:0:
307,180,25729,1,2,0:0:0:0:
385,318,25879,1,8,0:3:0:0:
399,235,26029,1,8,0:3:0:0:
240,290,26179,6,0,L|226:207,1,85,4|0,0:3|0:0,0:0:0:0:
140,337,26479,2,0,L|155:254,1,85,8|0,0:3|0:0,0:0:0:0:
255,374,26779,1,2,0:0:0:0:
240,290,26929,1,2,0:0:0:0:
61,367,27079,6,0,L|90:193,1,170,6|0,0:3|0:0,0:0:0:0:
240,290,27530,1,0,0:0:0:0:
242,113,27680,2,0,P|319:63|402:123,1,170,8|0,0:3|0:0,0:0:0:0:
320,149,28130,1,0,0:0:0:0:
164,77,28280,6,0,L|152:-17,1,85,8|8,0:3|0:3,0:0:0:0:
165,207,28580,2,0,L|249:196,1,85,4|0,0:3|0:0,0:0:0:0:
252,28,28880,2,0,L|241:112,1,85,8|0,0:0|0:0,0:0:0:0:
331,233,29180,1,2,0:0:0:0:
320,149,29330,1,2,0:0:0:0:
260,280,29480,5,6,0:3:0:0:
90,204,29630,2,0,B|129:225|170:203|170:203|204:215|204:215|224:193|274:194,1,170,0|0,0:0|0:0,0:0:0:0:
117,50,30080,2,0,L|128:135,1,85,8|0,0:3|0:0,0:0:0:0:
249,195,30380,2,0,L|238:110,1,85,0|0,0:0|0:0,0:0:0:0:
187,306,30680,5,8,0:3:0:0:
269,325,30830,1,8,0:3:0:0:
331,176,30980,1,4,0:3:0:0:
249,195,31130,1,4,0:3:0:0:
351,344,31280,2,0,L|341:260,1,85,8|0,0:3|0:0,0:0:0:0:
249,195,31580,1,2,0:0:0:0:
269,325,31730,1,2,0:0:0:0:
331,176,31880,6,0,L|341:91,1,85,6|0,0:3|0:0,0:0:0:0:
167,214,32180,2,0,L|156:298,1,85,0|0,0:0|0:0,0:0:0:0:
367,157,32480,2,0,L|377:72,1,85,8|0,0:3|0:0,0:0:0:0:
131,233,32780,2,0,L|120:317,1,85,0|0,0:0|0:0,0:0:0:0:
249,195,33080,5,4,0:3:0:0:
230,113,33230,1,4,0:3:0:0:
268,277,33380,1,4,0:3:0:0:
329,219,33530,1,4,0:3:0:0:
287,359,33680,1,8,0:0:0:0:
287,359,33980,1,2,0:0:0:0:
249,195,34130,1,2,0:0:0:0:
125,309,34280,6,0,L|245:346,1,85,6|0,0:3|0:0,0:0:0:0:
168,168,34580,2,0,L|186:250,1,85,0|0,0:0|0:0,0:0:0:0:
267,112,34880,2,0,L|248:194,1,85,8|0,0:3|0:0,0:0:0:0:
150,86,35180,1,2,0:0:0:0:
168,168,35330,1,2,0:0:0:0:
88,27,35480,1,8,0:3:0:0:
70,109,35630,1,8,0:3:0:0:
267,112,35780,6,0,L|248:29,1,85,4|0,0:3|0:0,0:0:0:0:
88,191,36080,2,0,L|69:273,1,85,8|0,0:3|0:0,0:0:0:0:
186,250,36380,1,2,0:0:0:0:
168,168,36530,1,2,0:0:0:0:
139,319,36680,6,0,P|217:289|298:307,1,170,6|0,0:3|0:0,0:0:0:0:
168,168,37130,1,0,0:0:0:0:
284,77,37280,2,0,B|327:110|327:110|335:225,1,170,8|0,0:3|0:0,0:0:0:0:
250,155,37730,1,0,0:0:0:0:
401,40,37880,6,0,B|408:125,1,85,8|8,0:3|0:3,0:0:0:0:
335,225,38180,2,0,B|341:309,1,85,4|0,0:3|0:0,0:0:0:0:
503,211,38480,2,0,B|419:217,1,85,8|0,0:0|0:0,0:0:0:0:
431,384,38780,1,2,0:0:0:0:
510,294,38930,1,2,0:0:0:0:
341,309,39080,5,6,0:3:0:0:
393,56,39230,2,0,B|408:89|400:112|400:112|438:147|383:160|425:229,1,170,0|0,0:0|0:0,0:0:0:0:
322,93,39680,2,0,P|280:86|239:99,1,85,10|0,0:3|0:0,0:0:0:0:
250,243,39980,2,0,P|291:249|333:237,1,85,0|0,0:0|0:0,0:0:0:0:
203,174,40280,5,8,0:3:0:0:
213,318,40430,1,8,0:3:0:0:
286,168,40580,1,4,0:3:0:0:
167,249,40731,1,4,0:3:0:0:
259,386,40881,2,0,P|299:373|340:380,1,85,8|0,0:3|0:0,0:0:0:0:
250,243,41181,1,2,0:0:0:0:
131,324,41331,1,2,0:0:0:0:
152,165,41481,6,0,L|168:257,1,85,6|0,0:3|0:0,0:0:0:0:
271,84,41781,2,0,L|287:176,1,85,0|0,0:0|0:0,0:0:0:0:
86,86,42081,2,0,L|70:178,1,85,8|0,0:3|0:0,0:0:0:0:
205,5,42381,2,0,L|189:97,1,85,2|2,0:0|0:0,0:0:0:0:
299,250,42681,5,4,0:3:0:0:
271,84,42831,1,4,0:3:0:0:
156,275,42981,1,4,0:3:0:0:
313,333,43131,1,4,0:3:0:0:
285,167,43281,1,8,0:3:0:0:
285,167,43581,1,0,0:0:0:0:
285,167,43881,5,6,0:0:0:0:
156,275,44181,2,0,L|149:342,2,63.7500024318696,0|0|0,0:0|0:0|0:0,0:0:0:0:
285,167,44781,2,0,L|278:234,2,63.7500024318696,0|0|0,0:0|0:0|0:0,0:0:0:0:
325,299,45231,2,0,P|382:272|445:290,1,127.500004863739,0|0,0:0|0:0,0:0:0:0:
391,364,45681,1,2,0:2:0:0:
121,364,46281,5,10,0:0:0:0:
319,235,46581,2,0,L|325:302,2,63.7500024318696,0|0|0,0:0|0:0|0:0,0:0:0:0:
179,109,47181,2,0,L|172:176,2,63.7500024318696,0|0|0,0:0|0:0|0:0,0:0:0:0:
116,227,47631,2,0,L|241:204,1,127.500004863739,0|0,0:0|0:0,0:0:0:0:
173,300,48081,2,0,L|47:322,1,127.500004863739,0|2,0:0|0:2,0:0:0:0:
179,109,48681,5,6,0:0:0:0:
339,300,48981,2,0,L|345:367,2,63.7500024318696,0|0|0,0:0|0:0|0:0,0:0:0:0:
193,242,49581,2,0,L|186:309,2,63.7500024318696,0|0|0,0:0|0:0|0:0,0:0:0:0:
78,228,50031,2,0,P|130:258|210:222,1,127.500004863739,0|0,0:0|0:0,0:0:0:0:
206,127,50481,2,0,P|175:181|192:241,1,127.500004863739,0|10,0:0|0:2,0:0:0:0:
256,32,51081,5,10,0:0:0:0:
319,242,51381,1,0,0:0:0:0:
319,242,51531,1,0,0:0:0:0:
319,242,51681,1,0,0:0:0:0:
205,127,51981,1,0,0:0:0:0:
205,127,52131,1,0,0:0:0:0:
205,127,52281,6,0,L|202:151,12,15.9375006079674,0|0|0|0|0|0|0|0|10|0|0|0|0,0:0|0:0|0:0|0:0|0:0|0:0|0:0|0:0|2:0|0:0|0:0|0:0|0:0,0:0:0:0:
313,100,52881,2,0,P|374:88|430:116,1,127.5,2|0,0:2|0:0,0:0:0:0:
412,200,53181,2,0,L|433:107,1,85,0|0,0:0|0:0,0:0:0:0:
474,257,53481,6,0,P|418:284|371:275,1,85,6|0,0:3|0:0,0:0:0:0:
329,231,53781,2,0,L|318:279,1,42.5,0|0,0:0|0:0,0:0:0:0:
236,187,53931,2,0,L|246:229,1,42.5,0|0,0:0|0:0,0:0:0:0:
169,267,54082,2,0,L|159:308,3,42.5,8|0|0|0,0:0|0:0|0:0|0:0,0:0:0:0:
47,282,54382,5,8,0:3:0:0:
90,358,54532,1,8,0:3:0:0:
92,207,54682,1,8,0:3:0:0:
7,359,54832,2,0,P|48:367|90:358,1,85,8|4,0:3|0:3,0:0:0:0:
4,206,55132,1,4,0:3:0:0:
142,89,55282,2,0,L|136:131,1,42.5,10|0,0:0|0:0,0:0:0:0:
277,170,55432,2,0,L|282:212,1,42.5,0|0,0:0|0:0,0:0:0:0:
431,141,55582,1,0,0:0:0:0:
431,141,55657,1,0,0:0:0:0:
431,141,55732,1,0,0:0:0:0:
431,141,55807,1,0,0:0:0:0:
431,141,55882,6,0,L|420:226,1,85,6|0,2:3|0:0,0:0:0:0:
345,34,56182,2,0,L|351:77,1,42.5,0|0,0:0|0:0,0:0:0:0:
282,128,56332,2,0,L|277:171,1,42.5,0|0,0:0|0:0,0:0:0:0:
207,32,56482,2,0,L|213:75,3,42.5,8|0|0|0,0:0|0:0|0:0|0:0,0:0:0:0:
142,123,56782,1,8,0:3:0:0:
123,203,56932,1,8,0:3:0:0:
82,66,57082,5,8,0:3:0:0:
45,227,57232,2,0,P|81:274|125:286,2,85,8|4|4,0:3|0:3|0:3,0:0:0:0:
201,179,57682,1,4,0:3:0:0:
83,363,57832,1,4,0:3:0:0:
123,203,57982,1,8,0:3:0:0:
239,315,58132,1,8,0:3:0:0:
279,155,58282,6,0,P|256:119|219:99,1,85,6|0,0:3|0:0,0:0:0:0:
103,283,58582,2,0,L|144:273,1,42.5,0|0,0:0|0:0,0:0:0:0:
159,169,58732,2,0,L|200:178,1,42.5,0|0,0:0|0:0,0:0:0:0:
323,347,58882,2,0,L|364:337,3,42.5,8|0|0|0,0:0|0:0|0:0|0:0,0:0:0:0:
448,257,59182,2,0,L|461:199,1,42.5,8|0,0:3|0:0,0:0:0:0:
367,142,59332,2,0,L|377:184,1,42.5,8|0,0:3|0:0,0:0:0:0:
455,267,59482,6,0,L|468:209,1,42.5,8|0,0:3|0:0,0:0:0:0:
360,152,59632,2,0,L|370:194,1,42.5,8|0,0:3|0:0,0:0:0:0:
453,130,59782,1,4,0:3:0:0:
453,130,59857,1,0,0:0:0:0:
453,130,59932,1,4,0:3:0:0:
400,26,60082,2,0,L|390:67,3,42.5,10|0|0|0,0:0|0:0|0:0|0:0,0:0:0:0:
294,74,60382,1,0,0:0:0:0:
231,16,60532,1,0,0:0:0:0:
286,159,60682,6,0,P|327:147|368:156,1,85,6|0,0:3|0:0,0:0:0:0:
340,273,60982,2,0,L|331:232,3,42.5,0|0|0|0,0:0|0:0|0:0|0:0,0:0:0:0:
340,357,61282,2,0,L|266:350,1,42.5,8|0,0:0|0:0,0:0:0:0:
234,295,61432,2,0,L|160:302,1,42.5,0|0,0:0|0:0,0:0:0:0:
115,350,61582,2,0,L|72:354,1,42.5,8|0,0:3|0:0,0:0:0:0:
81,230,61732,2,0,L|85:272,1,42.5,8|0,0:3|0:0,0:0:0:0:
5,303,61882,5,8,0:3:0:0:
162,221,62032,2,0,L|247:213,1,85,8|4,0:3|0:3,0:0:0:0:
333,207,62332,1,4,0:3:0:0:
231,46,62482,1,8,0:3:0:0:
247,214,62632,1,8,0:3:0:0:
317,39,62782,1,4,0:3:0:0:
238,129,62932,1,4,0:3:0:0:
412,117,63082,6,0,L|403:32,1,85,6|0,0:3|0:0,0:0:0:0:
333,207,63382,1,0,0:0:0:0:
231,46,63532,1,0,0:0:0:0:
163,223,63682,2,0,L|154:307,1,85,8|0,0:0|0:0,0:0:0:0:
197,145,63982,1,8,0:3:0:0:
237,316,64132,1,8,0:3:0:0:
333,207,64282,5,8,0:3:0:0:
189,61,64432,2,0,L|197:145,1,85,8|4,0:3|0:3,0:0:0:0:
341,215,64732,1,4,0:3:0:0:
341,215,64807,1,0,0:0:0:0:
341,215,64882,2,0,P|382:217|420:198,1,85,10|0,0:0|0:0,0:0:0:0:
212,292,65182,2,0,P|250:273|292:276,1,85,2|2,0:0|0:3,0:0:0:0:
197,145,65482,6,0,P|159:126|117:129,1,85,10|0,0:0|0:0,0:0:0:0:
132,294,65782,2,0,L|144:210,1,85,2|0,0:0|0:0,0:0:0:0:
282,137,66082,1,8,0:3:0:0:
266,354,66232,1,8,0:3:0:0:
197,145,66382,1,12,0:3:0:0:
181,362,66532,1,4,0:3:0:0:
246,214,66682,5,10,0:0:0:0:
351,346,66832,1,0,0:0:0:0:
373,203,66982,2,0,L|331:206,1,42.5,2|0,0:0|0:0,0:0:0:0:
248,256,67132,2,0,L|245:213,1,42.5,2|0,0:0|0:0,0:0:0:0:
195,130,67282,2,0,L|237:127,1,42.5,6|0,0:3|0:0,0:0:0:0:
373,203,67433,2,0,L|370:160,1,42.5,0|0,0:0|0:0,0:0:0:0:
307,1,67583,2,0,L|186:14,1,85,0|0,0:0|0:0,0:0:0:0:
246,214,67883,6,0,L|333:206,1,85,10|0,0:0|0:0,0:0:0:0:
195,145,68183,1,0,0:0:0:0:
128,282,68333,2,0,L|212:292,1,85,2|8,0:0|0:0,0:0:0:0:
94,203,68633,1,2,0:0:0:0:
48,315,68783,2,0,P|74:349|113:365,1,85,0|0,0:0|0:0,0:0:0:0:
330,192,69083,6,0,L|348:108,1,85,10|0,0:0|0:0,0:0:0:0:
349,351,69383,2,0,L|368:268,1,85,2|0,0:0|0:0,0:0:0:0:
182,192,69683,2,0,L|163:108,1,85,8|8,0:3|0:3,0:0:0:0:
144,268,69983,1,4,0:3:0:0:
368,268,70133,1,4,0:3:0:0:
256,156,70283,5,10,0:0:0:0:
256,380,70433,6,0,L|256:264,1,85,2|2,0:3|0:0,0:0:0:0:
182,192,70733,1,2,0:3:0:0:
106,344,70883,2,0,L|11:360,1,85,10|2,0:0|0:3,0:0:0:0:
256,156,71183,2,0,L|339:170,1,85,2|2,0:0|0:3,0:0:0:0:
108,228,71483,6,0,L|92:133,1,85,8|8,0:3|0:3,0:0:0:0:
154,306,71783,2,0,P|173:314|194:317,1,42.5,4|0,0:3|0:0,0:0:0:0:
240,227,71933,2,0,P|219:230|199:238,1,42.5,4|0,0:3|0:0,0:0:0:0:
269,357,72083,2,0,P|288:365|309:368,1,42.5,2|0,0:0|0:0,0:0:0:0:
355,278,72233,2,0,P|334:281|314:289,1,42.5,2|0,0:0|0:0,0:0:0:0:
414,376,72383,2,0,L|430:324,1,42.5,10|0,0:0|0:0,0:0:0:0:
483,234,72533,2,0,L|496:275,1,42.5,2|0,0:0|0:0,0:0:0:0:
418,137,72683,6,0,L|386:237,1,85,6|0,0:3|0:0,0:0:0:0:
234,154,72983,2,0,P|276:149|315:165,1,85,0|0,0:0|0:0,0:0:0:0:
175,221,73283,2,0,P|169:262|185:301,1,85,8|0,0:0|0:0,0:0:0:0:
382,299,73583,2,0,P|398:260|392:218,1,85,0|2,0:0|0:0,0:0:0:0:
313,249,73883,5,8,0:3:0:0:
438,364,74033,2,0,P|479:358|512:332,1,85,0|4,0:0|0:3,0:0:0:0:
507,247,74333,1,0,0:0:0:0:
388,133,74483,2,0,L|393:235,1,85,8|0,0:0|0:0,0:0:0:0:
252,108,74783,2,0,L|248:193,1,85,0|2,0:0|0:3,0:0:0:0:
383,48,75083,6,0,P|425:57|469:120,1,85,6|0,0:3|0:0,0:0:0:0:
397,302,75383,2,0,P|355:293|311:230,1,85,0|0,0:0|0:0,0:0:0:0:
388,133,75683,2,0,L|393:235,1,85,8|0,0:0|0:0,0:0:0:0:
245,360,75983,2,0,L|240:275,1,85,2|2,0:0|0:0,0:0:0:0:
235,190,76283,5,8,0:3:0:0:
70,283,76433,2,0,L|155:279,1,85,0|4,0:3|0:3,0:0:0:0:
230,105,76733,1,0,0:0:0:0:
153,70,76883,2,0,P|146:111|159:152,1,85,8|0,0:0|0:0,0:0:0:0:
307,139,77183,2,0,P|313:97|301:57,1,85,0|2,0:0|0:3,0:0:0:0:
163,236,77483,6,0,L|78:240,1,85,6|0,0:3|0:0,0:0:0:0:
235,190,77783,1,0,0:0:0:0:
240,275,77933,1,0,0:0:0:0:
396,224,78083,2,0,L|312:229,1,85,8|0,0:0|0:0,0:0:0:0:
169,321,78383,2,0,P|193:346|254:361,1,85,2|2,0:0|0:0,0:0:0:0:
235,190,78683,5,8,0:3:0:0:
79,240,78833,2,0,L|84:325,1,85,0|4,0:0|0:3,0:0:0:0:
240,275,79133,1,0,0:0:0:0:
159,151,79283,2,0,L|164:236,1,85,8|0,0:0|0:0,0:0:0:0:
316,144,79583,2,0,L|311:228,1,85,0|2,0:0|0:3,0:0:0:0:
246,93,79883,6,0,P|278:66|320:59,1,85,6|0,0:3|0:0,0:0:0:0:
387,190,80183,1,0,0:0:0:0:
392,106,80333,1,0,0:0:0:0:
311,228,80483,2,0,L|306:312,1,85,8|0,0:0|0:0,0:0:0:0:
453,320,80784,2,0,L|458:235,1,85,2|2,0:0|0:0,0:0:0:0:
316,144,81084,1,8,0:3:0:0:
221,317,81234,6,0,L|305:312,1,85,0|4,0:0|0:3,0:0:0:0:
387,190,81534,1,0,0:0:0:0:
242,9,81684,2,0,L|246:93,1,85,8|0,0:0|0:0,0:0:0:0:
392,106,81984,2,0,L|387:21,1,85,0|2,0:0|0:3,0:0:0:0:
250,177,82284,5,6,0:3:0:0:
256,192,82434,12,0,89484,0:0:0:0:
