osu file format v14

[General]
AudioFilename: audio.mp3
AudioLeadIn: 0
PreviewTime: 1585
Countdown: 0
SampleSet: Soft
StackLeniency: 0.7
Mode: 3
LetterboxInBreaks: 0
SpecialStyle: 0
WidescreenStoryboard: 0

[Editor]
Bookmarks: 8749,15913,23077,30241,37405,44570,51734,55316,62480,69644,76808,83973,91137,98301,101883,116211,129644,130540,137704,144868,152032,159196,166361,173525,177107
DistanceSpacing: 0.8
BeatDivisor: 4
GridSize: 8
TimelineZoom: 2

[Metadata]
Title:Chaser
TitleUnicode:Chaser
Artist:Susumu Hirasawa
ArtistUnicode:Susumu Hirasawa
Creator:Wh1teh
Version:Wristjacker
Source:Paprika
Tags:
BeatmapID:1144551
BeatmapSetID:539712

[Difficulty]
HPDrainRate:8.5
CircleSize:4
OverallDifficulty:8.5
ApproachRate:5
SliderMultiplier:1.4
SliderTickRate:1

[Events]
//Background and Video events
0,0,"ab2902be41786dacbe097ece5b908590.jpg",0,0
//Break Periods
//Storyboard Layer 0 (Background)
//Storyboard Layer 1 (Fail)
//Storyboard Layer 2 (Pass)
//Storyboard Layer 3 (Foreground)
//Storyboard Sound Samples

[TimingPoints]
1583,447.761194029851,4,2,0,42,1,0

[HitObjects]
448,192,1583,5,0,0:0:0:0:
192,192,1583,1,0,0:0:0:0:
448,192,1694,1,0,0:0:0:0:
192,192,1694,1,0,0:0:0:0:
64,192,1806,1,0,0:0:0:0:
320,192,1806,1,0,0:0:0:0:
192,192,1918,1,0,0:0:0:0:
320,192,1918,1,0,0:0:0:0:
448,192,2030,1,0,0:0:0:0:
64,192,2030,1,0,0:0:0:0:
64,192,2142,1,0,0:0:0:0:
192,192,2142,1,0,0:0:0:0:
448,192,2254,1,0,0:0:0:0:
192,192,2254,1,0,0:0:0:0:
320,192,2366,1,0,0:0:0:0:
448,192,2366,1,0,0:0:0:0:
448,192,2478,1,0,0:0:0:0:
192,192,2478,1,0,0:0:0:0:
320,192,2590,1,0,0:0:0:0:
192,192,2590,1,0,0:0:0:0:
448,192,2702,1,0,0:0:0:0:
64,192,2702,1,0,0:0:0:0:
64,192,2814,1,0,0:0:0:0:
320,192,2814,1,0,0:0:0:0:
448,192,2926,1,0,0:0:0:0:
192,192,2926,1,0,0:0:0:0:
64,192,3038,1,0,0:0:0:0:
192,192,3038,1,0,0:0:0:0:
448,192,3150,1,0,0:0:0:0:
320,192,3150,1,0,0:0:0:0:
320,192,3262,1,0,0:0:0:0:
64,192,3262,1,0,0:0:0:0:
192,192,3374,1,0,0:0:0:0:
64,192,3374,1,0,0:0:0:0:
448,192,3430,1,0,0:0:0:0:
192,192,3485,1,0,0:0:0:0:
320,192,3597,1,0,0:0:0:0:
192,192,3653,1,0,0:0:0:0:
320,192,3709,1,0,0:0:0:0:
64,192,3821,1,0,0:0:0:0:
192,192,3821,1,0,0:0:0:0:
320,192,3933,1,0,0:0:0:0:
64,192,3933,1,0,0:0:0:0:
192,192,4045,1,0,0:0:0:0:
320,192,4045,1,0,0:0:0:0:
192,192,4157,1,0,0:0:0:0:
448,192,4157,1,0,0:0:0:0:
448,192,4269,1,0,0:0:0:0:
320,192,4269,1,0,0:0:0:0:
320,192,4381,1,0,0:0:0:0:
192,192,4381,1,0,0:0:0:0:
192,192,4493,1,0,0:0:0:0:
448,192,4493,1,0,0:0:0:0:
320,192,4605,1,0,0:0:0:0:
448,192,4605,1,0,0:0:0:0:
64,192,4717,1,0,0:0:0:0:
320,192,4717,1,0,0:0:0:0:
192,192,4829,1,0,0:0:0:0:
64,192,4829,1,0,0:0:0:0:
320,192,4941,1,0,0:0:0:0:
192,192,4941,1,0,0:0:0:0:
64,192,5053,1,0,0:0:0:0:
320,192,5053,1,0,0:0:0:0:
448,192,5165,1,0,0:0:0:0:
64,192,5165,1,0,0:0:0:0:
320,192,5277,1,0,0:0:0:0:
192,192,5277,1,0,0:0:0:0:
64,192,5388,1,0,0:0:0:0:
192,192,5388,1,0,0:0:0:0:
448,192,5500,1,0,0:0:0:0:
64,192,5500,1,0,0:0:0:0:
448,192,5612,1,0,0:0:0:0:
192,192,5612,1,0,0:0:0:0:
64,192,5724,1,0,0:0:0:0:
320,192,5724,1,0,0:0:0:0:
320,192,5836,1,0,0:0:0:0:
192,192,5836,1,0,0:0:0:0:
448,192,5948,1,0,0:0:0:0:
192,192,5948,1,0,0:0:0:0:
320,192,6060,1,0,0:0:0:0:
448,192,6060,1,0,0:0:0:0:
320,192,6172,1,0,0:0:0:0:
192,192,6172,1,0,0:0:0:0:
64,192,6284,1,0,0:0:0:0:
448,192,6284,1,0,0:0:0:0:
64,192,6396,1,0,0:0:0:0:
320,192,6396,1,0,0:0:0:0:
192,192,6508,1,0,0:0:0:0:
448,192,6508,1,0,0:0:0:0:
64,192,6620,1,0,0:0:0:0:
192,192,6620,1,0,0:0:0:0:
448,192,6732,1,0,0:0:0:0:
320,192,6732,1,0,0:0:0:0:
320,192,6844,1,0,0:0:0:0:
64,192,6844,1,0,0:0:0:0:
448,192,6956,1,0,0:0:0:0:
192,192,6956,1,0,0:0:0:0:
320,192,7012,1,0,0:0:0:0:
192,192,7068,1,0,0:0:0:0:
448,192,7180,1,0,0:0:0:0:
64,192,7235,1,0,0:0:0:0:
448,192,7291,1,0,0:0:0:0:
320,192,7403,1,0,0:0:0:0:
192,192,7403,1,0,0:0:0:0:
448,192,7515,1,0,0:0:0:0:
192,192,7515,1,0,0:0:0:0:
448,192,7627,1,0,0:0:0:0:
320,192,7627,1,0,0:0:0:0:
192,192,7739,1,0,0:0:0:0:
64,192,7739,1,0,0:0:0:0:
448,192,7851,1,0,0:0:0:0:
320,192,7851,1,0,0:0:0:0:
192,192,7851,1,0,0:0:0:0:
64,192,7851,1,0,0:0:0:0:
64,192,7963,1,0,0:0:0:0:
192,192,7963,1,0,0:0:0:0:
320,192,7963,1,0,0:0:0:0:
448,192,7963,1,0,0:0:0:0:
448,192,8075,1,0,0:0:0:0:
320,192,8075,1,0,0:0:0:0:
192,192,8075,1,0,0:0:0:0:
64,192,8075,1,0,0:0:0:0:
64,192,8187,1,0,0:0:0:0:
192,192,8187,1,0,0:0:0:0:
320,192,8187,1,0,0:0:0:0:
448,192,8187,1,0,0:0:0:0:
448,192,8299,1,0,0:0:0:0:
320,192,8299,1,0,0:0:0:0:
320,192,8411,1,0,0:0:0:0:
448,192,8411,1,0,0:0:0:0:
192,192,8523,128,0,8691:0:0:0:0:
64,192,8523,128,0,8691:0:0:0:0:
320,192,8523,128,0,8691:0:0:0:0:
448,192,8523,128,0,8691:0:0:0:0:
192,192,8747,1,0,0:0:0:0:
64,192,8747,1,0,0:0:0:0:
320,192,8747,1,0,0:0:0:0:
448,192,8747,1,0,0:0:0:0:
448,192,8859,1,0,0:0:0:0:
64,192,8859,1,0,0:0:0:0:
320,192,8859,1,0,0:0:0:0:
320,192,8971,1,0,0:0:0:0:
192,192,8971,1,0,0:0:0:0:
448,192,8971,1,0,0:0:0:0:
192,192,9083,1,0,0:0:0:0:
64,192,9083,1,0,0:0:0:0:
448,192,9194,1,0,0:0:0:0:
64,192,9194,1,0,0:0:0:0:
320,192,9194,1,0,0:0:0:0:
192,192,9306,1,0,0:0:0:0:
448,192,9306,1,0,0:0:0:0:
320,192,9418,1,0,0:0:0:0:
64,192,9418,1,0,0:0:0:0:
192,192,9418,1,0,0:0:0:0:
320,192,9530,1,0,0:0:0:0:
448,192,9530,1,0,0:0:0:0:
448,192,9642,1,0,0:0:0:0:
64,192,9642,1,0,0:0:0:0:
192,192,9642,1,0,0:0:0:0:
192,192,9754,1,0,0:0:0:0:
320,192,9754,1,0,0:0:0:0:
64,192,9754,1,0,0:0:0:0:
320,192,9866,1,0,0:0:0:0:
192,192,9866,1,0,0:0:0:0:
448,192,9866,1,0,0:0:0:0:
448,192,9978,1,0,0:0:0:0:
64,192,9978,1,0,0:0:0:0:
320,192,10090,1,0,0:0:0:0:
192,192,10090,1,0,0:0:0:0:
192,192,10202,1,0,0:0:0:0:
64,192,10202,1,0,0:0:0:0:
64,192,10314,1,0,0:0:0:0:
448,192,10314,1,0,0:0:0:0:
320,192,10314,1,0,0:0:0:0:
192,192,10426,1,0,0:0:0:0:
448,192,10426,1,0,0:0:0:0:
448,192,10538,1,0,0:0:0:0:
320,192,10538,1,0,0:0:0:0:
64,192,10538,1,0,0:0:0:0:
192,192,10650,1,0,0:0:0:0:
64,192,10650,1,0,0:0:0:0:
320,192,10762,1,0,0:0:0:0:
448,192,10762,1,0,0:0:0:0:
64,192,10874,1,0,0:0:0:0:
320,192,10874,1,0,0:0:0:0:
448,192,10985,1,0,0:0:0:0:
192,192,10985,1,0,0:0:0:0:
64,192,10985,1,0,0:0:0:0:
192,192,11097,1,0,0:0:0:0:
320,192,11097,1,0,0:0:0:0:
448,192,11097,1,0,0:0:0:0:
320,192,11209,1,0,0:0:0:0:
192,192,11209,1,0,0:0:0:0:
64,192,11209,1,0,0:0:0:0:
448,192,11321,1,0,0:0:0:0:
320,192,11321,1,0,0:0:0:0:
64,192,11321,1,0,0:0:0:0:
448,192,11433,1,0,0:0:0:0:
192,192,11433,1,0,0:0:0:0:
64,192,11433,1,0,0:0:0:0:
320,192,11433,1,0,0:0:0:0:
320,192,11545,1,0,0:0:0:0:
192,192,11545,1,0,0:0:0:0:
448,192,11545,1,0,0:0:0:0:
64,192,11545,1,0,0:0:0:0:
448,192,11657,1,0,0:0:0:0:
320,192,11657,1,0,0:0:0:0:
192,192,11657,1,0,0:0:0:0:
64,192,11657,1,0,0:0:0:0:
448,192,11769,1,0,0:0:0:0:
320,192,11769,1,0,0:0:0:0:
192,192,11769,1,0,0:0:0:0:
64,192,11769,1,0,0:0:0:0:
64,192,11881,1,0,0:0:0:0:
192,192,11881,1,0,0:0:0:0:
64,192,11993,1,0,0:0:0:0:
192,192,11993,1,0,0:0:0:0:
64,192,12105,128,0,12273:0:0:0:0:
192,192,12105,128,0,12273:0:0:0:0:
320,192,12105,128,0,12273:0:0:0:0:
448,192,12105,128,0,12273:0:0:0:0:
64,192,12329,1,0,0:0:0:0:
192,192,12329,1,0,0:0:0:0:
320,192,12329,1,0,0:0:0:0:
192,192,12441,1,0,0:0:0:0:
64,192,12441,1,0,0:0:0:0:
448,192,12441,1,0,0:0:0:0:
320,192,12553,1,0,0:0:0:0:
448,192,12553,1,0,0:0:0:0:
64,192,12665,1,0,0:0:0:0:
192,192,12665,1,0,0:0:0:0:
448,192,12777,1,0,0:0:0:0:
320,192,12777,1,0,0:0:0:0:
64,192,12777,1,0,0:0:0:0:
192,192,12888,1,0,0:0:0:0:
448,192,12888,1,0,0:0:0:0:
320,192,13000,1,0,0:0:0:0:
192,192,13000,1,0,0:0:0:0:
64,192,13000,1,0,0:0:0:0:
320,192,13112,1,0,0:0:0:0:
448,192,13112,1,0,0:0:0:0:
448,192,13224,1,0,0:0:0:0:
192,192,13224,1,0,0:0:0:0:
64,192,13224,1,0,0:0:0:0:
64,192,13336,1,0,0:0:0:0:
192,192,13336,1,0,0:0:0:0:
320,192,13336,1,0,0:0:0:0:
448,192,13448,1,0,0:0:0:0:
320,192,13448,1,0,0:0:0:0:
64,192,13448,1,0,0:0:0:0:
192,192,13560,1,0,0:0:0:0:
448,192,13560,1,0,0:0:0:0:
192,192,13672,1,0,0:0:0:0:
64,192,13672,1,0,0:0:0:0:
320,192,13784,1,0,0:0:0:0:
448,192,13784,1,0,0:0:0:0:
192,192,13896,1,0,0:0:0:0:
64,192,13896,1,0,0:0:0:0:
320,192,13896,1,0,0:0:0:0:
448,192,14008,1,0,0:0:0:0:
192,192,14008,1,0,0:0:0:0:
448,192,14120,1,0,0:0:0:0:
320,192,14120,1,0,0:0:0:0:
64,192,14120,1,0,0:0:0:0:
192,192,14232,1,0,0:0:0:0:
64,192,14232,1,0,0:0:0:0:
192,192,14344,1,0,0:0:0:0:
320,192,14344,1,0,0:0:0:0:
448,192,14456,1,0,0:0:0:0:
320,192,14456,1,0,0:0:0:0:
448,192,14568,1,0,0:0:0:0:
192,192,14568,1,0,0:0:0:0:
64,192,14568,1,0,0:0:0:0:
448,192,14680,1,0,0:0:0:0:
320,192,14680,1,0,0:0:0:0:
192,192,14680,1,0,0:0:0:0:
320,192,14791,1,0,0:0:0:0:
64,192,14791,1,0,0:0:0:0:
192,192,14791,1,0,0:0:0:0:
64,192,14903,1,0,0:0:0:0:
448,192,14903,1,0,0:0:0:0:
320,192,14903,1,0,0:0:0:0:
448,192,15015,1,0,0:0:0:0:
192,192,15015,1,0,0:0:0:0:
320,192,15015,1,0,0:0:0:0:
320,192,15127,1,0,0:0:0:0:
192,192,15127,1,0,0:0:0:0:
448,192,15127,1,0,0:0:0:0:
64,192,15127,1,0,0:0:0:0:
64,192,15239,1,0,0:0:0:0:
448,192,15239,1,0,0:0:0:0:
320,192,15239,1,0,0:0:0:0:
192,192,15239,1,0,0:0:0:0:
64,192,15351,1,0,0:0:0:0:
192,192,15351,1,0,0:0:0:0:
320,192,15463,1,0,0:0:0:0:
448,192,15463,1,0,0:0:0:0:
320,192,15575,1,0,0:0:0:0:
448,192,15575,1,0,0:0:0:0:
448,192,15687,128,0,15855:0:0:0:0:
320,192,15687,128,0,15855:0:0:0:0:
192,192,15687,128,0,15855:0:0:0:0:
64,192,15687,128,0,15855:0:0:0:0:
448,192,15911,1,0,0:0:0:0:
320,192,15911,1,0,0:0:0:0:
192,192,15911,1,0,0:0:0:0:
64,192,15911,1,0,0:0:0:0:
64,192,16023,1,0,0:0:0:0:
192,192,16023,1,0,0:0:0:0:
320,192,16135,1,0,0:0:0:0:
448,192,16135,1,0,0:0:0:0:
192,192,16247,1,0,0:0:0:0:
448,192,16247,1,0,0:0:0:0:
320,192,16359,1,0,0:0:0:0:
192,192,16359,1,0,0:0:0:0:
64,192,16471,1,0,0:0:0:0:
320,192,16471,1,0,0:0:0:0:
192,192,16583,1,0,0:0:0:0:
64,192,16583,1,0,0:0:0:0:
192,192,16694,1,0,0:0:0:0:
448,192,16694,1,0,0:0:0:0:
320,192,16806,1,0,0:0:0:0:
64,192,16806,1,0,0:0:0:0:
320,192,16918,1,0,0:0:0:0:
448,192,16918,1,0,0:0:0:0:
192,192,17030,1,0,0:0:0:0:
448,192,17030,1,0,0:0:0:0:
320,192,17142,1,0,0:0:0:0:
64,192,17142,1,0,0:0:0:0:
64,192,17254,1,0,0:0:0:0:
192,192,17254,1,0,0:0:0:0:
192,192,17366,1,0,0:0:0:0:
448,192,17366,1,0,0:0:0:0:
320,192,17478,1,0,0:0:0:0:
64,192,17478,1,0,0:0:0:0:
192,192,17590,1,0,0:0:0:0:
64,192,17590,1,0,0:0:0:0:
320,192,17702,1,0,0:0:0:0:
448,192,17702,1,0,0:0:0:0:
192,192,17758,1,0,0:0:0:0:
448,192,17814,1,0,0:0:0:0:
64,192,17926,1,0,0:0:0:0:
320,192,17926,1,0,0:0:0:0:
192,192,18038,1,0,0:0:0:0:
448,192,18038,1,0,0:0:0:0:
192,192,18150,1,0,0:0:0:0:
64,192,18150,1,0,0:0:0:0:
320,192,18206,1,0,0:0:0:0:
64,192,18262,1,0,0:0:0:0:
192,192,18374,1,0,0:0:0:0:
448,192,18374,1,0,0:0:0:0:
320,192,18485,1,0,0:0:0:0:
448,192,18485,1,0,0:0:0:0:
192,192,18597,1,0,0:0:0:0:
64,192,18597,1,0,0:0:0:0:
320,192,18653,1,0,0:0:0:0:
192,192,18709,1,0,0:0:0:0:
64,192,18821,1,0,0:0:0:0:
448,192,18821,1,0,0:0:0:0:
320,192,18933,1,0,0:0:0:0:
448,192,18933,1,0,0:0:0:0:
192,192,19045,1,0,0:0:0:0:
64,192,19045,1,0,0:0:0:0:
192,192,19157,1,0,0:0:0:0:
64,192,19157,1,0,0:0:0:0:
320,192,19269,1,0,0:0:0:0:
448,192,19269,1,0,0:0:0:0:
320,192,19381,1,0,0:0:0:0:
448,192,19381,1,0,0:0:0:0:
192,192,19493,1,0,0:0:0:0:
64,192,19493,1,0,0:0:0:0:
448,192,19605,1,0,0:0:0:0:
64,192,19605,1,0,0:0:0:0:
192,192,19717,1,0,0:0:0:0:
320,192,19717,1,0,0:0:0:0:
320,192,19829,1,0,0:0:0:0:
448,192,19829,1,0,0:0:0:0:
64,192,19941,1,0,0:0:0:0:
448,192,19941,1,0,0:0:0:0:
192,192,20053,1,0,0:0:0:0:
64,192,20053,1,0,0:0:0:0:
192,192,20165,1,0,0:0:0:0:
320,192,20165,1,0,0:0:0:0:
64,192,20277,1,0,0:0:0:0:
448,192,20277,1,0,0:0:0:0:
320,192,20388,1,0,0:0:0:0:
448,192,20388,1,0,0:0:0:0:
320,192,20500,1,0,0:0:0:0:
192,192,20500,1,0,0:0:0:0:
64,192,20612,1,0,0:0:0:0:
192,192,20612,1,0,0:0:0:0:
64,192,20724,1,0,0:0:0:0:
448,192,20724,1,0,0:0:0:0:
320,192,20836,1,0,0:0:0:0:
448,192,20836,1,0,0:0:0:0:
192,192,20948,1,0,0:0:0:0:
64,192,20948,1,0,0:0:0:0:
192,192,21060,1,0,0:0:0:0:
448,192,21060,1,0,0:0:0:0:
320,192,21172,1,0,0:0:0:0:
64,192,21172,1,0,0:0:0:0:
192,192,21284,1,0,0:0:0:0:
64,192,21284,1,0,0:0:0:0:
448,192,21340,1,0,0:0:0:0:
192,192,21396,1,0,0:0:0:0:
320,192,21508,1,0,0:0:0:0:
64,192,21508,1,0,0:0:0:0:
192,192,21620,1,0,0:0:0:0:
448,192,21620,1,0,0:0:0:0:
320,192,21732,1,0,0:0:0:0:
448,192,21732,1,0,0:0:0:0:
64,192,21788,1,0,0:0:0:0:
320,192,21844,1,0,0:0:0:0:
64,192,21956,5,0,0:0:0:0:
448,192,21956,1,0,0:0:0:0:
192,192,22068,1,0,0:0:0:0:
64,192,22068,1,0,0:0:0:0:
320,192,22180,1,0,0:0:0:0:
448,192,22180,1,0,0:0:0:0:
64,192,22235,1,0,0:0:0:0:
448,192,22291,1,0,0:0:0:0:
64,192,22403,1,0,0:0:0:0:
320,192,22403,1,0,0:0:0:0:
320,192,22515,1,0,0:0:0:0:
448,192,22515,1,0,0:0:0:0:
192,192,22627,1,0,0:0:0:0:
64,192,22627,1,0,0:0:0:0:
192,192,22739,1,0,0:0:0:0:
64,192,22739,1,0,0:0:0:0:
448,192,22851,128,0,23019:0:0:0:0:
320,192,22851,128,0,23019:0:0:0:0:
192,192,22851,128,0,23019:0:0:0:0:
64,192,22851,128,0,23019:0:0:0:0:
320,192,23075,5,0,0:0:0:0:
448,192,23075,1,0,0:0:0:0:
192,192,23075,1,0,0:0:0:0:
64,192,23075,1,0,0:0:0:0:
64,192,23187,1,0,0:0:0:0:
448,192,23187,1,0,0:0:0:0:
192,192,23187,1,0,0:0:0:0:
192,192,23299,1,0,0:0:0:0:
320,192,23299,1,0,0:0:0:0:
64,192,23299,1,0,0:0:0:0:
320,192,23411,1,0,0:0:0:0:
448,192,23411,1,0,0:0:0:0:
64,192,23523,1,0,0:0:0:0:
448,192,23523,1,0,0:0:0:0:
192,192,23523,1,0,0:0:0:0:
320,192,23635,1,0,0:0:0:0:
64,192,23635,1,0,0:0:0:0:
192,192,23747,1,0,0:0:0:0:
448,192,23747,1,0,0:0:0:0:
320,192,23747,1,0,0:0:0:0:
192,192,23859,1,0,0:0:0:0:
64,192,23859,1,0,0:0:0:0:
64,192,23971,1,0,0:0:0:0:
448,192,23971,1,0,0:0:0:0:
320,192,23971,1,0,0:0:0:0:
320,192,24083,1,0,0:0:0:0:
192,192,24083,1,0,0:0:0:0:
448,192,24083,1,0,0:0:0:0:
192,192,24194,1,0,0:0:0:0:
320,192,24194,1,0,0:0:0:0:
64,192,24194,1,0,0:0:0:0:
64,192,24306,1,0,0:0:0:0:
448,192,24306,1,0,0:0:0:0:
192,192,24418,1,0,0:0:0:0:
320,192,24418,1,0,0:0:0:0:
320,192,24530,1,0,0:0:0:0:
448,192,24530,1,0,0:0:0:0:
448,192,24642,1,0,0:0:0:0:
64,192,24642,1,0,0:0:0:0:
192,192,24642,1,0,0:0:0:0:
320,192,24754,1,0,0:0:0:0:
64,192,24754,1,0,0:0:0:0:
64,192,24866,1,0,0:0:0:0:
192,192,24866,1,0,0:0:0:0:
448,192,24866,1,0,0:0:0:0:
320,192,24978,1,0,0:0:0:0:
448,192,24978,1,0,0:0:0:0:
192,192,25090,1,0,0:0:0:0:
64,192,25090,1,0,0:0:0:0:
448,192,25202,1,0,0:0:0:0:
192,192,25202,1,0,0:0:0:0:
64,192,25314,1,0,0:0:0:0:
320,192,25314,1,0,0:0:0:0:
448,192,25314,1,0,0:0:0:0:
320,192,25426,1,0,0:0:0:0:
192,192,25426,1,0,0:0:0:0:
64,192,25426,1,0,0:0:0:0:
192,192,25538,1,0,0:0:0:0:
320,192,25538,1,0,0:0:0:0:
448,192,25538,1,0,0:0:0:0:
64,192,25650,1,0,0:0:0:0:
192,192,25650,1,0,0:0:0:0:
448,192,25650,1,0,0:0:0:0:
320,192,25762,1,0,0:0:0:0:
448,192,25762,1,0,0:0:0:0:
192,192,25874,1,0,0:0:0:0:
64,192,25874,1,0,0:0:0:0:
64,192,25985,1,0,0:0:0:0:
192,192,25985,1,0,0:0:0:0:
320,192,25985,1,0,0:0:0:0:
448,192,25985,1,0,0:0:0:0:
64,192,26097,1,0,0:0:0:0:
192,192,26097,1,0,0:0:0:0:
320,192,26097,1,0,0:0:0:0:
448,192,26097,1,0,0:0:0:0:
448,192,26209,1,0,0:0:0:0:
320,192,26209,1,0,0:0:0:0:
320,192,26321,1,0,0:0:0:0:
448,192,26321,1,0,0:0:0:0:
448,192,26433,128,0,26601:0:0:0:0:
320,192,26433,128,0,26601:0:0:0:0:
192,192,26433,128,0,26601:0:0:0:0:
64,192,26433,128,0,26601:0:0:0:0:
448,192,26657,1,0,0:0:0:0:
320,192,26657,1,0,0:0:0:0:
192,192,26657,1,0,0:0:0:0:
64,192,26657,1,0,0:0:0:0:
320,192,26769,1,0,0:0:0:0:
448,192,26769,1,0,0:0:0:0:
64,192,26769,1,0,0:0:0:0:
192,192,26881,1,0,0:0:0:0:
64,192,26881,1,0,0:0:0:0:
448,192,26993,1,0,0:0:0:0:
320,192,26993,1,0,0:0:0:0:
64,192,27105,1,0,0:0:0:0:
192,192,27105,1,0,0:0:0:0:
448,192,27105,1,0,0:0:0:0:
320,192,27217,1,0,0:0:0:0:
64,192,27217,1,0,0:0:0:0:
192,192,27329,1,0,0:0:0:0:
320,192,27329,1,0,0:0:0:0:
448,192,27329,1,0,0:0:0:0:
192,192,27441,1,0,0:0:0:0:
64,192,27441,1,0,0:0:0:0:
64,192,27553,1,0,0:0:0:0:
320,192,27553,1,0,0:0:0:0:
448,192,27553,1,0,0:0:0:0:
448,192,27665,1,0,0:0:0:0:
320,192,27665,1,0,0:0:0:0:
192,192,27665,1,0,0:0:0:0:
64,192,27777,1,0,0:0:0:0:
192,192,27777,1,0,0:0:0:0:
448,192,27777,1,0,0:0:0:0:
320,192,27888,1,0,0:0:0:0:
64,192,27888,1,0,0:0:0:0:
320,192,28000,1,0,0:0:0:0:
448,192,28000,1,0,0:0:0:0:
192,192,28112,1,0,0:0:0:0:
64,192,28112,1,0,0:0:0:0:
320,192,28224,1,0,0:0:0:0:
448,192,28224,1,0,0:0:0:0:
192,192,28224,1,0,0:0:0:0:
64,192,28336,1,0,0:0:0:0:
320,192,28336,1,0,0:0:0:0:
64,192,28448,1,0,0:0:0:0:
192,192,28448,1,0,0:0:0:0:
448,192,28448,1,0,0:0:0:0:
320,192,28560,1,0,0:0:0:0:
448,192,28560,1,0,0:0:0:0:
320,192,28672,1,0,0:0:0:0:
192,192,28672,1,0,0:0:0:0:
64,192,28784,1,0,0:0:0:0:
192,192,28784,1,0,0:0:0:0:
64,192,28896,1,0,0:0:0:0:
320,192,28896,1,0,0:0:0:0:
448,192,28896,1,0,0:0:0:0:
192,192,29008,1,0,0:0:0:0:
64,192,29008,1,0,0:0:0:0:
320,192,29008,1,0,0:0:0:0:
192,192,29120,1,0,0:0:0:0:
448,192,29120,1,0,0:0:0:0:
320,192,29120,1,0,0:0:0:0:
448,192,29232,1,0,0:0:0:0:
64,192,29232,1,0,0:0:0:0:
192,192,29232,1,0,0:0:0:0:
320,192,29344,1,0,0:0:0:0:
64,192,29344,1,0,0:0:0:0:
320,192,29456,1,0,0:0:0:0:
448,192,29456,1,0,0:0:0:0:
448,192,29568,1,0,0:0:0:0:
64,192,29568,1,0,0:0:0:0:
192,192,29568,1,0,0:0:0:0:
320,192,29568,1,0,0:0:0:0:
320,192,29680,1,0,0:0:0:0:
448,192,29680,1,0,0:0:0:0:
192,192,29680,1,0,0:0:0:0:
64,192,29680,1,0,0:0:0:0:
192,192,29791,1,0,0:0:0:0:
64,192,29791,1,0,0:0:0:0:
192,192,29903,1,0,0:0:0:0:
64,192,29903,1,0,0:0:0:0:
64,192,30015,128,0,30183:0:0:0:0:
192,192,30015,128,0,30183:0:0:0:0:
320,192,30015,128,0,30183:0:0:0:0:
448,192,30015,128,0,30183:0:0:0:0:
64,192,30239,1,0,0:0:0:0:
192,192,30239,1,0,0:0:0:0:
320,192,30239,1,0,0:0:0:0:
448,192,30239,1,0,0:0:0:0:
448,192,30351,1,0,0:0:0:0:
320,192,30351,1,0,0:0:0:0:
192,192,30463,1,0,0:0:0:0:
64,192,30463,1,0,0:0:0:0:
320,192,30575,1,0,0:0:0:0:
64,192,30575,1,0,0:0:0:0:
192,192,30687,1,0,0:0:0:0:
320,192,30687,1,0,0:0:0:0:
448,192,30799,1,0,0:0:0:0:
192,192,30799,1,0,0:0:0:0:
320,192,30911,1,0,0:0:0:0:
448,192,30911,1,0,0:0:0:0:
320,192,31023,1,0,0:0:0:0:
64,192,31023,1,0,0:0:0:0:
192,192,31135,1,0,0:0:0:0:
448,192,31135,1,0,0:0:0:0:
192,192,31247,1,0,0:0:0:0:
64,192,31247,1,0,0:0:0:0:
320,192,31359,1,0,0:0:0:0:
64,192,31359,1,0,0:0:0:0:
192,192,31471,1,0,0:0:0:0:
448,192,31471,1,0,0:0:0:0:
448,192,31583,1,0,0:0:0:0:
320,192,31583,1,0,0:0:0:0:
320,192,31694,1,0,0:0:0:0:
64,192,31694,1,0,0:0:0:0:
192,192,31806,1,0,0:0:0:0:
448,192,31806,1,0,0:0:0:0:
320,192,31918,1,0,0:0:0:0:
448,192,31918,1,0,0:0:0:0:
192,192,32030,1,0,0:0:0:0:
64,192,32030,1,0,0:0:0:0:
320,192,32086,1,0,0:0:0:0:
64,192,32142,1,0,0:0:0:0:
448,192,32254,1,0,0:0:0:0:
192,192,32254,1,0,0:0:0:0:
320,192,32366,1,0,0:0:0:0:
64,192,32366,1,0,0:0:0:0:
320,192,32478,1,0,0:0:0:0:
448,192,32478,1,0,0:0:0:0:
192,192,32534,1,0,0:0:0:0:
448,192,32590,1,0,0:0:0:0:
320,192,32702,1,0,0:0:0:0:
64,192,32702,1,0,0:0:0:0:
192,192,32814,1,0,0:0:0:0:
64,192,32814,1,0,0:0:0:0:
320,192,32926,1,0,0:0:0:0:
448,192,32926,1,0,0:0:0:0:
192,192,32982,1,0,0:0:0:0:
320,192,33038,1,0,0:0:0:0:
448,192,33150,1,0,0:0:0:0:
64,192,33150,1,0,0:0:0:0:
192,192,33262,1,0,0:0:0:0:
64,192,33262,1,0,0:0:0:0:
320,192,33374,1,0,0:0:0:0:
448,192,33374,1,0,0:0:0:0:
320,192,33485,1,0,0:0:0:0:
448,192,33485,1,0,0:0:0:0:
192,192,33597,1,0,0:0:0:0:
64,192,33597,1,0,0:0:0:0:
192,192,33709,1,0,0:0:0:0:
64,192,33709,1,0,0:0:0:0:
320,192,33821,1,0,0:0:0:0:
448,192,33821,1,0,0:0:0:0:
64,192,33933,1,0,0:0:0:0:
448,192,33933,1,0,0:0:0:0:
320,192,34045,1,0,0:0:0:0:
192,192,34045,1,0,0:0:0:0:
192,192,34157,1,0,0:0:0:0:
64,192,34157,1,0,0:0:0:0:
448,192,34269,1,0,0:0:0:0:
64,192,34269,1,0,0:0:0:0:
320,192,34381,1,0,0:0:0:0:
448,192,34381,1,0,0:0:0:0:
320,192,34493,1,0,0:0:0:0:
192,192,34493,1,0,0:0:0:0:
448,192,34605,1,0,0:0:0:0:
64,192,34605,1,0,0:0:0:0:
192,192,34717,1,0,0:0:0:0:
64,192,34717,1,0,0:0:0:0:
192,192,34829,1,0,0:0:0:0:
320,192,34829,1,0,0:0:0:0:
448,192,34941,1,0,0:0:0:0:
320,192,34941,1,0,0:0:0:0:
448,192,35053,1,0,0:0:0:0:
64,192,35053,1,0,0:0:0:0:
192,192,35165,1,0,0:0:0:0:
64,192,35165,1,0,0:0:0:0:
320,192,35277,1,0,0:0:0:0:
448,192,35277,1,0,0:0:0:0:
320,192,35388,1,0,0:0:0:0:
64,192,35388,1,0,0:0:0:0:
192,192,35500,1,0,0:0:0:0:
448,192,35500,1,0,0:0:0:0:
320,192,35612,1,0,0:0:0:0:
448,192,35612,1,0,0:0:0:0:
64,192,35668,1,0,0:0:0:0:
320,192,35724,1,0,0:0:0:0:
192,192,35836,1,0,0:0:0:0:
448,192,35836,1,0,0:0:0:0:
320,192,35948,1,0,0:0:0:0:
64,192,35948,1,0,0:0:0:0:
192,192,36060,1,0,0:0:0:0:
64,192,36060,1,0,0:0:0:0:
448,192,36116,1,0,0:0:0:0:
192,192,36172,1,0,0:0:0:0:
448,192,36284,5,0,0:0:0:0:
64,192,36284,1,0,0:0:0:0:
320,192,36396,1,0,0:0:0:0:
448,192,36396,1,0,0:0:0:0:
192,192,36508,1,0,0:0:0:0:
64,192,36508,1,0,0:0:0:0:
448,192,36564,1,0,0:0:0:0:
64,192,36620,1,0,0:0:0:0:
448,192,36732,1,0,0:0:0:0:
192,192,36732,1,0,0:0:0:0:
192,192,36844,1,0,0:0:0:0:
64,192,36844,1,0,0:0:0:0:
320,192,36956,1,0,0:0:0:0:
448,192,36956,1,0,0:0:0:0:
320,192,37068,1,0,0:0:0:0:
448,192,37068,1,0,0:0:0:0:
64,192,37180,128,0,37347:0:0:0:0:
192,192,37180,128,0,37347:0:0:0:0:
320,192,37180,128,0,37347:0:0:0:0:
448,192,37180,128,0,37347:0:0:0:0:
192,192,37403,1,0,0:0:0:0:
64,192,37403,1,0,0:0:0:0:
320,192,37403,1,0,0:0:0:0:
448,192,37403,1,0,0:0:0:0:
64,192,37515,1,0,0:0:0:0:
320,192,37515,1,0,0:0:0:0:
448,192,37627,1,0,0:0:0:0:
192,192,37627,1,0,0:0:0:0:
448,192,37739,1,0,0:0:0:0:
192,192,37739,1,0,0:0:0:0:
64,192,37851,1,0,0:0:0:0:
320,192,37851,1,0,0:0:0:0:
64,192,37963,1,0,0:0:0:0:
320,192,37963,1,0,0:0:0:0:
192,192,38075,1,0,0:0:0:0:
448,192,38075,1,0,0:0:0:0:
192,192,38187,1,0,0:0:0:0:
448,192,38187,1,0,0:0:0:0:
64,192,38299,1,0,0:0:0:0:
320,192,38299,1,0,0:0:0:0:
320,192,38411,1,0,0:0:0:0:
64,192,38411,1,0,0:0:0:0:
192,192,38523,1,0,0:0:0:0:
64,192,38523,1,0,0:0:0:0:
64,192,38635,1,0,0:0:0:0:
192,192,38635,1,0,0:0:0:0:
448,192,38747,1,0,0:0:0:0:
320,192,38747,1,0,0:0:0:0:
448,192,38859,1,0,0:0:0:0:
320,192,38859,1,0,0:0:0:0:
192,192,38971,1,0,0:0:0:0:
64,192,38971,1,0,0:0:0:0:
192,192,39083,1,0,0:0:0:0:
64,192,39083,1,0,0:0:0:0:
448,192,39194,1,0,0:0:0:0:
64,192,39194,1,0,0:0:0:0:
448,192,39306,1,0,0:0:0:0:
64,192,39306,1,0,0:0:0:0:
192,192,39418,1,0,0:0:0:0:
320,192,39418,1,0,0:0:0:0:
192,192,39530,1,0,0:0:0:0:
320,192,39530,1,0,0:0:0:0:
448,192,39642,1,0,0:0:0:0:
64,192,39642,1,0,0:0:0:0:
448,192,39754,1,0,0:0:0:0:
64,192,39754,1,0,0:0:0:0:
320,192,39866,1,0,0:0:0:0:
448,192,39866,1,0,0:0:0:0:
320,192,39978,1,0,0:0:0:0:
448,192,39978,1,0,0:0:0:0:
192,192,40090,1,0,0:0:0:0:
64,192,40090,1,0,0:0:0:0:
64,192,40202,1,0,0:0:0:0:
192,192,40202,1,0,0:0:0:0:
64,192,40314,1,0,0:0:0:0:
192,192,40314,1,0,0:0:0:0:
64,192,40426,1,0,0:0:0:0:
192,192,40426,1,0,0:0:0:0:
320,192,40538,1,0,0:0:0:0:
448,192,40538,1,0,0:0:0:0:
320,192,40650,1,0,0:0:0:0:
448,192,40650,1,0,0:0:0:0:
448,192,40762,1,0,0:0:0:0:
192,192,40762,1,0,0:0:0:0:
192,192,40874,1,0,0:0:0:0:
64,192,40874,1,0,0:0:0:0:
192,192,40985,1,0,0:0:0:0:
320,192,40985,1,0,0:0:0:0:
64,192,40985,1,0,0:0:0:0:
448,192,40985,1,0,0:0:0:0:
448,192,41097,1,0,0:0:0:0:
64,192,41097,1,0,0:0:0:0:
192,192,41209,1,0,0:0:0:0:
320,192,41209,1,0,0:0:0:0:
192,192,41321,1,0,0:0:0:0:
320,192,41321,1,0,0:0:0:0:
448,192,41433,1,0,0:0:0:0:
192,192,41433,1,0,0:0:0:0:
448,192,41545,1,0,0:0:0:0:
192,192,41545,1,0,0:0:0:0:
320,192,41657,1,0,0:0:0:0:
64,192,41657,1,0,0:0:0:0:
320,192,41769,1,0,0:0:0:0:
64,192,41769,1,0,0:0:0:0:
64,192,41881,1,0,0:0:0:0:
448,192,41881,1,0,0:0:0:0:
448,192,41993,1,0,0:0:0:0:
64,192,41993,1,0,0:0:0:0:
192,192,42105,1,0,0:0:0:0:
320,192,42105,1,0,0:0:0:0:
192,192,42217,1,0,0:0:0:0:
320,192,42217,1,0,0:0:0:0:
192,192,42329,1,0,0:0:0:0:
448,192,42329,1,0,0:0:0:0:
192,192,42441,1,0,0:0:0:0:
448,192,42441,1,0,0:0:0:0:
320,192,42553,1,0,0:0:0:0:
64,192,42553,1,0,0:0:0:0:
64,192,42665,1,0,0:0:0:0:
320,192,42665,1,0,0:0:0:0:
448,192,42777,1,0,0:0:0:0:
192,192,42777,1,0,0:0:0:0:
448,192,42888,1,0,0:0:0:0:
192,192,42888,1,0,0:0:0:0:
192,192,43000,1,0,0:0:0:0:
64,192,43000,1,0,0:0:0:0:
192,192,43112,1,0,0:0:0:0:
64,192,43112,1,0,0:0:0:0:
448,192,43224,1,0,0:0:0:0:
64,192,43224,1,0,0:0:0:0:
448,192,43336,1,0,0:0:0:0:
64,192,43336,1,0,0:0:0:0:
320,192,43448,1,0,0:0:0:0:
448,192,43448,1,0,0:0:0:0:
192,192,43560,1,0,0:0:0:0:
320,192,43560,1,0,0:0:0:0:
64,192,43672,1,0,0:0:0:0:
448,192,43672,1,0,0:0:0:0:
64,192,43784,1,0,0:0:0:0:
448,192,43784,1,0,0:0:0:0:
320,192,43896,1,0,0:0:0:0:
192,192,43896,1,0,0:0:0:0:
320,192,44008,1,0,0:0:0:0:
192,192,44008,1,0,0:0:0:0:
320,192,44120,1,0,0:0:0:0:
448,192,44120,1,0,0:0:0:0:
320,192,44232,1,0,0:0:0:0:
448,192,44232,1,0,0:0:0:0:
64,192,44344,1,0,0:0:0:0:
448,192,44344,1,0,0:0:0:0:
192,192,44456,1,0,0:0:0:0:
64,192,44456,1,0,0:0:0:0:
64,192,44568,1,0,0:0:0:0:
192,192,44568,1,0,0:0:0:0:
320,192,44568,1,0,0:0:0:0:
448,192,44568,1,0,0:0:0:0:
320,192,44680,1,0,0:0:0:0:
448,192,44791,1,0,0:0:0:0:
64,192,44791,1,0,0:0:0:0:
192,192,44791,1,0,0:0:0:0:
192,192,44903,1,0,0:0:0:0:
64,192,45015,1,0,0:0:0:0:
320,192,45015,1,0,0:0:0:0:
448,192,45015,1,0,0:0:0:0:
64,192,45127,1,0,0:0:0:0:
192,192,45127,1,0,0:0:0:0:
448,192,45239,1,0,0:0:0:0:
320,192,45239,1,0,0:0:0:0:
64,192,45239,1,0,0:0:0:0:
192,192,45351,1,0,0:0:0:0:
448,192,45351,1,0,0:0:0:0:
64,192,45463,1,0,0:0:0:0:
192,192,45463,1,0,0:0:0:0:
320,192,45463,1,0,0:0:0:0:
320,192,45575,1,0,0:0:0:0:
448,192,45575,1,0,0:0:0:0:
64,192,45687,1,0,0:0:0:0:
192,192,45687,1,0,0:0:0:0:
448,192,45687,1,0,0:0:0:0:
64,192,45799,1,0,0:0:0:0:
320,192,45799,1,0,0:0:0:0:
192,192,45911,1,0,0:0:0:0:
320,192,45911,1,0,0:0:0:0:
448,192,46023,1,0,0:0:0:0:
192,192,46023,1,0,0:0:0:0:
448,192,46135,1,0,0:0:0:0:
320,192,46135,1,0,0:0:0:0:
64,192,46135,1,0,0:0:0:0:
192,192,46247,1,0,0:0:0:0:
64,192,46247,1,0,0:0:0:0:
320,192,46359,1,0,0:0:0:0:
320,192,46471,1,0,0:0:0:0:
64,192,46583,1,0,0:0:0:0:
192,192,46583,1,0,0:0:0:0:
448,192,46583,1,0,0:0:0:0:
64,192,46694,1,0,0:0:0:0:
192,192,46694,1,0,0:0:0:0:
448,192,46806,1,0,0:0:0:0:
320,192,46806,1,0,0:0:0:0:
448,192,46918,1,0,0:0:0:0:
320,192,46918,1,0,0:0:0:0:
192,192,47030,1,0,0:0:0:0:
64,192,47030,1,0,0:0:0:0:
192,192,47142,1,0,0:0:0:0:
448,192,47142,1,0,0:0:0:0:
448,192,47254,1,0,0:0:0:0:
320,192,47254,1,0,0:0:0:0:
64,192,47254,1,0,0:0:0:0:
192,192,47366,1,0,0:0:0:0:
64,192,47366,1,0,0:0:0:0:
320,192,47366,1,0,0:0:0:0:
320,192,47478,1,0,0:0:0:0:
448,192,47478,1,0,0:0:0:0:
192,192,47478,1,0,0:0:0:0:
64,192,47590,1,0,0:0:0:0:
192,192,47590,1,0,0:0:0:0:
320,192,47702,1,0,0:0:0:0:
448,192,47702,1,0,0:0:0:0:
192,192,47758,1,0,0:0:0:0:
64,192,47758,1,0,0:0:0:0:
320,192,47814,1,0,0:0:0:0:
448,192,47814,1,0,0:0:0:0:
192,192,47870,1,0,0:0:0:0:
64,192,47870,1,0,0:0:0:0:
320,192,47926,1,0,0:0:0:0:
448,192,47926,1,0,0:0:0:0:
192,192,48038,1,0,0:0:0:0:
64,192,48038,1,0,0:0:0:0:
448,192,48150,1,0,0:0:0:0:
320,192,48150,1,0,0:0:0:0:
192,192,48150,1,0,0:0:0:0:
64,192,48150,1,0,0:0:0:0:
448,192,48262,1,0,0:0:0:0:
320,192,48374,1,0,0:0:0:0:
192,192,48374,1,0,0:0:0:0:
64,192,48374,1,0,0:0:0:0:
192,192,48485,1,0,0:0:0:0:
64,192,48597,1,0,0:0:0:0:
320,192,48597,1,0,0:0:0:0:
448,192,48597,1,0,0:0:0:0:
448,192,48709,1,0,0:0:0:0:
192,192,48709,1,0,0:0:0:0:
320,192,48821,1,0,0:0:0:0:
64,192,48821,1,0,0:0:0:0:
192,192,48821,1,0,0:0:0:0:
448,192,48933,1,0,0:0:0:0:
64,192,48933,1,0,0:0:0:0:
448,192,49045,1,0,0:0:0:0:
320,192,49045,1,0,0:0:0:0:
192,192,49045,1,0,0:0:0:0:
192,192,49157,1,0,0:0:0:0:
64,192,49157,1,0,0:0:0:0:
320,192,49269,1,0,0:0:0:0:
64,192,49269,1,0,0:0:0:0:
448,192,49269,1,0,0:0:0:0:
448,192,49381,1,0,0:0:0:0:
192,192,49381,1,0,0:0:0:0:
320,192,49493,1,0,0:0:0:0:
192,192,49493,1,0,0:0:0:0:
64,192,49605,1,0,0:0:0:0:
320,192,49605,1,0,0:0:0:0:
448,192,49717,1,0,0:0:0:0:
192,192,49717,1,0,0:0:0:0:
64,192,49717,1,0,0:0:0:0:
320,192,49829,1,0,0:0:0:0:
448,192,49829,1,0,0:0:0:0:
320,192,49941,1,0,0:0:0:0:
192,192,49941,1,0,0:0:0:0:
64,192,49941,1,0,0:0:0:0:
192,192,50053,1,0,0:0:0:0:
320,192,50053,1,0,0:0:0:0:
448,192,50053,1,0,0:0:0:0:
448,192,50165,1,0,0:0:0:0:
320,192,50165,1,0,0:0:0:0:
64,192,50165,1,0,0:0:0:0:
192,192,50277,1,0,0:0:0:0:
64,192,50277,1,0,0:0:0:0:
320,192,50333,1,0,0:0:0:0:
448,192,50333,1,0,0:0:0:0:
192,192,50388,1,0,0:0:0:0:
64,192,50388,1,0,0:0:0:0:
448,192,50500,1,0,0:0:0:0:
320,192,50500,1,0,0:0:0:0:
192,192,50500,1,0,0:0:0:0:
320,192,50612,1,0,0:0:0:0:
448,192,50612,1,0,0:0:0:0:
192,192,50724,1,0,0:0:0:0:
64,192,50724,1,0,0:0:0:0:
320,192,50780,1,0,0:0:0:0:
448,192,50780,1,0,0:0:0:0:
192,192,50836,1,0,0:0:0:0:
64,192,50836,1,0,0:0:0:0:
64,192,50948,1,0,0:0:0:0:
320,192,50948,1,0,0:0:0:0:
448,192,50948,1,0,0:0:0:0:
192,192,51060,1,0,0:0:0:0:
320,192,51060,1,0,0:0:0:0:
448,192,51172,1,0,0:0:0:0:
64,192,51172,1,0,0:0:0:0:
192,192,51172,1,0,0:0:0:0:
448,192,51284,1,0,0:0:0:0:
320,192,51284,1,0,0:0:0:0:
64,192,51284,1,0,0:0:0:0:
320,192,51396,1,0,0:0:0:0:
448,192,51396,1,0,0:0:0:0:
192,192,51452,1,0,0:0:0:0:
64,192,51452,1,0,0:0:0:0:
320,192,51508,1,0,0:0:0:0:
448,192,51508,1,0,0:0:0:0:
64,192,51620,1,0,0:0:0:0:
192,192,51620,1,0,0:0:0:0:
448,192,51732,1,0,0:0:0:0:
320,192,51732,1,0,0:0:0:0:
192,192,51732,1,0,0:0:0:0:
64,192,51732,128,0,52180:0:0:0:0:
320,192,51844,1,0,0:0:0:0:
448,192,51956,1,0,0:0:0:0:
448,192,52068,1,0,0:0:0:0:
320,192,52180,1,0,0:0:0:0:
64,192,52263,1,0,0:0:0:0:
448,192,52291,1,0,0:0:0:0:
192,192,52403,1,0,0:0:0:0:
320,192,52515,1,0,0:0:0:0:
448,192,52571,1,0,0:0:0:0:
64,192,52627,1,0,0:0:0:0:
448,192,52683,1,0,0:0:0:0:
192,192,52739,1,0,0:0:0:0:
320,192,52851,1,0,0:0:0:0:
64,192,52907,1,0,0:0:0:0:
320,192,52963,1,0,0:0:0:0:
448,192,52991,1,0,0:0:0:0:
64,192,53075,1,0,0:0:0:0:
192,192,53075,1,0,0:0:0:0:
448,192,53187,1,0,0:0:0:0:
64,192,53243,128,0,53523:0:0:0:0:
320,192,53299,1,0,0:0:0:0:
320,192,53411,1,0,0:0:0:0:
192,192,53523,1,0,0:0:0:0:
448,192,53635,1,0,0:0:0:0:
320,192,53635,1,0,0:0:0:0:
448,192,53747,1,0,0:0:0:0:
192,192,53747,1,0,0:0:0:0:
192,192,53859,1,0,0:0:0:0:
320,192,53971,1,0,0:0:0:0:
64,192,53999,128,0,54083:0:0:0:0:
192,192,54083,1,0,0:0:0:0:
320,192,54194,1,0,0:0:0:0:
64,192,54250,1,0,0:0:0:0:
320,192,54306,1,0,0:0:0:0:
448,192,54334,128,0,54418:0:0:0:0:
192,192,54418,1,0,0:0:0:0:
64,192,54418,128,0,54530:0:0:0:0:
320,192,54642,1,0,0:0:0:0:
64,192,54670,1,0,0:0:0:0:
64,192,54866,1,0,0:0:0:0:
192,192,54866,1,0,0:0:0:0:
320,192,54978,1,0,0:0:0:0:
448,192,55090,128,0,55258:0:0:0:0:
64,192,55090,128,0,55258:0:0:0:0:
192,192,55314,5,0,0:0:0:0:
64,192,55314,1,0,0:0:0:0:
320,192,55314,1,0,0:0:0:0:
448,192,55314,1,0,0:0:0:0:
448,192,55426,1,0,0:0:0:0:
64,192,55426,1,0,0:0:0:0:
320,192,55426,1,0,0:0:0:0:
320,192,55538,1,0,0:0:0:0:
192,192,55538,1,0,0:0:0:0:
448,192,55538,1,0,0:0:0:0:
192,192,55650,1,0,0:0:0:0:
64,192,55650,1,0,0:0:0:0:
448,192,55762,1,0,0:0:0:0:
64,192,55762,1,0,0:0:0:0:
320,192,55762,1,0,0:0:0:0:
192,192,55874,1,0,0:0:0:0:
448,192,55874,1,0,0:0:0:0:
320,192,55985,1,0,0:0:0:0:
64,192,55985,1,0,0:0:0:0:
192,192,55985,1,0,0:0:0:0:
320,192,56097,1,0,0:0:0:0:
448,192,56097,1,0,0:0:0:0:
448,192,56209,1,0,0:0:0:0:
64,192,56209,1,0,0:0:0:0:
192,192,56209,1,0,0:0:0:0:
192,192,56321,1,0,0:0:0:0:
320,192,56321,1,0,0:0:0:0:
64,192,56321,1,0,0:0:0:0:
320,192,56433,1,0,0:0:0:0:
192,192,56433,1,0,0:0:0:0:
448,192,56433,1,0,0:0:0:0:
448,192,56545,1,0,0:0:0:0:
64,192,56545,1,0,0:0:0:0:
320,192,56657,1,0,0:0:0:0:
192,192,56657,1,0,0:0:0:0:
192,192,56769,1,0,0:0:0:0:
64,192,56769,1,0,0:0:0:0:
64,192,56881,1,0,0:0:0:0:
448,192,56881,1,0,0:0:0:0:
320,192,56881,1,0,0:0:0:0:
192,192,56993,1,0,0:0:0:0:
448,192,56993,1,0,0:0:0:0:
448,192,57105,1,0,0:0:0:0:
320,192,57105,1,0,0:0:0:0:
64,192,57105,1,0,0:0:0:0:
192,192,57217,1,0,0:0:0:0:
64,192,57217,1,0,0:0:0:0:
320,192,57329,1,0,0:0:0:0:
448,192,57329,1,0,0:0:0:0:
64,192,57441,1,0,0:0:0:0:
320,192,57441,1,0,0:0:0:0:
448,192,57553,1,0,0:0:0:0:
192,192,57553,1,0,0:0:0:0:
64,192,57553,1,0,0:0:0:0:
192,192,57665,1,0,0:0:0:0:
320,192,57665,1,0,0:0:0:0:
448,192,57665,1,0,0:0:0:0:
320,192,57777,1,0,0:0:0:0:
192,192,57777,1,0,0:0:0:0:
64,192,57777,1,0,0:0:0:0:
448,192,57888,1,0,0:0:0:0:
320,192,57888,1,0,0:0:0:0:
64,192,57888,1,0,0:0:0:0:
192,192,58000,1,0,0:0:0:0:
64,192,58000,1,0,0:0:0:0:
320,192,58000,1,0,0:0:0:0:
448,192,58000,1,0,0:0:0:0:
320,192,58112,1,0,0:0:0:0:
448,192,58112,1,0,0:0:0:0:
192,192,58112,1,0,0:0:0:0:
64,192,58112,1,0,0:0:0:0:
448,192,58224,1,0,0:0:0:0:
320,192,58224,1,0,0:0:0:0:
192,192,58224,1,0,0:0:0:0:
64,192,58224,1,0,0:0:0:0:
448,192,58336,1,0,0:0:0:0:
320,192,58336,1,0,0:0:0:0:
192,192,58336,1,0,0:0:0:0:
64,192,58336,1,0,0:0:0:0:
64,192,58448,1,0,0:0:0:0:
192,192,58448,1,0,0:0:0:0:
192,192,58560,1,0,0:0:0:0:
64,192,58560,1,0,0:0:0:0:
64,192,58672,128,0,58840:0:0:0:0:
192,192,58672,128,0,58840:0:0:0:0:
320,192,58672,128,0,58840:0:0:0:0:
448,192,58672,128,0,58840:0:0:0:0:
64,192,58896,1,0,0:0:0:0:
192,192,58896,1,0,0:0:0:0:
320,192,58896,1,0,0:0:0:0:
448,192,58896,1,0,0:0:0:0:
192,192,59008,1,0,0:0:0:0:
64,192,59008,1,0,0:0:0:0:
448,192,59008,1,0,0:0:0:0:
320,192,59120,1,0,0:0:0:0:
448,192,59120,1,0,0:0:0:0:
64,192,59232,1,0,0:0:0:0:
192,192,59232,1,0,0:0:0:0:
448,192,59344,1,0,0:0:0:0:
320,192,59344,1,0,0:0:0:0:
64,192,59344,1,0,0:0:0:0:
192,192,59456,1,0,0:0:0:0:
448,192,59456,1,0,0:0:0:0:
320,192,59568,1,0,0:0:0:0:
192,192,59568,1,0,0:0:0:0:
64,192,59568,1,0,0:0:0:0:
320,192,59680,1,0,0:0:0:0:
448,192,59680,1,0,0:0:0:0:
448,192,59791,1,0,0:0:0:0:
192,192,59791,1,0,0:0:0:0:
64,192,59791,1,0,0:0:0:0:
64,192,59903,1,0,0:0:0:0:
192,192,59903,1,0,0:0:0:0:
320,192,59903,1,0,0:0:0:0:
448,192,60015,1,0,0:0:0:0:
320,192,60015,1,0,0:0:0:0:
64,192,60015,1,0,0:0:0:0:
192,192,60127,1,0,0:0:0:0:
448,192,60127,1,0,0:0:0:0:
192,192,60239,1,0,0:0:0:0:
64,192,60239,1,0,0:0:0:0:
320,192,60351,1,0,0:0:0:0:
448,192,60351,1,0,0:0:0:0:
192,192,60463,1,0,0:0:0:0:
64,192,60463,1,0,0:0:0:0:
320,192,60463,1,0,0:0:0:0:
448,192,60575,1,0,0:0:0:0:
192,192,60575,1,0,0:0:0:0:
448,192,60687,1,0,0:0:0:0:
320,192,60687,1,0,0:0:0:0:
64,192,60687,1,0,0:0:0:0:
192,192,60799,1,0,0:0:0:0:
64,192,60799,1,0,0:0:0:0:
192,192,60911,1,0,0:0:0:0:
320,192,60911,1,0,0:0:0:0:
448,192,61023,1,0,0:0:0:0:
320,192,61023,1,0,0:0:0:0:
448,192,61135,1,0,0:0:0:0:
192,192,61135,1,0,0:0:0:0:
64,192,61135,1,0,0:0:0:0:
320,192,61247,1,0,0:0:0:0:
64,192,61247,1,0,0:0:0:0:
192,192,61247,1,0,0:0:0:0:
320,192,61359,1,0,0:0:0:0:
64,192,61359,1,0,0:0:0:0:
448,192,61359,1,0,0:0:0:0:
448,192,61471,1,0,0:0:0:0:
320,192,61471,1,0,0:0:0:0:
192,192,61471,1,0,0:0:0:0:
192,192,61583,1,0,0:0:0:0:
448,192,61583,1,0,0:0:0:0:
320,192,61583,1,0,0:0:0:0:
64,192,61583,1,0,0:0:0:0:
192,192,61694,1,0,0:0:0:0:
64,192,61694,1,0,0:0:0:0:
320,192,61694,1,0,0:0:0:0:
448,192,61694,1,0,0:0:0:0:
64,192,61806,1,0,0:0:0:0:
448,192,61806,1,0,0:0:0:0:
192,192,61918,1,0,0:0:0:0:
64,192,61918,1,0,0:0:0:0:
320,192,62030,1,0,0:0:0:0:
448,192,62030,1,0,0:0:0:0:
320,192,62142,1,0,0:0:0:0:
448,192,62142,1,0,0:0:0:0:
448,192,62254,128,0,62422:0:0:0:0:
320,192,62254,128,0,62422:0:0:0:0:
192,192,62254,128,0,62422:0:0:0:0:
64,192,62254,128,0,62422:0:0:0:0:
192,192,62478,1,0,0:0:0:0:
64,192,62478,1,0,0:0:0:0:
448,192,62478,1,0,0:0:0:0:
320,192,62478,1,0,0:0:0:0:
192,192,62590,1,0,0:0:0:0:
64,192,62590,1,0,0:0:0:0:
448,192,62702,1,0,0:0:0:0:
320,192,62702,1,0,0:0:0:0:
448,192,62814,1,0,0:0:0:0:
192,192,62814,1,0,0:0:0:0:
192,192,62926,1,0,0:0:0:0:
320,192,62926,1,0,0:0:0:0:
320,192,63038,1,0,0:0:0:0:
64,192,63038,1,0,0:0:0:0:
64,192,63150,1,0,0:0:0:0:
192,192,63150,1,0,0:0:0:0:
448,192,63262,1,0,0:0:0:0:
192,192,63262,1,0,0:0:0:0:
64,192,63374,1,0,0:0:0:0:
320,192,63374,1,0,0:0:0:0:
448,192,63485,1,0,0:0:0:0:
320,192,63485,1,0,0:0:0:0:
192,192,63597,1,0,0:0:0:0:
64,192,63597,1,0,0:0:0:0:
192,192,63709,1,0,0:0:0:0:
448,192,63709,1,0,0:0:0:0:
64,192,63821,1,0,0:0:0:0:
320,192,63821,1,0,0:0:0:0:
448,192,63933,1,0,0:0:0:0:
320,192,63933,1,0,0:0:0:0:
448,192,64045,1,0,0:0:0:0:
64,192,64045,1,0,0:0:0:0:
64,192,64157,1,0,0:0:0:0:
192,192,64157,1,0,0:0:0:0:
448,192,64269,1,0,0:0:0:0:
320,192,64269,1,0,0:0:0:0:
192,192,64325,1,0,0:0:0:0:
448,192,64381,1,0,0:0:0:0:
320,192,64493,1,0,0:0:0:0:
64,192,64493,1,0,0:0:0:0:
448,192,64605,1,0,0:0:0:0:
192,192,64605,1,0,0:0:0:0:
64,192,64717,1,0,0:0:0:0:
192,192,64717,1,0,0:0:0:0:
320,192,64773,1,0,0:0:0:0:
64,192,64829,1,0,0:0:0:0:
448,192,64941,1,0,0:0:0:0:
192,192,64941,1,0,0:0:0:0:
448,192,65053,1,0,0:0:0:0:
320,192,65053,1,0,0:0:0:0:
64,192,65165,1,0,0:0:0:0:
192,192,65165,1,0,0:0:0:0:
320,192,65221,1,0,0:0:0:0:
192,192,65277,1,0,0:0:0:0:
448,192,65388,1,0,0:0:0:0:
64,192,65388,1,0,0:0:0:0:
448,192,65500,1,0,0:0:0:0:
320,192,65500,1,0,0:0:0:0:
64,192,65612,1,0,0:0:0:0:
192,192,65612,1,0,0:0:0:0:
64,192,65724,1,0,0:0:0:0:
192,192,65724,1,0,0:0:0:0:
448,192,65836,1,0,0:0:0:0:
320,192,65836,1,0,0:0:0:0:
448,192,65948,1,0,0:0:0:0:
320,192,65948,1,0,0:0:0:0:
64,192,66060,1,0,0:0:0:0:
192,192,66060,1,0,0:0:0:0:
64,192,66172,1,0,0:0:0:0:
448,192,66172,1,0,0:0:0:0:
320,192,66284,1,0,0:0:0:0:
192,192,66284,1,0,0:0:0:0:
448,192,66396,1,0,0:0:0:0:
320,192,66396,1,0,0:0:0:0:
448,192,66508,1,0,0:0:0:0:
64,192,66508,1,0,0:0:0:0:
64,192,66620,1,0,0:0:0:0:
192,192,66620,1,0,0:0:0:0:
320,192,66732,1,0,0:0:0:0:
192,192,66732,1,0,0:0:0:0:
448,192,66844,1,0,0:0:0:0:
64,192,66844,1,0,0:0:0:0:
448,192,66956,1,0,0:0:0:0:
320,192,66956,1,0,0:0:0:0:
320,192,67068,1,0,0:0:0:0:
192,192,67068,1,0,0:0:0:0:
192,192,67180,1,0,0:0:0:0:
64,192,67180,1,0,0:0:0:0:
448,192,67291,1,0,0:0:0:0:
64,192,67291,1,0,0:0:0:0:
448,192,67403,1,0,0:0:0:0:
320,192,67403,1,0,0:0:0:0:
64,192,67515,1,0,0:0:0:0:
192,192,67515,1,0,0:0:0:0:
448,192,67627,1,0,0:0:0:0:
192,192,67627,1,0,0:0:0:0:
64,192,67739,1,0,0:0:0:0:
320,192,67739,1,0,0:0:0:0:
64,192,67851,1,0,0:0:0:0:
192,192,67851,1,0,0:0:0:0:
448,192,67907,1,0,0:0:0:0:
192,192,67963,1,0,0:0:0:0:
64,192,68075,1,0,0:0:0:0:
320,192,68075,1,0,0:0:0:0:
448,192,68187,1,0,0:0:0:0:
192,192,68187,1,0,0:0:0:0:
448,192,68299,1,0,0:0:0:0:
320,192,68299,1,0,0:0:0:0:
64,192,68355,1,0,0:0:0:0:
320,192,68411,1,0,0:0:0:0:
64,192,68523,5,0,0:0:0:0:
448,192,68523,1,0,0:0:0:0:
64,192,68635,1,0,0:0:0:0:
192,192,68635,1,0,0:0:0:0:
448,192,68747,1,0,0:0:0:0:
320,192,68747,1,0,0:0:0:0:
64,192,68803,1,0,0:0:0:0:
448,192,68859,1,0,0:0:0:0:
320,192,68971,1,0,0:0:0:0:
64,192,68971,1,0,0:0:0:0:
192,192,68971,1,0,0:0:0:0:
448,192,69083,1,0,0:0:0:0:
320,192,69083,1,0,0:0:0:0:
64,192,69194,1,0,0:0:0:0:
192,192,69194,1,0,0:0:0:0:
448,192,69194,1,0,0:0:0:0:
64,192,69306,1,0,0:0:0:0:
192,192,69306,1,0,0:0:0:0:
192,192,69418,128,0,69586:0:0:0:0:
64,192,69418,128,0,69586:0:0:0:0:
448,192,69418,128,0,69586:0:0:0:0:
320,192,69418,128,0,69586:0:0:0:0:
192,192,69642,5,0,0:0:0:0:
64,192,69642,1,0,0:0:0:0:
320,192,69642,1,0,0:0:0:0:
448,192,69642,1,0,0:0:0:0:
192,192,69754,1,0,0:0:0:0:
448,192,69754,1,0,0:0:0:0:
64,192,69754,1,0,0:0:0:0:
64,192,69866,1,0,0:0:0:0:
320,192,69866,1,0,0:0:0:0:
192,192,69866,1,0,0:0:0:0:
448,192,69978,1,0,0:0:0:0:
320,192,69978,1,0,0:0:0:0:
192,192,70090,1,0,0:0:0:0:
448,192,70090,1,0,0:0:0:0:
64,192,70090,1,0,0:0:0:0:
64,192,70202,1,0,0:0:0:0:
320,192,70202,1,0,0:0:0:0:
320,192,70314,1,0,0:0:0:0:
448,192,70314,1,0,0:0:0:0:
192,192,70314,1,0,0:0:0:0:
64,192,70426,1,0,0:0:0:0:
192,192,70426,1,0,0:0:0:0:
320,192,70538,1,0,0:0:0:0:
448,192,70538,1,0,0:0:0:0:
64,192,70538,1,0,0:0:0:0:
448,192,70650,1,0,0:0:0:0:
192,192,70650,1,0,0:0:0:0:
320,192,70650,1,0,0:0:0:0:
64,192,70762,1,0,0:0:0:0:
320,192,70762,1,0,0:0:0:0:
192,192,70762,1,0,0:0:0:0:
448,192,70874,1,0,0:0:0:0:
64,192,70874,1,0,0:0:0:0:
320,192,70985,1,0,0:0:0:0:
192,192,70985,1,0,0:0:0:0:
448,192,71097,1,0,0:0:0:0:
320,192,71097,1,0,0:0:0:0:
192,192,71209,1,0,0:0:0:0:
64,192,71209,1,0,0:0:0:0:
448,192,71209,1,0,0:0:0:0:
64,192,71321,1,0,0:0:0:0:
320,192,71321,1,0,0:0:0:0:
448,192,71433,1,0,0:0:0:0:
192,192,71433,1,0,0:0:0:0:
64,192,71433,1,0,0:0:0:0:
448,192,71545,1,0,0:0:0:0:
320,192,71545,1,0,0:0:0:0:
64,192,71657,1,0,0:0:0:0:
192,192,71657,1,0,0:0:0:0:
192,192,71769,1,0,0:0:0:0:
448,192,71769,1,0,0:0:0:0:
448,192,71881,1,0,0:0:0:0:
320,192,71881,1,0,0:0:0:0:
64,192,71881,1,0,0:0:0:0:
64,192,71993,1,0,0:0:0:0:
192,192,71993,1,0,0:0:0:0:
320,192,71993,1,0,0:0:0:0:
448,192,72105,1,0,0:0:0:0:
320,192,72105,1,0,0:0:0:0:
192,192,72105,1,0,0:0:0:0:
448,192,72217,1,0,0:0:0:0:
192,192,72217,1,0,0:0:0:0:
64,192,72217,1,0,0:0:0:0:
448,192,72329,1,0,0:0:0:0:
320,192,72329,1,0,0:0:0:0:
192,192,72329,1,0,0:0:0:0:
64,192,72329,1,0,0:0:0:0:
64,192,72441,1,0,0:0:0:0:
192,192,72441,1,0,0:0:0:0:
320,192,72441,1,0,0:0:0:0:
448,192,72441,1,0,0:0:0:0:
320,192,72553,1,0,0:0:0:0:
64,192,72553,1,0,0:0:0:0:
64,192,72665,1,0,0:0:0:0:
192,192,72665,1,0,0:0:0:0:
320,192,72777,1,0,0:0:0:0:
448,192,72777,1,0,0:0:0:0:
448,192,72888,1,0,0:0:0:0:
320,192,72888,1,0,0:0:0:0:
192,192,73000,128,0,73168:0:0:0:0:
64,192,73000,128,0,73168:0:0:0:0:
448,192,73000,128,0,73168:0:0:0:0:
320,192,73000,128,0,73168:0:0:0:0:
192,192,73224,1,0,0:0:0:0:
320,192,73224,1,0,0:0:0:0:
448,192,73224,1,0,0:0:0:0:
64,192,73224,1,0,0:0:0:0:
64,192,73336,1,0,0:0:0:0:
448,192,73336,1,0,0:0:0:0:
320,192,73336,1,0,0:0:0:0:
64,192,73448,1,0,0:0:0:0:
192,192,73448,1,0,0:0:0:0:
320,192,73560,1,0,0:0:0:0:
448,192,73560,1,0,0:0:0:0:
448,192,73672,1,0,0:0:0:0:
192,192,73672,1,0,0:0:0:0:
64,192,73672,1,0,0:0:0:0:
64,192,73784,1,0,0:0:0:0:
320,192,73784,1,0,0:0:0:0:
448,192,73896,1,0,0:0:0:0:
320,192,73896,1,0,0:0:0:0:
192,192,73896,1,0,0:0:0:0:
64,192,74008,1,0,0:0:0:0:
192,192,74008,1,0,0:0:0:0:
448,192,74120,1,0,0:0:0:0:
320,192,74120,1,0,0:0:0:0:
64,192,74120,1,0,0:0:0:0:
192,192,74232,1,0,0:0:0:0:
320,192,74232,1,0,0:0:0:0:
448,192,74232,1,0,0:0:0:0:
448,192,74344,1,0,0:0:0:0:
192,192,74344,1,0,0:0:0:0:
64,192,74344,1,0,0:0:0:0:
64,192,74456,1,0,0:0:0:0:
320,192,74456,1,0,0:0:0:0:
448,192,74568,1,0,0:0:0:0:
320,192,74568,1,0,0:0:0:0:
64,192,74680,1,0,0:0:0:0:
192,192,74680,1,0,0:0:0:0:
192,192,74791,1,0,0:0:0:0:
448,192,74791,1,0,0:0:0:0:
320,192,74791,1,0,0:0:0:0:
320,192,74903,1,0,0:0:0:0:
64,192,74903,1,0,0:0:0:0:
448,192,75015,1,0,0:0:0:0:
192,192,75015,1,0,0:0:0:0:
64,192,75015,1,0,0:0:0:0:
448,192,75127,1,0,0:0:0:0:
320,192,75127,1,0,0:0:0:0:
192,192,75239,1,0,0:0:0:0:
320,192,75239,1,0,0:0:0:0:
192,192,75351,1,0,0:0:0:0:
64,192,75351,1,0,0:0:0:0:
448,192,75463,1,0,0:0:0:0:
320,192,75463,1,0,0:0:0:0:
64,192,75463,1,0,0:0:0:0:
320,192,75575,1,0,0:0:0:0:
64,192,75575,1,0,0:0:0:0:
192,192,75575,1,0,0:0:0:0:
320,192,75687,1,0,0:0:0:0:
448,192,75687,1,0,0:0:0:0:
192,192,75687,1,0,0:0:0:0:
192,192,75799,1,0,0:0:0:0:
64,192,75799,1,0,0:0:0:0:
448,192,75799,1,0,0:0:0:0:
64,192,75911,1,0,0:0:0:0:
320,192,75911,1,0,0:0:0:0:
448,192,76023,1,0,0:0:0:0:
320,192,76023,1,0,0:0:0:0:
192,192,76135,1,0,0:0:0:0:
320,192,76135,1,0,0:0:0:0:
448,192,76135,1,0,0:0:0:0:
64,192,76135,1,0,0:0:0:0:
192,192,76247,1,0,0:0:0:0:
64,192,76247,1,0,0:0:0:0:
320,192,76247,1,0,0:0:0:0:
448,192,76247,1,0,0:0:0:0:
64,192,76359,1,0,0:0:0:0:
192,192,76359,1,0,0:0:0:0:
64,192,76471,1,0,0:0:0:0:
192,192,76471,1,0,0:0:0:0:
320,192,76583,128,0,76750:0:0:0:0:
448,192,76583,128,0,76750:0:0:0:0:
64,192,76583,128,0,76750:0:0:0:0:
192,192,76583,128,0,76750:0:0:0:0:
64,192,76806,1,0,0:0:0:0:
192,192,76806,1,0,0:0:0:0:
320,192,76806,1,0,0:0:0:0:
448,192,76806,1,0,0:0:0:0:
448,192,76918,1,0,0:0:0:0:
320,192,76918,1,0,0:0:0:0:
192,192,77030,1,0,0:0:0:0:
64,192,77030,1,0,0:0:0:0:
320,192,77142,1,0,0:0:0:0:
64,192,77142,1,0,0:0:0:0:
192,192,77254,1,0,0:0:0:0:
320,192,77254,1,0,0:0:0:0:
448,192,77366,1,0,0:0:0:0:
192,192,77366,1,0,0:0:0:0:
320,192,77478,1,0,0:0:0:0:
448,192,77478,1,0,0:0:0:0:
320,192,77590,1,0,0:0:0:0:
64,192,77590,1,0,0:0:0:0:
192,192,77702,1,0,0:0:0:0:
64,192,77702,1,0,0:0:0:0:
192,192,77814,1,0,0:0:0:0:
320,192,77814,1,0,0:0:0:0:
320,192,77926,1,0,0:0:0:0:
64,192,77926,1,0,0:0:0:0:
192,192,78038,1,0,0:0:0:0:
448,192,78038,1,0,0:0:0:0:
448,192,78150,1,0,0:0:0:0:
320,192,78150,1,0,0:0:0:0:
320,192,78262,1,0,0:0:0:0:
64,192,78262,1,0,0:0:0:0:
192,192,78374,1,0,0:0:0:0:
448,192,78374,1,0,0:0:0:0:
320,192,78485,1,0,0:0:0:0:
448,192,78485,1,0,0:0:0:0:
192,192,78597,1,0,0:0:0:0:
64,192,78597,1,0,0:0:0:0:
320,192,78653,1,0,0:0:0:0:
64,192,78709,1,0,0:0:0:0:
448,192,78821,1,0,0:0:0:0:
192,192,78821,1,0,0:0:0:0:
320,192,78933,1,0,0:0:0:0:
64,192,78933,1,0,0:0:0:0:
320,192,79045,1,0,0:0:0:0:
448,192,79045,1,0,0:0:0:0:
192,192,79101,1,0,0:0:0:0:
448,192,79157,1,0,0:0:0:0:
320,192,79269,1,0,0:0:0:0:
64,192,79269,1,0,0:0:0:0:
192,192,79381,1,0,0:0:0:0:
64,192,79381,1,0,0:0:0:0:
320,192,79493,1,0,0:0:0:0:
448,192,79493,1,0,0:0:0:0:
192,192,79549,1,0,0:0:0:0:
320,192,79605,1,0,0:0:0:0:
448,192,79717,1,0,0:0:0:0:
64,192,79717,1,0,0:0:0:0:
192,192,79829,1,0,0:0:0:0:
64,192,79829,1,0,0:0:0:0:
320,192,79941,1,0,0:0:0:0:
448,192,79941,1,0,0:0:0:0:
320,192,80053,1,0,0:0:0:0:
448,192,80053,1,0,0:0:0:0:
192,192,80165,1,0,0:0:0:0:
64,192,80165,1,0,0:0:0:0:
192,192,80277,1,0,0:0:0:0:
64,192,80277,1,0,0:0:0:0:
320,192,80388,1,0,0:0:0:0:
448,192,80388,1,0,0:0:0:0:
64,192,80500,1,0,0:0:0:0:
448,192,80500,1,0,0:0:0:0:
320,192,80612,1,0,0:0:0:0:
192,192,80612,1,0,0:0:0:0:
192,192,80724,1,0,0:0:0:0:
64,192,80724,1,0,0:0:0:0:
448,192,80836,1,0,0:0:0:0:
64,192,80836,1,0,0:0:0:0:
320,192,80948,1,0,0:0:0:0:
448,192,80948,1,0,0:0:0:0:
320,192,81060,1,0,0:0:0:0:
192,192,81060,1,0,0:0:0:0:
448,192,81172,1,0,0:0:0:0:
64,192,81172,1,0,0:0:0:0:
192,192,81284,1,0,0:0:0:0:
64,192,81284,1,0,0:0:0:0:
192,192,81396,1,0,0:0:0:0:
320,192,81396,1,0,0:0:0:0:
448,192,81508,1,0,0:0:0:0:
64,192,81508,1,0,0:0:0:0:
192,192,81620,1,0,0:0:0:0:
64,192,81620,1,0,0:0:0:0:
192,192,81732,1,0,0:0:0:0:
448,192,81732,1,0,0:0:0:0:
320,192,81844,1,0,0:0:0:0:
448,192,81844,1,0,0:0:0:0:
320,192,81956,1,0,0:0:0:0:
64,192,81956,1,0,0:0:0:0:
192,192,82068,1,0,0:0:0:0:
448,192,82068,1,0,0:0:0:0:
320,192,82180,1,0,0:0:0:0:
448,192,82180,1,0,0:0:0:0:
64,192,82235,1,0,0:0:0:0:
320,192,82291,1,0,0:0:0:0:
192,192,82403,1,0,0:0:0:0:
448,192,82403,1,0,0:0:0:0:
320,192,82515,1,0,0:0:0:0:
64,192,82515,1,0,0:0:0:0:
192,192,82627,1,0,0:0:0:0:
64,192,82627,1,0,0:0:0:0:
448,192,82683,1,0,0:0:0:0:
192,192,82739,1,0,0:0:0:0:
448,192,82851,5,0,0:0:0:0:
64,192,82851,1,0,0:0:0:0:
320,192,82963,1,0,0:0:0:0:
448,192,82963,1,0,0:0:0:0:
192,192,83075,1,0,0:0:0:0:
64,192,83075,1,0,0:0:0:0:
448,192,83131,1,0,0:0:0:0:
64,192,83187,1,0,0:0:0:0:
448,192,83299,1,0,0:0:0:0:
192,192,83299,1,0,0:0:0:0:
192,192,83411,1,0,0:0:0:0:
64,192,83411,1,0,0:0:0:0:
320,192,83523,1,0,0:0:0:0:
448,192,83523,1,0,0:0:0:0:
320,192,83635,1,0,0:0:0:0:
448,192,83635,1,0,0:0:0:0:
64,192,83747,128,0,83915:0:0:0:0:
192,192,83747,128,0,83915:0:0:0:0:
320,192,83747,128,0,83915:0:0:0:0:
448,192,83747,128,0,83915:0:0:0:0:
320,192,83971,1,0,0:0:0:0:
448,192,83971,1,0,0:0:0:0:
192,192,83971,1,0,0:0:0:0:
64,192,83971,1,0,0:0:0:0:
448,192,84083,1,0,0:0:0:0:
192,192,84083,1,0,0:0:0:0:
64,192,84194,1,0,0:0:0:0:
320,192,84194,1,0,0:0:0:0:
64,192,84306,1,0,0:0:0:0:
320,192,84306,1,0,0:0:0:0:
448,192,84418,1,0,0:0:0:0:
192,192,84418,1,0,0:0:0:0:
448,192,84530,1,0,0:0:0:0:
192,192,84530,1,0,0:0:0:0:
320,192,84642,1,0,0:0:0:0:
64,192,84642,1,0,0:0:0:0:
320,192,84754,1,0,0:0:0:0:
64,192,84754,1,0,0:0:0:0:
448,192,84866,1,0,0:0:0:0:
192,192,84866,1,0,0:0:0:0:
192,192,84978,1,0,0:0:0:0:
448,192,84978,1,0,0:0:0:0:
320,192,85090,1,0,0:0:0:0:
448,192,85090,1,0,0:0:0:0:
448,192,85202,1,0,0:0:0:0:
320,192,85202,1,0,0:0:0:0:
64,192,85314,1,0,0:0:0:0:
192,192,85314,1,0,0:0:0:0:
64,192,85426,1,0,0:0:0:0:
192,192,85426,1,0,0:0:0:0:
320,192,85538,1,0,0:0:0:0:
448,192,85538,1,0,0:0:0:0:
320,192,85650,1,0,0:0:0:0:
448,192,85650,1,0,0:0:0:0:
64,192,85762,1,0,0:0:0:0:
448,192,85762,1,0,0:0:0:0:
64,192,85874,1,0,0:0:0:0:
448,192,85874,1,0,0:0:0:0:
320,192,85985,1,0,0:0:0:0:
192,192,85985,1,0,0:0:0:0:
320,192,86097,1,0,0:0:0:0:
192,192,86097,1,0,0:0:0:0:
64,192,86209,1,0,0:0:0:0:
448,192,86209,1,0,0:0:0:0:
64,192,86321,1,0,0:0:0:0:
448,192,86321,1,0,0:0:0:0:
192,192,86433,1,0,0:0:0:0:
64,192,86433,1,0,0:0:0:0:
192,192,86545,1,0,0:0:0:0:
64,192,86545,1,0,0:0:0:0:
320,192,86657,1,0,0:0:0:0:
448,192,86657,1,0,0:0:0:0:
448,192,86769,1,0,0:0:0:0:
320,192,86769,1,0,0:0:0:0:
448,192,86881,1,0,0:0:0:0:
320,192,86881,1,0,0:0:0:0:
448,192,86993,1,0,0:0:0:0:
320,192,86993,1,0,0:0:0:0:
192,192,87105,1,0,0:0:0:0:
64,192,87105,1,0,0:0:0:0:
192,192,87217,1,0,0:0:0:0:
64,192,87217,1,0,0:0:0:0:
64,192,87329,1,0,0:0:0:0:
320,192,87329,1,0,0:0:0:0:
320,192,87441,1,0,0:0:0:0:
448,192,87441,1,0,0:0:0:0:
320,192,87553,1,0,0:0:0:0:
192,192,87553,1,0,0:0:0:0:
448,192,87553,1,0,0:0:0:0:
64,192,87553,1,0,0:0:0:0:
64,192,87665,1,0,0:0:0:0:
448,192,87665,1,0,0:0:0:0:
320,192,87777,1,0,0:0:0:0:
192,192,87777,1,0,0:0:0:0:
320,192,87888,1,0,0:0:0:0:
192,192,87888,1,0,0:0:0:0:
64,192,88000,1,0,0:0:0:0:
320,192,88000,1,0,0:0:0:0:
64,192,88112,1,0,0:0:0:0:
320,192,88112,1,0,0:0:0:0:
192,192,88224,1,0,0:0:0:0:
448,192,88224,1,0,0:0:0:0:
192,192,88336,1,0,0:0:0:0:
448,192,88336,1,0,0:0:0:0:
448,192,88448,1,0,0:0:0:0:
64,192,88448,1,0,0:0:0:0:
64,192,88560,1,0,0:0:0:0:
448,192,88560,1,0,0:0:0:0:
320,192,88672,1,0,0:0:0:0:
192,192,88672,1,0,0:0:0:0:
320,192,88784,1,0,0:0:0:0:
192,192,88784,1,0,0:0:0:0:
320,192,88896,1,0,0:0:0:0:
64,192,88896,1,0,0:0:0:0:
320,192,89008,1,0,0:0:0:0:
64,192,89008,1,0,0:0:0:0:
192,192,89120,1,0,0:0:0:0:
448,192,89120,1,0,0:0:0:0:
448,192,89232,1,0,0:0:0:0:
192,192,89232,1,0,0:0:0:0:
64,192,89344,1,0,0:0:0:0:
320,192,89344,1,0,0:0:0:0:
64,192,89456,1,0,0:0:0:0:
320,192,89456,1,0,0:0:0:0:
320,192,89568,1,0,0:0:0:0:
448,192,89568,1,0,0:0:0:0:
320,192,89680,1,0,0:0:0:0:
448,192,89680,1,0,0:0:0:0:
64,192,89791,1,0,0:0:0:0:
448,192,89791,1,0,0:0:0:0:
64,192,89903,1,0,0:0:0:0:
448,192,89903,1,0,0:0:0:0:
192,192,90015,1,0,0:0:0:0:
64,192,90015,1,0,0:0:0:0:
320,192,90127,1,0,0:0:0:0:
192,192,90127,1,0,0:0:0:0:
448,192,90239,1,0,0:0:0:0:
64,192,90239,1,0,0:0:0:0:
448,192,90351,1,0,0:0:0:0:
64,192,90351,1,0,0:0:0:0:
192,192,90463,1,0,0:0:0:0:
320,192,90463,1,0,0:0:0:0:
192,192,90575,1,0,0:0:0:0:
320,192,90575,1,0,0:0:0:0:
192,192,90687,1,0,0:0:0:0:
64,192,90687,1,0,0:0:0:0:
192,192,90799,1,0,0:0:0:0:
64,192,90799,1,0,0:0:0:0:
448,192,90911,1,0,0:0:0:0:
64,192,90911,1,0,0:0:0:0:
320,192,91023,1,0,0:0:0:0:
448,192,91023,1,0,0:0:0:0:
448,192,91135,1,0,0:0:0:0:
320,192,91135,1,0,0:0:0:0:
192,192,91135,1,0,0:0:0:0:
64,192,91135,1,0,0:0:0:0:
192,192,91247,1,0,0:0:0:0:
64,192,91359,1,0,0:0:0:0:
448,192,91359,1,0,0:0:0:0:
320,192,91359,1,0,0:0:0:0:
320,192,91471,1,0,0:0:0:0:
448,192,91583,1,0,0:0:0:0:
192,192,91583,1,0,0:0:0:0:
64,192,91583,1,0,0:0:0:0:
448,192,91694,1,0,0:0:0:0:
320,192,91694,1,0,0:0:0:0:
64,192,91806,1,0,0:0:0:0:
192,192,91806,1,0,0:0:0:0:
448,192,91806,1,0,0:0:0:0:
320,192,91918,1,0,0:0:0:0:
64,192,91918,1,0,0:0:0:0:
448,192,92030,1,0,0:0:0:0:
320,192,92030,1,0,0:0:0:0:
192,192,92030,1,0,0:0:0:0:
192,192,92142,1,0,0:0:0:0:
64,192,92142,1,0,0:0:0:0:
448,192,92254,1,0,0:0:0:0:
320,192,92254,1,0,0:0:0:0:
64,192,92254,1,0,0:0:0:0:
448,192,92366,1,0,0:0:0:0:
192,192,92366,1,0,0:0:0:0:
320,192,92478,1,0,0:0:0:0:
192,192,92478,1,0,0:0:0:0:
64,192,92590,1,0,0:0:0:0:
320,192,92590,1,0,0:0:0:0:
64,192,92702,1,0,0:0:0:0:
192,192,92702,1,0,0:0:0:0:
448,192,92702,1,0,0:0:0:0:
320,192,92814,1,0,0:0:0:0:
448,192,92814,1,0,0:0:0:0:
192,192,92926,1,0,0:0:0:0:
192,192,93038,1,0,0:0:0:0:
448,192,93150,1,0,0:0:0:0:
320,192,93150,1,0,0:0:0:0:
64,192,93150,1,0,0:0:0:0:
448,192,93262,1,0,0:0:0:0:
320,192,93262,1,0,0:0:0:0:
64,192,93374,1,0,0:0:0:0:
192,192,93374,1,0,0:0:0:0:
64,192,93485,1,0,0:0:0:0:
192,192,93485,1,0,0:0:0:0:
320,192,93597,1,0,0:0:0:0:
448,192,93597,1,0,0:0:0:0:
320,192,93709,1,0,0:0:0:0:
64,192,93709,1,0,0:0:0:0:
64,192,93821,1,0,0:0:0:0:
192,192,93821,1,0,0:0:0:0:
448,192,93821,1,0,0:0:0:0:
320,192,93933,1,0,0:0:0:0:
448,192,93933,1,0,0:0:0:0:
192,192,93933,1,0,0:0:0:0:
192,192,94045,1,0,0:0:0:0:
64,192,94045,1,0,0:0:0:0:
320,192,94045,1,0,0:0:0:0:
448,192,94157,1,0,0:0:0:0:
320,192,94157,1,0,0:0:0:0:
192,192,94269,1,0,0:0:0:0:
64,192,94269,1,0,0:0:0:0:
320,192,94325,1,0,0:0:0:0:
448,192,94325,1,0,0:0:0:0:
192,192,94381,1,0,0:0:0:0:
64,192,94381,1,0,0:0:0:0:
320,192,94437,1,0,0:0:0:0:
448,192,94437,1,0,0:0:0:0:
192,192,94493,1,0,0:0:0:0:
64,192,94493,1,0,0:0:0:0:
320,192,94605,1,0,0:0:0:0:
448,192,94605,1,0,0:0:0:0:
64,192,94717,1,0,0:0:0:0:
192,192,94717,1,0,0:0:0:0:
320,192,94717,1,0,0:0:0:0:
448,192,94717,1,0,0:0:0:0:
64,192,94829,1,0,0:0:0:0:
192,192,94941,1,0,0:0:0:0:
320,192,94941,1,0,0:0:0:0:
448,192,94941,1,0,0:0:0:0:
320,192,95053,1,0,0:0:0:0:
448,192,95165,1,0,0:0:0:0:
192,192,95165,1,0,0:0:0:0:
64,192,95165,1,0,0:0:0:0:
64,192,95277,1,0,0:0:0:0:
320,192,95277,1,0,0:0:0:0:
192,192,95388,1,0,0:0:0:0:
448,192,95388,1,0,0:0:0:0:
320,192,95388,1,0,0:0:0:0:
64,192,95500,1,0,0:0:0:0:
448,192,95500,1,0,0:0:0:0:
64,192,95612,1,0,0:0:0:0:
192,192,95612,1,0,0:0:0:0:
320,192,95612,1,0,0:0:0:0:
320,192,95724,1,0,0:0:0:0:
448,192,95724,1,0,0:0:0:0:
192,192,95836,1,0,0:0:0:0:
448,192,95836,1,0,0:0:0:0:
64,192,95836,1,0,0:0:0:0:
64,192,95948,1,0,0:0:0:0:
320,192,95948,1,0,0:0:0:0:
192,192,96060,1,0,0:0:0:0:
320,192,96060,1,0,0:0:0:0:
448,192,96172,1,0,0:0:0:0:
192,192,96172,1,0,0:0:0:0:
64,192,96284,1,0,0:0:0:0:
320,192,96284,1,0,0:0:0:0:
448,192,96284,1,0,0:0:0:0:
192,192,96396,1,0,0:0:0:0:
64,192,96396,1,0,0:0:0:0:
192,192,96508,1,0,0:0:0:0:
320,192,96508,1,0,0:0:0:0:
448,192,96508,1,0,0:0:0:0:
320,192,96620,1,0,0:0:0:0:
192,192,96620,1,0,0:0:0:0:
64,192,96620,1,0,0:0:0:0:
64,192,96732,1,0,0:0:0:0:
192,192,96732,1,0,0:0:0:0:
448,192,96732,1,0,0:0:0:0:
320,192,96844,1,0,0:0:0:0:
448,192,96844,1,0,0:0:0:0:
192,192,96900,1,0,0:0:0:0:
64,192,96900,1,0,0:0:0:0:
320,192,96956,1,0,0:0:0:0:
448,192,96956,1,0,0:0:0:0:
64,192,97068,1,0,0:0:0:0:
192,192,97068,1,0,0:0:0:0:
320,192,97068,1,0,0:0:0:0:
192,192,97180,1,0,0:0:0:0:
64,192,97180,1,0,0:0:0:0:
320,192,97291,1,0,0:0:0:0:
448,192,97291,1,0,0:0:0:0:
192,192,97347,1,0,0:0:0:0:
64,192,97347,1,0,0:0:0:0:
320,192,97403,1,0,0:0:0:0:
448,192,97403,1,0,0:0:0:0:
448,192,97515,1,0,0:0:0:0:
192,192,97515,1,0,0:0:0:0:
64,192,97515,1,0,0:0:0:0:
320,192,97627,1,0,0:0:0:0:
192,192,97627,1,0,0:0:0:0:
64,192,97739,1,0,0:0:0:0:
448,192,97739,1,0,0:0:0:0:
320,192,97739,1,0,0:0:0:0:
64,192,97851,1,0,0:0:0:0:
192,192,97851,1,0,0:0:0:0:
448,192,97851,1,0,0:0:0:0:
192,192,97963,1,0,0:0:0:0:
64,192,97963,1,0,0:0:0:0:
320,192,98019,1,0,0:0:0:0:
448,192,98019,1,0,0:0:0:0:
192,192,98075,1,0,0:0:0:0:
64,192,98075,1,0,0:0:0:0:
448,192,98187,1,0,0:0:0:0:
320,192,98187,1,0,0:0:0:0:
64,192,98299,1,0,0:0:0:0:
192,192,98299,1,0,0:0:0:0:
320,192,98299,1,0,0:0:0:0:
448,192,98299,128,0,98747:0:0:0:0:
192,192,98411,1,0,0:0:0:0:
64,192,98523,1,0,0:0:0:0:
64,192,98635,1,0,0:0:0:0:
192,192,98747,1,0,0:0:0:0:
448,192,98831,1,0,0:0:0:0:
64,192,98859,1,0,0:0:0:0:
320,192,98971,1,0,0:0:0:0:
192,192,99083,1,0,0:0:0:0:
64,192,99138,1,0,0:0:0:0:
448,192,99194,1,0,0:0:0:0:
64,192,99250,1,0,0:0:0:0:
320,192,99306,1,0,0:0:0:0:
192,192,99418,1,0,0:0:0:0:
448,192,99474,1,0,0:0:0:0:
192,192,99530,1,0,0:0:0:0:
64,192,99558,1,0,0:0:0:0:
448,192,99642,1,0,0:0:0:0:
320,192,99642,1,0,0:0:0:0:
64,192,99754,1,0,0:0:0:0:
448,192,99810,128,0,100090:0:0:0:0:
192,192,99866,1,0,0:0:0:0:
192,192,99978,1,0,0:0:0:0:
320,192,100090,1,0,0:0:0:0:
64,192,100202,1,0,0:0:0:0:
192,192,100202,1,0,0:0:0:0:
64,192,100314,1,0,0:0:0:0:
320,192,100314,1,0,0:0:0:0:
320,192,100426,1,0,0:0:0:0:
192,192,100538,1,0,0:0:0:0:
448,192,100566,128,0,100650:0:0:0:0:
320,192,100650,1,0,0:0:0:0:
192,192,100762,5,0,0:0:0:0:
448,192,100818,1,0,0:0:0:0:
192,192,100874,1,0,0:0:0:0:
64,192,100902,128,0,100985:0:0:0:0:
320,192,100985,1,0,0:0:0:0:
448,192,100985,128,0,101097:0:0:0:0:
192,192,101209,1,0,0:0:0:0:
448,192,101237,1,0,0:0:0:0:
448,192,101433,1,0,0:0:0:0:
320,192,101433,1,0,0:0:0:0:
64,192,101657,128,0,101825:0:0:0:0:
448,192,101657,128,0,101825:0:0:0:0:
448,192,101881,5,0,0:0:0:0:
320,192,101881,1,0,0:0:0:0:
192,192,101881,1,0,0:0:0:0:
64,192,101881,1,0,0:0:0:0:
192,192,101993,1,0,0:0:0:0:
448,192,101993,1,0,0:0:0:0:
64,192,102105,1,0,0:0:0:0:
320,192,102105,1,0,0:0:0:0:
192,192,102217,1,0,0:0:0:0:
64,192,102217,1,0,0:0:0:0:
448,192,102329,1,0,0:0:0:0:
320,192,102329,1,0,0:0:0:0:
448,192,102441,1,0,0:0:0:0:
64,192,102441,1,0,0:0:0:0:
192,192,102553,1,0,0:0:0:0:
320,192,102553,1,0,0:0:0:0:
448,192,102665,1,0,0:0:0:0:
192,192,102665,1,0,0:0:0:0:
320,192,102777,1,0,0:0:0:0:
448,192,102777,1,0,0:0:0:0:
64,192,102777,1,0,0:0:0:0:
192,192,102888,1,0,0:0:0:0:
64,192,102888,1,0,0:0:0:0:
320,192,102888,1,0,0:0:0:0:
448,192,103000,1,0,0:0:0:0:
192,192,103000,1,0,0:0:0:0:
320,192,103000,1,0,0:0:0:0:
448,192,103112,1,0,0:0:0:0:
192,192,103112,1,0,0:0:0:0:
64,192,103112,1,0,0:0:0:0:
320,192,103224,1,0,0:0:0:0:
64,192,103224,1,0,0:0:0:0:
192,192,103224,1,0,0:0:0:0:
448,192,103336,1,0,0:0:0:0:
320,192,103336,1,0,0:0:0:0:
64,192,103336,1,0,0:0:0:0:
192,192,103448,1,0,0:0:0:0:
320,192,103448,1,0,0:0:0:0:
448,192,103448,1,0,0:0:0:0:
64,192,103560,1,0,0:0:0:0:
192,192,103560,1,0,0:0:0:0:
448,192,103560,1,0,0:0:0:0:
320,192,103672,1,0,0:0:0:0:
64,192,103672,1,0,0:0:0:0:
192,192,103784,1,0,0:0:0:0:
448,192,103784,1,0,0:0:0:0:
64,192,103896,1,0,0:0:0:0:
192,192,103896,1,0,0:0:0:0:
64,192,104008,1,0,0:0:0:0:
320,192,104008,1,0,0:0:0:0:
320,192,104120,1,0,0:0:0:0:
448,192,104120,1,0,0:0:0:0:
192,192,104232,1,0,0:0:0:0:
448,192,104232,1,0,0:0:0:0:
192,192,104344,1,0,0:0:0:0:
64,192,104344,1,0,0:0:0:0:
64,192,104456,1,0,0:0:0:0:
320,192,104456,1,0,0:0:0:0:
192,192,104568,1,0,0:0:0:0:
320,192,104568,1,0,0:0:0:0:
448,192,104568,1,0,0:0:0:0:
64,192,104680,1,0,0:0:0:0:
192,192,104680,1,0,0:0:0:0:
448,192,104680,1,0,0:0:0:0:
320,192,104791,1,0,0:0:0:0:
448,192,104791,1,0,0:0:0:0:
64,192,104791,1,0,0:0:0:0:
192,192,104903,1,0,0:0:0:0:
320,192,104903,1,0,0:0:0:0:
64,192,104903,1,0,0:0:0:0:
192,192,105015,1,0,0:0:0:0:
320,192,105015,1,0,0:0:0:0:
448,192,105015,1,0,0:0:0:0:
64,192,105127,1,0,0:0:0:0:
448,192,105127,1,0,0:0:0:0:
192,192,105127,1,0,0:0:0:0:
320,192,105239,1,0,0:0:0:0:
448,192,105239,1,0,0:0:0:0:
64,192,105239,1,0,0:0:0:0:
192,192,105351,1,0,0:0:0:0:
64,192,105351,1,0,0:0:0:0:
320,192,105351,1,0,0:0:0:0:
320,192,105463,1,0,0:0:0:0:
448,192,105463,1,0,0:0:0:0:
192,192,105575,1,0,0:0:0:0:
448,192,105575,1,0,0:0:0:0:
192,192,105687,1,0,0:0:0:0:
64,192,105687,1,0,0:0:0:0:
320,192,105799,1,0,0:0:0:0:
64,192,105799,1,0,0:0:0:0:
192,192,105911,1,0,0:0:0:0:
320,192,105911,1,0,0:0:0:0:
192,192,106023,1,0,0:0:0:0:
448,192,106023,1,0,0:0:0:0:
320,192,106135,1,0,0:0:0:0:
64,192,106135,1,0,0:0:0:0:
448,192,106247,1,0,0:0:0:0:
320,192,106247,1,0,0:0:0:0:
448,192,106359,1,0,0:0:0:0:
192,192,106359,1,0,0:0:0:0:
64,192,106359,1,0,0:0:0:0:
320,192,106471,1,0,0:0:0:0:
192,192,106471,1,0,0:0:0:0:
64,192,106471,1,0,0:0:0:0:
448,192,106583,1,0,0:0:0:0:
192,192,106583,1,0,0:0:0:0:
320,192,106583,1,0,0:0:0:0:
448,192,106694,1,0,0:0:0:0:
64,192,106694,1,0,0:0:0:0:
320,192,106694,1,0,0:0:0:0:
64,192,106806,1,0,0:0:0:0:
192,192,106806,1,0,0:0:0:0:
448,192,106806,1,0,0:0:0:0:
320,192,106918,1,0,0:0:0:0:
192,192,106918,1,0,0:0:0:0:
64,192,106918,1,0,0:0:0:0:
448,192,107030,1,0,0:0:0:0:
192,192,107030,1,0,0:0:0:0:
320,192,107030,1,0,0:0:0:0:
448,192,107142,1,0,0:0:0:0:
64,192,107142,1,0,0:0:0:0:
320,192,107142,1,0,0:0:0:0:
64,192,107254,1,0,0:0:0:0:
192,192,107254,1,0,0:0:0:0:
192,192,107366,1,0,0:0:0:0:
448,192,107366,1,0,0:0:0:0:
64,192,107478,1,0,0:0:0:0:
320,192,107478,1,0,0:0:0:0:
448,192,107590,1,0,0:0:0:0:
320,192,107590,1,0,0:0:0:0:
192,192,107702,1,0,0:0:0:0:
64,192,107702,1,0,0:0:0:0:
320,192,107814,1,0,0:0:0:0:
64,192,107814,1,0,0:0:0:0:
192,192,107926,1,0,0:0:0:0:
320,192,107926,1,0,0:0:0:0:
192,192,108038,1,0,0:0:0:0:
448,192,108038,1,0,0:0:0:0:
320,192,108150,1,0,0:0:0:0:
448,192,108150,1,0,0:0:0:0:
64,192,108150,1,0,0:0:0:0:
192,192,108262,1,0,0:0:0:0:
64,192,108262,1,0,0:0:0:0:
320,192,108262,1,0,0:0:0:0:
64,192,108374,1,0,0:0:0:0:
192,192,108374,1,0,0:0:0:0:
448,192,108374,1,0,0:0:0:0:
192,192,108485,1,0,0:0:0:0:
320,192,108485,1,0,0:0:0:0:
448,192,108485,1,0,0:0:0:0:
320,192,108597,1,0,0:0:0:0:
192,192,108597,1,0,0:0:0:0:
64,192,108597,1,0,0:0:0:0:
64,192,108709,1,0,0:0:0:0:
320,192,108709,1,0,0:0:0:0:
448,192,108709,1,0,0:0:0:0:
64,192,108821,1,0,0:0:0:0:
192,192,108821,1,0,0:0:0:0:
448,192,108821,1,0,0:0:0:0:
192,192,108933,1,0,0:0:0:0:
320,192,108933,1,0,0:0:0:0:
448,192,108933,1,0,0:0:0:0:
320,192,109045,1,0,0:0:0:0:
192,192,109045,1,0,0:0:0:0:
64,192,109045,1,0,0:0:0:0:
448,192,109045,1,0,0:0:0:0:
64,192,109157,1,0,0:0:0:0:
192,192,109157,1,0,0:0:0:0:
320,192,109269,1,0,0:0:0:0:
448,192,109269,1,0,0:0:0:0:
64,192,109381,1,0,0:0:0:0:
320,192,109381,1,0,0:0:0:0:
192,192,109493,1,0,0:0:0:0:
448,192,109493,1,0,0:0:0:0:
192,192,109605,1,0,0:0:0:0:
64,192,109605,1,0,0:0:0:0:
320,192,109717,1,0,0:0:0:0:
448,192,109717,1,0,0:0:0:0:
64,192,109829,1,0,0:0:0:0:
448,192,109829,1,0,0:0:0:0:
192,192,109941,1,0,0:0:0:0:
320,192,109941,1,0,0:0:0:0:
64,192,109941,1,0,0:0:0:0:
192,192,110053,1,0,0:0:0:0:
320,192,110053,1,0,0:0:0:0:
448,192,110053,1,0,0:0:0:0:
64,192,110165,1,0,0:0:0:0:
320,192,110165,1,0,0:0:0:0:
448,192,110165,1,0,0:0:0:0:
192,192,110277,1,0,0:0:0:0:
64,192,110277,1,0,0:0:0:0:
448,192,110277,1,0,0:0:0:0:
320,192,110388,1,0,0:0:0:0:
192,192,110388,1,0,0:0:0:0:
64,192,110388,1,0,0:0:0:0:
192,192,110500,1,0,0:0:0:0:
320,192,110500,1,0,0:0:0:0:
448,192,110500,1,0,0:0:0:0:
64,192,110612,1,0,0:0:0:0:
320,192,110612,1,0,0:0:0:0:
448,192,110612,1,0,0:0:0:0:
192,192,110724,1,0,0:0:0:0:
64,192,110724,1,0,0:0:0:0:
448,192,110724,1,0,0:0:0:0:
320,192,110836,1,0,0:0:0:0:
192,192,110836,1,0,0:0:0:0:
64,192,110948,1,0,0:0:0:0:
448,192,110948,1,0,0:0:0:0:
320,192,111060,1,0,0:0:0:0:
448,192,111060,1,0,0:0:0:0:
192,192,111172,1,0,0:0:0:0:
64,192,111172,1,0,0:0:0:0:
192,192,111284,1,0,0:0:0:0:
448,192,111284,1,0,0:0:0:0:
320,192,111396,1,0,0:0:0:0:
64,192,111396,1,0,0:0:0:0:
320,192,111508,1,0,0:0:0:0:
448,192,111508,1,0,0:0:0:0:
192,192,111620,1,0,0:0:0:0:
64,192,111620,1,0,0:0:0:0:
320,192,111732,1,0,0:0:0:0:
448,192,111732,1,0,0:0:0:0:
64,192,111732,1,0,0:0:0:0:
192,192,111844,1,0,0:0:0:0:
320,192,111844,1,0,0:0:0:0:
448,192,111844,1,0,0:0:0:0:
64,192,111956,1,0,0:0:0:0:
192,192,111956,1,0,0:0:0:0:
448,192,111956,1,0,0:0:0:0:
320,192,112068,1,0,0:0:0:0:
192,192,112068,1,0,0:0:0:0:
64,192,112068,1,0,0:0:0:0:
192,192,112180,1,0,0:0:0:0:
320,192,112180,1,0,0:0:0:0:
448,192,112180,1,0,0:0:0:0:
64,192,112291,1,0,0:0:0:0:
320,192,112291,1,0,0:0:0:0:
448,192,112291,1,0,0:0:0:0:
192,192,112403,1,0,0:0:0:0:
64,192,112403,1,0,0:0:0:0:
448,192,112403,1,0,0:0:0:0:
320,192,112515,1,0,0:0:0:0:
192,192,112515,1,0,0:0:0:0:
64,192,112515,1,0,0:0:0:0:
448,192,112627,1,0,0:0:0:0:
320,192,112627,1,0,0:0:0:0:
192,192,112627,1,0,0:0:0:0:
64,192,112627,1,0,0:0:0:0:
448,192,112739,1,0,0:0:0:0:
320,192,112739,1,0,0:0:0:0:
192,192,112851,1,0,0:0:0:0:
64,192,112851,1,0,0:0:0:0:
64,192,112963,1,0,0:0:0:0:
320,192,112963,1,0,0:0:0:0:
192,192,113075,1,0,0:0:0:0:
448,192,113075,1,0,0:0:0:0:
320,192,113187,1,0,0:0:0:0:
448,192,113187,1,0,0:0:0:0:
320,192,113299,1,0,0:0:0:0:
64,192,113299,1,0,0:0:0:0:
192,192,113411,1,0,0:0:0:0:
64,192,113411,1,0,0:0:0:0:
192,192,113523,1,0,0:0:0:0:
320,192,113523,1,0,0:0:0:0:
448,192,113523,1,0,0:0:0:0:
320,192,113635,1,0,0:0:0:0:
64,192,113635,1,0,0:0:0:0:
448,192,113635,1,0,0:0:0:0:
64,192,113747,1,0,0:0:0:0:
192,192,113747,1,0,0:0:0:0:
448,192,113747,1,0,0:0:0:0:
320,192,113859,1,0,0:0:0:0:
192,192,113859,1,0,0:0:0:0:
64,192,113859,1,0,0:0:0:0:
64,192,113971,1,0,0:0:0:0:
320,192,113971,1,0,0:0:0:0:
448,192,113971,1,0,0:0:0:0:
192,192,114083,1,0,0:0:0:0:
320,192,114083,1,0,0:0:0:0:
448,192,114083,1,0,0:0:0:0:
64,192,114194,1,0,0:0:0:0:
192,192,114194,1,0,0:0:0:0:
448,192,114194,1,0,0:0:0:0:
320,192,114306,1,0,0:0:0:0:
192,192,114306,1,0,0:0:0:0:
64,192,114306,1,0,0:0:0:0:
320,192,114418,1,0,0:0:0:0:
448,192,114418,1,0,0:0:0:0:
64,192,114530,1,0,0:0:0:0:
448,192,114530,1,0,0:0:0:0:
192,192,114642,1,0,0:0:0:0:
320,192,114642,1,0,0:0:0:0:
192,192,114754,1,0,0:0:0:0:
64,192,114754,1,0,0:0:0:0:
320,192,114866,1,0,0:0:0:0:
448,192,114866,1,0,0:0:0:0:
320,192,114978,1,0,0:0:0:0:
64,192,114978,1,0,0:0:0:0:
448,192,115090,1,0,0:0:0:0:
192,192,115090,1,0,0:0:0:0:
192,192,115202,1,0,0:0:0:0:
64,192,115202,1,0,0:0:0:0:
448,192,115314,1,0,0:0:0:0:
320,192,115314,1,0,0:0:0:0:
64,192,115314,1,0,0:0:0:0:
192,192,115426,1,0,0:0:0:0:
320,192,115426,1,0,0:0:0:0:
448,192,115426,1,0,0:0:0:0:
192,192,115538,1,0,0:0:0:0:
64,192,115538,1,0,0:0:0:0:
320,192,115538,1,0,0:0:0:0:
192,192,115650,1,0,0:0:0:0:
64,192,115650,1,0,0:0:0:0:
448,192,115650,1,0,0:0:0:0:
64,192,115762,1,0,0:0:0:0:
320,192,115762,1,0,0:0:0:0:
448,192,115762,1,0,0:0:0:0:
192,192,115874,1,0,0:0:0:0:
320,192,115874,1,0,0:0:0:0:
448,192,115874,1,0,0:0:0:0:
448,192,115985,128,0,116153:0:0:0:0:
320,192,115985,128,0,116153:0:0:0:0:
64,192,115985,128,0,116153:0:0:0:0:
192,192,115985,128,0,116153:0:0:0:0:
64,192,116209,5,0,0:0:0:0:
320,192,116209,1,0,0:0:0:0:
192,192,116209,1,0,0:0:0:0:
448,192,116209,1,0,0:0:0:0:
320,192,116321,1,0,0:0:0:0:
448,192,116321,1,0,0:0:0:0:
192,192,116433,1,0,0:0:0:0:
448,192,116433,1,0,0:0:0:0:
64,192,116433,1,0,0:0:0:0:
320,192,116545,1,0,0:0:0:0:
64,192,116545,1,0,0:0:0:0:
192,192,116657,1,0,0:0:0:0:
320,192,116657,1,0,0:0:0:0:
448,192,116657,1,0,0:0:0:0:
64,192,116769,1,0,0:0:0:0:
192,192,116769,1,0,0:0:0:0:
320,192,116881,1,0,0:0:0:0:
64,192,116881,1,0,0:0:0:0:
320,192,116993,1,0,0:0:0:0:
448,192,116993,1,0,0:0:0:0:
192,192,117105,1,0,0:0:0:0:
64,192,117105,1,0,0:0:0:0:
448,192,117105,1,0,0:0:0:0:
320,192,117217,1,0,0:0:0:0:
448,192,117217,1,0,0:0:0:0:
192,192,117217,1,0,0:0:0:0:
64,192,117329,1,0,0:0:0:0:
320,192,117329,1,0,0:0:0:0:
192,192,117329,1,0,0:0:0:0:
64,192,117441,1,0,0:0:0:0:
320,192,117441,1,0,0:0:0:0:
448,192,117441,1,0,0:0:0:0:
192,192,117553,1,0,0:0:0:0:
448,192,117553,1,0,0:0:0:0:
320,192,117553,1,0,0:0:0:0:
64,192,117665,1,0,0:0:0:0:
192,192,117665,1,0,0:0:0:0:
448,192,117665,1,0,0:0:0:0:
320,192,117777,1,0,0:0:0:0:
192,192,117777,1,0,0:0:0:0:
64,192,117777,1,0,0:0:0:0:
448,192,117888,1,0,0:0:0:0:
320,192,117888,1,0,0:0:0:0:
64,192,117888,1,0,0:0:0:0:
192,192,118000,1,0,0:0:0:0:
64,192,118000,1,0,0:0:0:0:
192,192,118112,1,0,0:0:0:0:
448,192,118112,1,0,0:0:0:0:
448,192,118224,1,0,0:0:0:0:
320,192,118224,1,0,0:0:0:0:
64,192,118224,1,0,0:0:0:0:
192,192,118336,1,0,0:0:0:0:
320,192,118336,1,0,0:0:0:0:
64,192,118448,1,0,0:0:0:0:
448,192,118448,1,0,0:0:0:0:
192,192,118448,1,0,0:0:0:0:
320,192,118560,1,0,0:0:0:0:
448,192,118560,1,0,0:0:0:0:
64,192,118672,1,0,0:0:0:0:
320,192,118672,1,0,0:0:0:0:
192,192,118784,1,0,0:0:0:0:
64,192,118784,1,0,0:0:0:0:
320,192,118896,1,0,0:0:0:0:
192,192,118896,1,0,0:0:0:0:
448,192,118896,1,0,0:0:0:0:
448,192,119008,1,0,0:0:0:0:
320,192,119008,1,0,0:0:0:0:
64,192,119008,1,0,0:0:0:0:
192,192,119120,1,0,0:0:0:0:
64,192,119120,1,0,0:0:0:0:
320,192,119120,1,0,0:0:0:0:
192,192,119232,1,0,0:0:0:0:
448,192,119232,1,0,0:0:0:0:
64,192,119232,1,0,0:0:0:0:
320,192,119344,1,0,0:0:0:0:
192,192,119344,1,0,0:0:0:0:
448,192,119344,1,0,0:0:0:0:
64,192,119456,1,0,0:0:0:0:
320,192,119456,1,0,0:0:0:0:
448,192,119456,1,0,0:0:0:0:
192,192,119568,1,0,0:0:0:0:
64,192,119568,1,0,0:0:0:0:
320,192,119568,1,0,0:0:0:0:
448,192,119680,1,0,0:0:0:0:
192,192,119680,1,0,0:0:0:0:
64,192,119680,1,0,0:0:0:0:
192,192,119791,1,0,0:0:0:0:
64,192,119791,1,0,0:0:0:0:
320,192,119791,1,0,0:0:0:0:
448,192,119791,1,0,0:0:0:0:
320,192,119903,1,0,0:0:0:0:
448,192,119903,1,0,0:0:0:0:
320,192,120015,1,0,0:0:0:0:
192,192,120015,1,0,0:0:0:0:
64,192,120015,1,0,0:0:0:0:
192,192,120127,1,0,0:0:0:0:
448,192,120127,1,0,0:0:0:0:
320,192,120239,1,0,0:0:0:0:
64,192,120239,1,0,0:0:0:0:
448,192,120239,1,0,0:0:0:0:
64,192,120351,1,0,0:0:0:0:
192,192,120351,1,0,0:0:0:0:
192,192,120463,1,0,0:0:0:0:
320,192,120463,1,0,0:0:0:0:
448,192,120575,1,0,0:0:0:0:
64,192,120575,1,0,0:0:0:0:
320,192,120687,1,0,0:0:0:0:
448,192,120687,1,0,0:0:0:0:
192,192,120687,1,0,0:0:0:0:
320,192,120799,1,0,0:0:0:0:
448,192,120799,1,0,0:0:0:0:
64,192,120799,1,0,0:0:0:0:
64,192,120911,1,0,0:0:0:0:
192,192,120911,1,0,0:0:0:0:
320,192,120911,1,0,0:0:0:0:
448,192,121023,1,0,0:0:0:0:
192,192,121023,1,0,0:0:0:0:
64,192,121023,1,0,0:0:0:0:
448,192,121135,1,0,0:0:0:0:
192,192,121135,1,0,0:0:0:0:
320,192,121135,1,0,0:0:0:0:
64,192,121247,1,0,0:0:0:0:
448,192,121247,1,0,0:0:0:0:
320,192,121247,1,0,0:0:0:0:
320,192,121359,1,0,0:0:0:0:
192,192,121359,1,0,0:0:0:0:
64,192,121359,1,0,0:0:0:0:
64,192,121471,1,0,0:0:0:0:
448,192,121471,1,0,0:0:0:0:
192,192,121471,1,0,0:0:0:0:
448,192,121583,1,0,0:0:0:0:
320,192,121583,1,0,0:0:0:0:
320,192,121694,1,0,0:0:0:0:
192,192,121694,1,0,0:0:0:0:
448,192,121806,1,0,0:0:0:0:
192,192,121806,1,0,0:0:0:0:
64,192,121806,1,0,0:0:0:0:
320,192,121918,1,0,0:0:0:0:
64,192,121918,1,0,0:0:0:0:
320,192,122030,1,0,0:0:0:0:
448,192,122030,1,0,0:0:0:0:
192,192,122030,1,0,0:0:0:0:
192,192,122142,1,0,0:0:0:0:
64,192,122142,1,0,0:0:0:0:
320,192,122254,1,0,0:0:0:0:
64,192,122254,1,0,0:0:0:0:
320,192,122366,1,0,0:0:0:0:
448,192,122366,1,0,0:0:0:0:
192,192,122478,1,0,0:0:0:0:
64,192,122478,1,0,0:0:0:0:
448,192,122478,1,0,0:0:0:0:
320,192,122590,1,0,0:0:0:0:
448,192,122590,1,0,0:0:0:0:
192,192,122590,1,0,0:0:0:0:
448,192,122702,1,0,0:0:0:0:
320,192,122702,1,0,0:0:0:0:
64,192,122702,1,0,0:0:0:0:
320,192,122814,1,0,0:0:0:0:
192,192,122814,1,0,0:0:0:0:
64,192,122814,1,0,0:0:0:0:
192,192,122926,1,0,0:0:0:0:
320,192,122926,1,0,0:0:0:0:
448,192,122926,1,0,0:0:0:0:
448,192,123038,1,0,0:0:0:0:
192,192,123038,1,0,0:0:0:0:
64,192,123038,1,0,0:0:0:0:
448,192,123150,1,0,0:0:0:0:
320,192,123150,1,0,0:0:0:0:
64,192,123150,1,0,0:0:0:0:
320,192,123262,1,0,0:0:0:0:
192,192,123262,1,0,0:0:0:0:
64,192,123262,1,0,0:0:0:0:
192,192,123374,1,0,0:0:0:0:
320,192,123374,1,0,0:0:0:0:
448,192,123374,1,0,0:0:0:0:
64,192,123374,1,0,0:0:0:0:
448,192,123485,1,0,0:0:0:0:
320,192,123485,1,0,0:0:0:0:
192,192,123597,1,0,0:0:0:0:
64,192,123597,1,0,0:0:0:0:
448,192,123597,1,0,0:0:0:0:
320,192,123709,1,0,0:0:0:0:
64,192,123709,1,0,0:0:0:0:
320,192,123821,1,0,0:0:0:0:
192,192,123821,1,0,0:0:0:0:
448,192,123821,1,0,0:0:0:0:
192,192,123933,1,0,0:0:0:0:
64,192,123933,1,0,0:0:0:0:
64,192,124045,1,0,0:0:0:0:
320,192,124045,1,0,0:0:0:0:
448,192,124157,1,0,0:0:0:0:
192,192,124157,1,0,0:0:0:0:
320,192,124269,1,0,0:0:0:0:
448,192,124269,1,0,0:0:0:0:
64,192,124269,1,0,0:0:0:0:
320,192,124381,1,0,0:0:0:0:
192,192,124381,1,0,0:0:0:0:
64,192,124381,1,0,0:0:0:0:
448,192,124493,1,0,0:0:0:0:
192,192,124493,1,0,0:0:0:0:
64,192,124493,1,0,0:0:0:0:
320,192,124605,1,0,0:0:0:0:
448,192,124605,1,0,0:0:0:0:
192,192,124605,1,0,0:0:0:0:
320,192,124717,1,0,0:0:0:0:
448,192,124717,1,0,0:0:0:0:
64,192,124717,1,0,0:0:0:0:
320,192,124829,1,0,0:0:0:0:
192,192,124829,1,0,0:0:0:0:
64,192,124829,1,0,0:0:0:0:
448,192,124941,1,0,0:0:0:0:
192,192,124941,1,0,0:0:0:0:
64,192,124941,1,0,0:0:0:0:
320,192,125053,1,0,0:0:0:0:
448,192,125053,1,0,0:0:0:0:
192,192,125053,1,0,0:0:0:0:
320,192,125165,1,0,0:0:0:0:
64,192,125165,1,0,0:0:0:0:
448,192,125277,1,0,0:0:0:0:
192,192,125277,1,0,0:0:0:0:
64,192,125388,1,0,0:0:0:0:
320,192,125388,1,0,0:0:0:0:
448,192,125388,1,0,0:0:0:0:
320,192,125500,1,0,0:0:0:0:
192,192,125500,1,0,0:0:0:0:
64,192,125612,1,0,0:0:0:0:
192,192,125612,1,0,0:0:0:0:
448,192,125612,1,0,0:0:0:0:
448,192,125724,1,0,0:0:0:0:
320,192,125724,1,0,0:0:0:0:
64,192,125836,1,0,0:0:0:0:
192,192,125836,1,0,0:0:0:0:
448,192,125948,1,0,0:0:0:0:
192,192,125948,1,0,0:0:0:0:
64,192,126060,1,0,0:0:0:0:
448,192,126060,1,0,0:0:0:0:
320,192,126060,1,0,0:0:0:0:
320,192,126172,1,0,0:0:0:0:
192,192,126172,1,0,0:0:0:0:
64,192,126172,1,0,0:0:0:0:
448,192,126284,1,0,0:0:0:0:
320,192,126284,1,0,0:0:0:0:
192,192,126284,1,0,0:0:0:0:
192,192,126396,1,0,0:0:0:0:
448,192,126396,1,0,0:0:0:0:
64,192,126396,1,0,0:0:0:0:
320,192,126508,1,0,0:0:0:0:
192,192,126508,1,0,0:0:0:0:
64,192,126508,1,0,0:0:0:0:
448,192,126620,1,0,0:0:0:0:
64,192,126620,1,0,0:0:0:0:
320,192,126620,1,0,0:0:0:0:
320,192,126732,1,0,0:0:0:0:
448,192,126732,1,0,0:0:0:0:
192,192,126732,1,0,0:0:0:0:
448,192,126844,1,0,0:0:0:0:
64,192,126844,1,0,0:0:0:0:
192,192,126844,1,0,0:0:0:0:
64,192,126956,1,0,0:0:0:0:
192,192,126956,1,0,0:0:0:0:
320,192,126956,1,0,0:0:0:0:
448,192,126956,1,0,0:0:0:0:
320,192,127068,1,0,0:0:0:0:
448,192,127068,1,0,0:0:0:0:
192,192,127180,1,0,0:0:0:0:
64,192,127180,1,0,0:0:0:0:
320,192,127180,1,0,0:0:0:0:
448,192,127291,1,0,0:0:0:0:
64,192,127291,1,0,0:0:0:0:
320,192,127403,1,0,0:0:0:0:
192,192,127403,1,0,0:0:0:0:
448,192,127403,1,0,0:0:0:0:
192,192,127515,1,0,0:0:0:0:
64,192,127515,1,0,0:0:0:0:
448,192,127627,1,0,0:0:0:0:
64,192,127627,1,0,0:0:0:0:
320,192,127739,1,0,0:0:0:0:
448,192,127739,1,0,0:0:0:0:
320,192,127851,1,0,0:0:0:0:
192,192,127851,1,0,0:0:0:0:
64,192,127851,1,0,0:0:0:0:
192,192,127963,1,0,0:0:0:0:
448,192,127963,1,0,0:0:0:0:
64,192,127963,1,0,0:0:0:0:
448,192,128075,1,0,0:0:0:0:
320,192,128075,1,0,0:0:0:0:
64,192,128075,1,0,0:0:0:0:
192,192,128187,1,0,0:0:0:0:
320,192,128187,1,0,0:0:0:0:
448,192,128187,1,0,0:0:0:0:
448,192,128299,1,0,0:0:0:0:
192,192,128299,1,0,0:0:0:0:
64,192,128299,1,0,0:0:0:0:
320,192,128411,1,0,0:0:0:0:
192,192,128411,1,0,0:0:0:0:
64,192,128411,1,0,0:0:0:0:
448,192,128523,1,0,0:0:0:0:
320,192,128523,1,0,0:0:0:0:
64,192,128523,1,0,0:0:0:0:
192,192,128635,1,0,0:0:0:0:
320,192,128635,1,0,0:0:0:0:
448,192,128635,1,0,0:0:0:0:
192,192,128747,1,0,0:0:0:0:
64,192,128747,1,0,0:0:0:0:
192,192,128859,1,0,0:0:0:0:
448,192,128859,1,0,0:0:0:0:
448,192,128971,1,0,0:0:0:0:
320,192,128971,1,0,0:0:0:0:
64,192,128971,1,0,0:0:0:0:
192,192,129083,1,0,0:0:0:0:
320,192,129083,1,0,0:0:0:0:
64,192,129194,1,0,0:0:0:0:
448,192,129194,1,0,0:0:0:0:
192,192,129194,1,0,0:0:0:0:
64,192,129306,1,0,0:0:0:0:
320,192,129306,1,0,0:0:0:0:
192,192,129418,1,0,0:0:0:0:
448,192,129418,1,0,0:0:0:0:
320,192,129530,1,0,0:0:0:0:
448,192,129530,1,0,0:0:0:0:
192,192,129642,1,0,0:0:0:0:
448,192,129642,1,0,0:0:0:0:
320,192,129642,1,0,0:0:0:0:
64,192,129642,1,0,0:0:0:0:
64,192,129866,1,0,0:0:0:0:
448,192,130090,1,0,0:0:0:0:
448,192,130202,1,0,0:0:0:0:
192,192,130314,128,0,130482:0:0:0:0:
64,192,130314,128,0,130482:0:0:0:0:
448,192,130426,1,0,0:0:0:0:
320,192,130538,5,0,0:0:0:0:
192,192,130538,1,0,0:0:0:0:
448,192,130538,1,0,0:0:0:0:
64,192,130538,1,0,0:0:0:0:
192,192,130650,1,0,0:0:0:0:
64,192,130650,1,0,0:0:0:0:
320,192,130650,1,0,0:0:0:0:
448,192,130762,1,0,0:0:0:0:
64,192,130762,1,0,0:0:0:0:
320,192,130762,1,0,0:0:0:0:
64,192,130874,1,0,0:0:0:0:
192,192,130874,1,0,0:0:0:0:
320,192,130985,1,0,0:0:0:0:
192,192,130985,1,0,0:0:0:0:
448,192,130985,1,0,0:0:0:0:
448,192,131097,1,0,0:0:0:0:
64,192,131097,1,0,0:0:0:0:
192,192,131209,1,0,0:0:0:0:
64,192,131209,1,0,0:0:0:0:
320,192,131209,1,0,0:0:0:0:
448,192,131321,1,0,0:0:0:0:
320,192,131321,1,0,0:0:0:0:
192,192,131433,1,0,0:0:0:0:
64,192,131433,1,0,0:0:0:0:
448,192,131433,1,0,0:0:0:0:
64,192,131545,1,0,0:0:0:0:
320,192,131545,1,0,0:0:0:0:
192,192,131545,1,0,0:0:0:0:
448,192,131657,1,0,0:0:0:0:
192,192,131657,1,0,0:0:0:0:
320,192,131657,1,0,0:0:0:0:
64,192,131769,1,0,0:0:0:0:
448,192,131769,1,0,0:0:0:0:
192,192,131881,1,0,0:0:0:0:
320,192,131881,1,0,0:0:0:0:
64,192,131993,1,0,0:0:0:0:
192,192,131993,1,0,0:0:0:0:
320,192,132105,1,0,0:0:0:0:
448,192,132105,1,0,0:0:0:0:
64,192,132105,1,0,0:0:0:0:
448,192,132217,1,0,0:0:0:0:
192,192,132217,1,0,0:0:0:0:
64,192,132329,1,0,0:0:0:0:
320,192,132329,1,0,0:0:0:0:
448,192,132329,1,0,0:0:0:0:
64,192,132441,1,0,0:0:0:0:
192,192,132441,1,0,0:0:0:0:
448,192,132553,1,0,0:0:0:0:
320,192,132553,1,0,0:0:0:0:
320,192,132665,1,0,0:0:0:0:
64,192,132665,1,0,0:0:0:0:
64,192,132777,1,0,0:0:0:0:
192,192,132777,1,0,0:0:0:0:
448,192,132777,1,0,0:0:0:0:
448,192,132888,1,0,0:0:0:0:
320,192,132888,1,0,0:0:0:0:
192,192,132888,1,0,0:0:0:0:
64,192,133000,1,0,0:0:0:0:
192,192,133000,1,0,0:0:0:0:
320,192,133000,1,0,0:0:0:0:
64,192,133112,1,0,0:0:0:0:
320,192,133112,1,0,0:0:0:0:
448,192,133112,1,0,0:0:0:0:
64,192,133224,1,0,0:0:0:0:
192,192,133224,1,0,0:0:0:0:
320,192,133224,1,0,0:0:0:0:
448,192,133224,1,0,0:0:0:0:
448,192,133336,1,0,0:0:0:0:
320,192,133336,1,0,0:0:0:0:
192,192,133336,1,0,0:0:0:0:
64,192,133336,1,0,0:0:0:0:
192,192,133448,1,0,0:0:0:0:
448,192,133448,1,0,0:0:0:0:
448,192,133560,1,0,0:0:0:0:
320,192,133560,1,0,0:0:0:0:
192,192,133672,1,0,0:0:0:0:
64,192,133672,1,0,0:0:0:0:
64,192,133784,1,0,0:0:0:0:
192,192,133784,1,0,0:0:0:0:
320,192,133896,128,0,134064:0:0:0:0:
448,192,133896,128,0,134064:0:0:0:0:
64,192,133896,128,0,134064:0:0:0:0:
192,192,133896,128,0,134064:0:0:0:0:
320,192,134120,1,0,0:0:0:0:
192,192,134120,1,0,0:0:0:0:
64,192,134120,1,0,0:0:0:0:
448,192,134120,1,0,0:0:0:0:
448,192,134232,1,0,0:0:0:0:
64,192,134232,1,0,0:0:0:0:
192,192,134232,1,0,0:0:0:0:
448,192,134344,1,0,0:0:0:0:
320,192,134344,1,0,0:0:0:0:
192,192,134456,1,0,0:0:0:0:
64,192,134456,1,0,0:0:0:0:
64,192,134568,1,0,0:0:0:0:
320,192,134568,1,0,0:0:0:0:
448,192,134568,1,0,0:0:0:0:
448,192,134680,1,0,0:0:0:0:
192,192,134680,1,0,0:0:0:0:
64,192,134791,1,0,0:0:0:0:
192,192,134791,1,0,0:0:0:0:
320,192,134791,1,0,0:0:0:0:
448,192,134903,1,0,0:0:0:0:
320,192,134903,1,0,0:0:0:0:
64,192,135015,1,0,0:0:0:0:
192,192,135015,1,0,0:0:0:0:
448,192,135015,1,0,0:0:0:0:
320,192,135127,1,0,0:0:0:0:
192,192,135127,1,0,0:0:0:0:
64,192,135127,1,0,0:0:0:0:
64,192,135239,1,0,0:0:0:0:
320,192,135239,1,0,0:0:0:0:
448,192,135239,1,0,0:0:0:0:
448,192,135351,1,0,0:0:0:0:
192,192,135351,1,0,0:0:0:0:
64,192,135463,1,0,0:0:0:0:
192,192,135463,1,0,0:0:0:0:
448,192,135575,1,0,0:0:0:0:
320,192,135575,1,0,0:0:0:0:
320,192,135687,1,0,0:0:0:0:
64,192,135687,1,0,0:0:0:0:
192,192,135687,1,0,0:0:0:0:
192,192,135799,1,0,0:0:0:0:
448,192,135799,1,0,0:0:0:0:
64,192,135911,1,0,0:0:0:0:
320,192,135911,1,0,0:0:0:0:
448,192,135911,1,0,0:0:0:0:
64,192,136023,1,0,0:0:0:0:
192,192,136023,1,0,0:0:0:0:
320,192,136135,1,0,0:0:0:0:
192,192,136135,1,0,0:0:0:0:
320,192,136247,1,0,0:0:0:0:
448,192,136247,1,0,0:0:0:0:
64,192,136359,1,0,0:0:0:0:
192,192,136359,1,0,0:0:0:0:
448,192,136359,1,0,0:0:0:0:
192,192,136471,1,0,0:0:0:0:
448,192,136471,1,0,0:0:0:0:
320,192,136471,1,0,0:0:0:0:
192,192,136583,1,0,0:0:0:0:
64,192,136583,1,0,0:0:0:0:
320,192,136583,1,0,0:0:0:0:
320,192,136694,1,0,0:0:0:0:
448,192,136694,1,0,0:0:0:0:
64,192,136694,1,0,0:0:0:0:
448,192,136806,1,0,0:0:0:0:
192,192,136806,1,0,0:0:0:0:
320,192,136806,1,0,0:0:0:0:
64,192,136806,1,0,0:0:0:0:
64,192,136918,1,0,0:0:0:0:
192,192,136918,1,0,0:0:0:0:
320,192,136918,1,0,0:0:0:0:
448,192,136918,1,0,0:0:0:0:
192,192,137030,1,0,0:0:0:0:
448,192,137030,1,0,0:0:0:0:
192,192,137142,1,0,0:0:0:0:
64,192,137142,1,0,0:0:0:0:
448,192,137254,1,0,0:0:0:0:
320,192,137254,1,0,0:0:0:0:
448,192,137366,1,0,0:0:0:0:
320,192,137366,1,0,0:0:0:0:
192,192,137478,128,0,137646:0:0:0:0:
64,192,137478,128,0,137646:0:0:0:0:
448,192,137478,128,0,137646:0:0:0:0:
320,192,137478,128,0,137646:0:0:0:0:
192,192,137702,1,0,0:0:0:0:
64,192,137702,1,0,0:0:0:0:
448,192,137702,1,0,0:0:0:0:
320,192,137702,1,0,0:0:0:0:
192,192,137814,1,0,0:0:0:0:
64,192,137814,1,0,0:0:0:0:
448,192,137926,1,0,0:0:0:0:
320,192,137926,1,0,0:0:0:0:
448,192,138038,1,0,0:0:0:0:
192,192,138038,1,0,0:0:0:0:
192,192,138150,1,0,0:0:0:0:
320,192,138150,1,0,0:0:0:0:
320,192,138262,1,0,0:0:0:0:
64,192,138262,1,0,0:0:0:0:
64,192,138374,1,0,0:0:0:0:
192,192,138374,1,0,0:0:0:0:
448,192,138485,1,0,0:0:0:0:
192,192,138485,1,0,0:0:0:0:
64,192,138597,1,0,0:0:0:0:
320,192,138597,1,0,0:0:0:0:
448,192,138709,1,0,0:0:0:0:
320,192,138709,1,0,0:0:0:0:
448,192,138821,1,0,0:0:0:0:
192,192,138821,1,0,0:0:0:0:
64,192,138933,1,0,0:0:0:0:
320,192,138933,1,0,0:0:0:0:
192,192,139045,1,0,0:0:0:0:
64,192,139045,1,0,0:0:0:0:
448,192,139157,1,0,0:0:0:0:
192,192,139157,1,0,0:0:0:0:
64,192,139269,1,0,0:0:0:0:
320,192,139269,1,0,0:0:0:0:
64,192,139381,1,0,0:0:0:0:
192,192,139381,1,0,0:0:0:0:
448,192,139493,1,0,0:0:0:0:
320,192,139493,1,0,0:0:0:0:
192,192,139549,1,0,0:0:0:0:
448,192,139605,1,0,0:0:0:0:
320,192,139717,1,0,0:0:0:0:
64,192,139717,1,0,0:0:0:0:
448,192,139829,1,0,0:0:0:0:
192,192,139829,1,0,0:0:0:0:
64,192,139941,1,0,0:0:0:0:
192,192,139941,1,0,0:0:0:0:
320,192,139997,1,0,0:0:0:0:
64,192,140053,1,0,0:0:0:0:
448,192,140165,1,0,0:0:0:0:
192,192,140165,1,0,0:0:0:0:
448,192,140277,1,0,0:0:0:0:
320,192,140277,1,0,0:0:0:0:
64,192,140388,1,0,0:0:0:0:
192,192,140388,1,0,0:0:0:0:
320,192,140444,1,0,0:0:0:0:
192,192,140500,1,0,0:0:0:0:
448,192,140612,1,0,0:0:0:0:
64,192,140612,1,0,0:0:0:0:
448,192,140724,1,0,0:0:0:0:
320,192,140724,1,0,0:0:0:0:
64,192,140836,1,0,0:0:0:0:
192,192,140836,1,0,0:0:0:0:
64,192,140948,1,0,0:0:0:0:
192,192,140948,1,0,0:0:0:0:
448,192,141060,1,0,0:0:0:0:
320,192,141060,1,0,0:0:0:0:
448,192,141172,1,0,0:0:0:0:
320,192,141172,1,0,0:0:0:0:
64,192,141284,1,0,0:0:0:0:
192,192,141284,1,0,0:0:0:0:
64,192,141396,1,0,0:0:0:0:
448,192,141396,1,0,0:0:0:0:
320,192,141508,1,0,0:0:0:0:
192,192,141508,1,0,0:0:0:0:
448,192,141620,1,0,0:0:0:0:
320,192,141620,1,0,0:0:0:0:
448,192,141732,1,0,0:0:0:0:
64,192,141732,1,0,0:0:0:0:
64,192,141844,1,0,0:0:0:0:
192,192,141844,1,0,0:0:0:0:
320,192,141956,1,0,0:0:0:0:
192,192,141956,1,0,0:0:0:0:
448,192,142068,1,0,0:0:0:0:
64,192,142068,1,0,0:0:0:0:
448,192,142180,1,0,0:0:0:0:
320,192,142180,1,0,0:0:0:0:
320,192,142291,1,0,0:0:0:0:
192,192,142291,1,0,0:0:0:0:
192,192,142403,1,0,0:0:0:0:
64,192,142403,1,0,0:0:0:0:
448,192,142515,1,0,0:0:0:0:
64,192,142515,1,0,0:0:0:0:
448,192,142627,1,0,0:0:0:0:
320,192,142627,1,0,0:0:0:0:
64,192,142739,1,0,0:0:0:0:
192,192,142739,1,0,0:0:0:0:
448,192,142851,1,0,0:0:0:0:
192,192,142851,1,0,0:0:0:0:
64,192,142963,1,0,0:0:0:0:
320,192,142963,1,0,0:0:0:0:
64,192,143075,1,0,0:0:0:0:
192,192,143075,1,0,0:0:0:0:
448,192,143131,1,0,0:0:0:0:
192,192,143187,1,0,0:0:0:0:
64,192,143299,1,0,0:0:0:0:
320,192,143299,1,0,0:0:0:0:
448,192,143411,1,0,0:0:0:0:
320,192,143411,1,0,0:0:0:0:
192,192,143523,1,0,0:0:0:0:
64,192,143523,1,0,0:0:0:0:
320,192,143579,1,0,0:0:0:0:
192,192,143635,1,0,0:0:0:0:
64,192,143747,5,0,0:0:0:0:
448,192,143747,1,0,0:0:0:0:
448,192,143859,1,0,0:0:0:0:
320,192,143859,1,0,0:0:0:0:
448,192,143971,1,0,0:0:0:0:
320,192,143971,1,0,0:0:0:0:
192,192,143971,1,0,0:0:0:0:
64,192,143971,1,0,0:0:0:0:
320,192,144083,1,0,0:0:0:0:
448,192,144083,1,0,0:0:0:0:
192,192,144083,1,0,0:0:0:0:
64,192,144083,1,0,0:0:0:0:
448,192,144194,1,0,0:0:0:0:
320,192,144194,1,0,0:0:0:0:
192,192,144194,1,0,0:0:0:0:
64,192,144194,1,0,0:0:0:0:
448,192,144306,1,0,0:0:0:0:
320,192,144306,1,0,0:0:0:0:
192,192,144306,1,0,0:0:0:0:
64,192,144306,1,0,0:0:0:0:
64,192,144418,1,0,0:0:0:0:
192,192,144418,1,0,0:0:0:0:
64,192,144530,1,0,0:0:0:0:
192,192,144530,1,0,0:0:0:0:
192,192,144642,128,0,144810:0:0:0:0:
64,192,144642,128,0,144810:0:0:0:0:
448,192,144642,128,0,144810:0:0:0:0:
320,192,144642,128,0,144810:0:0:0:0:
192,192,144866,5,0,0:0:0:0:
448,192,144866,1,0,0:0:0:0:
320,192,144866,1,0,0:0:0:0:
64,192,144866,1,0,0:0:0:0:
64,192,144978,1,0,0:0:0:0:
448,192,144978,1,0,0:0:0:0:
192,192,144978,1,0,0:0:0:0:
192,192,145090,1,0,0:0:0:0:
320,192,145090,1,0,0:0:0:0:
64,192,145090,1,0,0:0:0:0:
320,192,145202,1,0,0:0:0:0:
448,192,145202,1,0,0:0:0:0:
64,192,145314,1,0,0:0:0:0:
448,192,145314,1,0,0:0:0:0:
192,192,145314,1,0,0:0:0:0:
320,192,145426,1,0,0:0:0:0:
64,192,145426,1,0,0:0:0:0:
192,192,145538,1,0,0:0:0:0:
448,192,145538,1,0,0:0:0:0:
320,192,145538,1,0,0:0:0:0:
192,192,145650,1,0,0:0:0:0:
64,192,145650,1,0,0:0:0:0:
64,192,145762,1,0,0:0:0:0:
448,192,145762,1,0,0:0:0:0:
320,192,145762,1,0,0:0:0:0:
320,192,145874,1,0,0:0:0:0:
192,192,145874,1,0,0:0:0:0:
448,192,145874,1,0,0:0:0:0:
192,192,145985,1,0,0:0:0:0:
320,192,145985,1,0,0:0:0:0:
64,192,145985,1,0,0:0:0:0:
64,192,146097,1,0,0:0:0:0:
448,192,146097,1,0,0:0:0:0:
192,192,146209,1,0,0:0:0:0:
320,192,146209,1,0,0:0:0:0:
320,192,146321,1,0,0:0:0:0:
448,192,146321,1,0,0:0:0:0:
448,192,146433,1,0,0:0:0:0:
64,192,146433,1,0,0:0:0:0:
192,192,146433,1,0,0:0:0:0:
320,192,146545,1,0,0:0:0:0:
64,192,146545,1,0,0:0:0:0:
64,192,146657,1,0,0:0:0:0:
192,192,146657,1,0,0:0:0:0:
448,192,146657,1,0,0:0:0:0:
320,192,146769,1,0,0:0:0:0:
448,192,146769,1,0,0:0:0:0:
192,192,146881,1,0,0:0:0:0:
64,192,146881,1,0,0:0:0:0:
448,192,146993,1,0,0:0:0:0:
192,192,146993,1,0,0:0:0:0:
64,192,147105,1,0,0:0:0:0:
320,192,147105,1,0,0:0:0:0:
448,192,147105,1,0,0:0:0:0:
320,192,147217,1,0,0:0:0:0:
192,192,147217,1,0,0:0:0:0:
64,192,147217,1,0,0:0:0:0:
192,192,147329,1,0,0:0:0:0:
320,192,147329,1,0,0:0:0:0:
448,192,147329,1,0,0:0:0:0:
64,192,147441,1,0,0:0:0:0:
192,192,147441,1,0,0:0:0:0:
448,192,147441,1,0,0:0:0:0:
64,192,147553,1,0,0:0:0:0:
448,192,147553,1,0,0:0:0:0:
320,192,147553,1,0,0:0:0:0:
192,192,147665,1,0,0:0:0:0:
64,192,147665,1,0,0:0:0:0:
64,192,147777,1,0,0:0:0:0:
320,192,147777,1,0,0:0:0:0:
192,192,147777,1,0,0:0:0:0:
448,192,147777,1,0,0:0:0:0:
192,192,147888,1,0,0:0:0:0:
64,192,147888,1,0,0:0:0:0:
320,192,147888,1,0,0:0:0:0:
448,192,147888,1,0,0:0:0:0:
448,192,148000,1,0,0:0:0:0:
320,192,148000,1,0,0:0:0:0:
320,192,148112,1,0,0:0:0:0:
448,192,148112,1,0,0:0:0:0:
448,192,148224,128,0,148392:0:0:0:0:
320,192,148224,128,0,148392:0:0:0:0:
192,192,148224,128,0,148392:0:0:0:0:
64,192,148224,128,0,148392:0:0:0:0:
448,192,148448,1,0,0:0:0:0:
64,192,148448,1,0,0:0:0:0:
192,192,148448,1,0,0:0:0:0:
320,192,148448,1,0,0:0:0:0:
320,192,148560,1,0,0:0:0:0:
448,192,148560,1,0,0:0:0:0:
64,192,148560,1,0,0:0:0:0:
192,192,148672,1,0,0:0:0:0:
64,192,148672,1,0,0:0:0:0:
448,192,148784,1,0,0:0:0:0:
320,192,148784,1,0,0:0:0:0:
64,192,148896,1,0,0:0:0:0:
192,192,148896,1,0,0:0:0:0:
448,192,148896,1,0,0:0:0:0:
320,192,149008,1,0,0:0:0:0:
64,192,149008,1,0,0:0:0:0:
192,192,149120,1,0,0:0:0:0:
320,192,149120,1,0,0:0:0:0:
448,192,149120,1,0,0:0:0:0:
192,192,149232,1,0,0:0:0:0:
64,192,149232,1,0,0:0:0:0:
64,192,149344,1,0,0:0:0:0:
320,192,149344,1,0,0:0:0:0:
448,192,149344,1,0,0:0:0:0:
448,192,149456,1,0,0:0:0:0:
320,192,149456,1,0,0:0:0:0:
192,192,149456,1,0,0:0:0:0:
64,192,149568,1,0,0:0:0:0:
192,192,149568,1,0,0:0:0:0:
448,192,149568,1,0,0:0:0:0:
320,192,149680,1,0,0:0:0:0:
64,192,149680,1,0,0:0:0:0:
320,192,149791,1,0,0:0:0:0:
448,192,149791,1,0,0:0:0:0:
192,192,149903,1,0,0:0:0:0:
64,192,149903,1,0,0:0:0:0:
320,192,150015,1,0,0:0:0:0:
448,192,150015,1,0,0:0:0:0:
192,192,150015,1,0,0:0:0:0:
64,192,150127,1,0,0:0:0:0:
320,192,150127,1,0,0:0:0:0:
64,192,150239,1,0,0:0:0:0:
192,192,150239,1,0,0:0:0:0:
448,192,150239,1,0,0:0:0:0:
320,192,150351,1,0,0:0:0:0:
448,192,150351,1,0,0:0:0:0:
320,192,150463,1,0,0:0:0:0:
192,192,150463,1,0,0:0:0:0:
64,192,150575,1,0,0:0:0:0:
192,192,150575,1,0,0:0:0:0:
64,192,150687,1,0,0:0:0:0:
320,192,150687,1,0,0:0:0:0:
448,192,150687,1,0,0:0:0:0:
192,192,150799,1,0,0:0:0:0:
64,192,150799,1,0,0:0:0:0:
320,192,150799,1,0,0:0:0:0:
192,192,150911,1,0,0:0:0:0:
448,192,150911,1,0,0:0:0:0:
320,192,150911,1,0,0:0:0:0:
448,192,151023,1,0,0:0:0:0:
64,192,151023,1,0,0:0:0:0:
192,192,151023,1,0,0:0:0:0:
320,192,151135,1,0,0:0:0:0:
64,192,151135,1,0,0:0:0:0:
320,192,151247,1,0,0:0:0:0:
448,192,151247,1,0,0:0:0:0:
448,192,151359,1,0,0:0:0:0:
64,192,151359,1,0,0:0:0:0:
192,192,151359,1,0,0:0:0:0:
320,192,151359,1,0,0:0:0:0:
320,192,151471,1,0,0:0:0:0:
448,192,151471,1,0,0:0:0:0:
192,192,151471,1,0,0:0:0:0:
64,192,151471,1,0,0:0:0:0:
192,192,151583,1,0,0:0:0:0:
64,192,151583,1,0,0:0:0:0:
192,192,151694,1,0,0:0:0:0:
64,192,151694,1,0,0:0:0:0:
64,192,151806,128,0,151974:0:0:0:0:
192,192,151806,128,0,151974:0:0:0:0:
320,192,151806,128,0,151974:0:0:0:0:
448,192,151806,128,0,151974:0:0:0:0:
64,192,152030,1,0,0:0:0:0:
192,192,152030,1,0,0:0:0:0:
320,192,152030,1,0,0:0:0:0:
448,192,152030,1,0,0:0:0:0:
448,192,152142,1,0,0:0:0:0:
320,192,152142,1,0,0:0:0:0:
192,192,152254,1,0,0:0:0:0:
64,192,152254,1,0,0:0:0:0:
320,192,152366,1,0,0:0:0:0:
64,192,152366,1,0,0:0:0:0:
192,192,152478,1,0,0:0:0:0:
320,192,152478,1,0,0:0:0:0:
448,192,152590,1,0,0:0:0:0:
192,192,152590,1,0,0:0:0:0:
320,192,152702,1,0,0:0:0:0:
448,192,152702,1,0,0:0:0:0:
320,192,152814,1,0,0:0:0:0:
64,192,152814,1,0,0:0:0:0:
192,192,152926,1,0,0:0:0:0:
448,192,152926,1,0,0:0:0:0:
192,192,153038,1,0,0:0:0:0:
64,192,153038,1,0,0:0:0:0:
320,192,153150,1,0,0:0:0:0:
64,192,153150,1,0,0:0:0:0:
192,192,153262,1,0,0:0:0:0:
448,192,153262,1,0,0:0:0:0:
448,192,153374,1,0,0:0:0:0:
320,192,153374,1,0,0:0:0:0:
320,192,153485,1,0,0:0:0:0:
64,192,153485,1,0,0:0:0:0:
192,192,153597,1,0,0:0:0:0:
448,192,153597,1,0,0:0:0:0:
320,192,153709,1,0,0:0:0:0:
448,192,153709,1,0,0:0:0:0:
192,192,153821,1,0,0:0:0:0:
64,192,153821,1,0,0:0:0:0:
320,192,153877,1,0,0:0:0:0:
64,192,153933,1,0,0:0:0:0:
448,192,154045,1,0,0:0:0:0:
192,192,154045,1,0,0:0:0:0:
320,192,154157,1,0,0:0:0:0:
64,192,154157,1,0,0:0:0:0:
320,192,154269,1,0,0:0:0:0:
448,192,154269,1,0,0:0:0:0:
192,192,154325,1,0,0:0:0:0:
448,192,154381,1,0,0:0:0:0:
320,192,154493,1,0,0:0:0:0:
64,192,154493,1,0,0:0:0:0:
192,192,154605,1,0,0:0:0:0:
64,192,154605,1,0,0:0:0:0:
320,192,154717,1,0,0:0:0:0:
448,192,154717,1,0,0:0:0:0:
192,192,154773,1,0,0:0:0:0:
320,192,154829,1,0,0:0:0:0:
448,192,154941,1,0,0:0:0:0:
64,192,154941,1,0,0:0:0:0:
192,192,155053,1,0,0:0:0:0:
64,192,155053,1,0,0:0:0:0:
320,192,155165,1,0,0:0:0:0:
448,192,155165,1,0,0:0:0:0:
320,192,155277,1,0,0:0:0:0:
448,192,155277,1,0,0:0:0:0:
192,192,155388,1,0,0:0:0:0:
64,192,155388,1,0,0:0:0:0:
192,192,155500,1,0,0:0:0:0:
64,192,155500,1,0,0:0:0:0:
320,192,155612,1,0,0:0:0:0:
448,192,155612,1,0,0:0:0:0:
64,192,155724,1,0,0:0:0:0:
448,192,155724,1,0,0:0:0:0:
320,192,155836,1,0,0:0:0:0:
192,192,155836,1,0,0:0:0:0:
192,192,155948,1,0,0:0:0:0:
64,192,155948,1,0,0:0:0:0:
448,192,156060,1,0,0:0:0:0:
64,192,156060,1,0,0:0:0:0:
320,192,156172,1,0,0:0:0:0:
448,192,156172,1,0,0:0:0:0:
320,192,156284,1,0,0:0:0:0:
192,192,156284,1,0,0:0:0:0:
448,192,156396,1,0,0:0:0:0:
64,192,156396,1,0,0:0:0:0:
192,192,156508,1,0,0:0:0:0:
64,192,156508,1,0,0:0:0:0:
192,192,156620,1,0,0:0:0:0:
320,192,156620,1,0,0:0:0:0:
448,192,156732,1,0,0:0:0:0:
320,192,156732,1,0,0:0:0:0:
448,192,156844,1,0,0:0:0:0:
64,192,156844,1,0,0:0:0:0:
192,192,156956,1,0,0:0:0:0:
64,192,156956,1,0,0:0:0:0:
320,192,157068,1,0,0:0:0:0:
448,192,157068,1,0,0:0:0:0:
320,192,157180,1,0,0:0:0:0:
64,192,157180,1,0,0:0:0:0:
192,192,157291,1,0,0:0:0:0:
448,192,157291,1,0,0:0:0:0:
320,192,157403,1,0,0:0:0:0:
448,192,157403,1,0,0:0:0:0:
64,192,157459,1,0,0:0:0:0:
320,192,157515,1,0,0:0:0:0:
192,192,157627,1,0,0:0:0:0:
448,192,157627,1,0,0:0:0:0:
320,192,157739,1,0,0:0:0:0:
64,192,157739,1,0,0:0:0:0:
192,192,157851,1,0,0:0:0:0:
64,192,157851,1,0,0:0:0:0:
448,192,157907,1,0,0:0:0:0:
192,192,157963,1,0,0:0:0:0:
448,192,158075,5,0,0:0:0:0:
64,192,158075,1,0,0:0:0:0:
320,192,158187,1,0,0:0:0:0:
448,192,158187,1,0,0:0:0:0:
192,192,158299,1,0,0:0:0:0:
64,192,158299,1,0,0:0:0:0:
448,192,158355,1,0,0:0:0:0:
64,192,158411,1,0,0:0:0:0:
448,192,158523,1,0,0:0:0:0:
192,192,158523,1,0,0:0:0:0:
192,192,158635,1,0,0:0:0:0:
64,192,158635,1,0,0:0:0:0:
320,192,158747,1,0,0:0:0:0:
448,192,158747,1,0,0:0:0:0:
320,192,158859,1,0,0:0:0:0:
448,192,158859,1,0,0:0:0:0:
64,192,158971,128,0,159138:0:0:0:0:
192,192,158971,128,0,159138:0:0:0:0:
320,192,158971,128,0,159138:0:0:0:0:
448,192,158971,128,0,159138:0:0:0:0:
320,192,159194,1,0,0:0:0:0:
448,192,159194,1,0,0:0:0:0:
192,192,159194,1,0,0:0:0:0:
64,192,159194,1,0,0:0:0:0:
320,192,159306,1,0,0:0:0:0:
64,192,159306,1,0,0:0:0:0:
192,192,159418,1,0,0:0:0:0:
448,192,159418,1,0,0:0:0:0:
192,192,159530,1,0,0:0:0:0:
448,192,159530,1,0,0:0:0:0:
320,192,159642,1,0,0:0:0:0:
64,192,159642,1,0,0:0:0:0:
320,192,159754,1,0,0:0:0:0:
64,192,159754,1,0,0:0:0:0:
448,192,159866,1,0,0:0:0:0:
192,192,159866,1,0,0:0:0:0:
448,192,159978,1,0,0:0:0:0:
192,192,159978,1,0,0:0:0:0:
320,192,160090,1,0,0:0:0:0:
64,192,160090,1,0,0:0:0:0:
64,192,160202,1,0,0:0:0:0:
320,192,160202,1,0,0:0:0:0:
64,192,160314,1,0,0:0:0:0:
192,192,160314,1,0,0:0:0:0:
192,192,160426,1,0,0:0:0:0:
64,192,160426,1,0,0:0:0:0:
320,192,160538,1,0,0:0:0:0:
448,192,160538,1,0,0:0:0:0:
320,192,160650,1,0,0:0:0:0:
448,192,160650,1,0,0:0:0:0:
64,192,160762,1,0,0:0:0:0:
192,192,160762,1,0,0:0:0:0:
64,192,160874,1,0,0:0:0:0:
192,192,160874,1,0,0:0:0:0:
64,192,160985,1,0,0:0:0:0:
448,192,160985,1,0,0:0:0:0:
64,192,161097,1,0,0:0:0:0:
448,192,161097,1,0,0:0:0:0:
320,192,161209,1,0,0:0:0:0:
192,192,161209,1,0,0:0:0:0:
320,192,161321,1,0,0:0:0:0:
192,192,161321,1,0,0:0:0:0:
64,192,161433,1,0,0:0:0:0:
448,192,161433,1,0,0:0:0:0:
64,192,161545,1,0,0:0:0:0:
448,192,161545,1,0,0:0:0:0:
448,192,161657,1,0,0:0:0:0:
320,192,161657,1,0,0:0:0:0:
448,192,161769,1,0,0:0:0:0:
320,192,161769,1,0,0:0:0:0:
64,192,161881,1,0,0:0:0:0:
192,192,161881,1,0,0:0:0:0:
192,192,161993,1,0,0:0:0:0:
64,192,161993,1,0,0:0:0:0:
192,192,162105,1,0,0:0:0:0:
64,192,162105,1,0,0:0:0:0:
192,192,162217,1,0,0:0:0:0:
64,192,162217,1,0,0:0:0:0:
448,192,162329,1,0,0:0:0:0:
320,192,162329,1,0,0:0:0:0:
448,192,162441,1,0,0:0:0:0:
320,192,162441,1,0,0:0:0:0:
192,192,162553,1,0,0:0:0:0:
448,192,162553,1,0,0:0:0:0:
64,192,162665,1,0,0:0:0:0:
192,192,162665,1,0,0:0:0:0:
64,192,162777,1,0,0:0:0:0:
448,192,162777,1,0,0:0:0:0:
192,192,162777,1,0,0:0:0:0:
320,192,162777,1,0,0:0:0:0:
64,192,162888,1,0,0:0:0:0:
448,192,162888,1,0,0:0:0:0:
320,192,163000,1,0,0:0:0:0:
192,192,163000,1,0,0:0:0:0:
320,192,163112,1,0,0:0:0:0:
192,192,163112,1,0,0:0:0:0:
192,192,163224,1,0,0:0:0:0:
448,192,163224,1,0,0:0:0:0:
192,192,163336,1,0,0:0:0:0:
448,192,163336,1,0,0:0:0:0:
64,192,163448,1,0,0:0:0:0:
320,192,163448,1,0,0:0:0:0:
64,192,163560,1,0,0:0:0:0:
320,192,163560,1,0,0:0:0:0:
448,192,163672,1,0,0:0:0:0:
64,192,163672,1,0,0:0:0:0:
64,192,163784,1,0,0:0:0:0:
448,192,163784,1,0,0:0:0:0:
320,192,163896,1,0,0:0:0:0:
192,192,163896,1,0,0:0:0:0:
320,192,164008,1,0,0:0:0:0:
192,192,164008,1,0,0:0:0:0:
448,192,164120,1,0,0:0:0:0:
192,192,164120,1,0,0:0:0:0:
448,192,164232,1,0,0:0:0:0:
192,192,164232,1,0,0:0:0:0:
64,192,164344,1,0,0:0:0:0:
320,192,164344,1,0,0:0:0:0:
320,192,164456,1,0,0:0:0:0:
64,192,164456,1,0,0:0:0:0:
192,192,164568,1,0,0:0:0:0:
448,192,164568,1,0,0:0:0:0:
192,192,164680,1,0,0:0:0:0:
448,192,164680,1,0,0:0:0:0:
64,192,164791,1,0,0:0:0:0:
192,192,164791,1,0,0:0:0:0:
64,192,164903,1,0,0:0:0:0:
192,192,164903,1,0,0:0:0:0:
64,192,165015,1,0,0:0:0:0:
448,192,165015,1,0,0:0:0:0:
64,192,165127,1,0,0:0:0:0:
448,192,165127,1,0,0:0:0:0:
448,192,165239,1,0,0:0:0:0:
320,192,165239,1,0,0:0:0:0:
320,192,165351,1,0,0:0:0:0:
192,192,165351,1,0,0:0:0:0:
448,192,165463,1,0,0:0:0:0:
64,192,165463,1,0,0:0:0:0:
448,192,165575,1,0,0:0:0:0:
64,192,165575,1,0,0:0:0:0:
192,192,165687,1,0,0:0:0:0:
320,192,165687,1,0,0:0:0:0:
192,192,165799,1,0,0:0:0:0:
320,192,165799,1,0,0:0:0:0:
448,192,165911,1,0,0:0:0:0:
320,192,165911,1,0,0:0:0:0:
448,192,166023,1,0,0:0:0:0:
320,192,166023,1,0,0:0:0:0:
448,192,166135,1,0,0:0:0:0:
64,192,166135,1,0,0:0:0:0:
64,192,166247,1,0,0:0:0:0:
192,192,166247,1,0,0:0:0:0:
320,192,166359,1,0,0:0:0:0:
448,192,166359,1,0,0:0:0:0:
64,192,166359,1,0,0:0:0:0:
192,192,166359,1,0,0:0:0:0:
320,192,166471,1,0,0:0:0:0:
192,192,166583,1,0,0:0:0:0:
64,192,166583,1,0,0:0:0:0:
448,192,166583,1,0,0:0:0:0:
192,192,166694,1,0,0:0:0:0:
448,192,166806,1,0,0:0:0:0:
320,192,166806,1,0,0:0:0:0:
64,192,166806,1,0,0:0:0:0:
192,192,166918,1,0,0:0:0:0:
64,192,166918,1,0,0:0:0:0:
64,192,167030,1,0,0:0:0:0:
320,192,167030,1,0,0:0:0:0:
448,192,167030,1,0,0:0:0:0:
448,192,167142,1,0,0:0:0:0:
192,192,167142,1,0,0:0:0:0:
320,192,167254,1,0,0:0:0:0:
192,192,167254,1,0,0:0:0:0:
64,192,167254,1,0,0:0:0:0:
448,192,167366,1,0,0:0:0:0:
320,192,167366,1,0,0:0:0:0:
448,192,167478,1,0,0:0:0:0:
192,192,167478,1,0,0:0:0:0:
64,192,167478,1,0,0:0:0:0:
320,192,167590,1,0,0:0:0:0:
64,192,167590,1,0,0:0:0:0:
320,192,167702,1,0,0:0:0:0:
192,192,167702,1,0,0:0:0:0:
192,192,167814,1,0,0:0:0:0:
448,192,167814,1,0,0:0:0:0:
64,192,167926,1,0,0:0:0:0:
320,192,167926,1,0,0:0:0:0:
448,192,167926,1,0,0:0:0:0:
64,192,168038,1,0,0:0:0:0:
192,192,168038,1,0,0:0:0:0:
320,192,168150,1,0,0:0:0:0:
320,192,168262,1,0,0:0:0:0:
448,192,168374,1,0,0:0:0:0:
192,192,168374,1,0,0:0:0:0:
64,192,168374,1,0,0:0:0:0:
192,192,168485,1,0,0:0:0:0:
64,192,168485,1,0,0:0:0:0:
320,192,168597,1,0,0:0:0:0:
448,192,168597,1,0,0:0:0:0:
320,192,168709,1,0,0:0:0:0:
448,192,168709,1,0,0:0:0:0:
64,192,168821,1,0,0:0:0:0:
192,192,168821,1,0,0:0:0:0:
448,192,168933,1,0,0:0:0:0:
192,192,168933,1,0,0:0:0:0:
64,192,169045,1,0,0:0:0:0:
320,192,169045,1,0,0:0:0:0:
448,192,169045,1,0,0:0:0:0:
320,192,169157,1,0,0:0:0:0:
64,192,169157,1,0,0:0:0:0:
192,192,169157,1,0,0:0:0:0:
192,192,169269,1,0,0:0:0:0:
448,192,169269,1,0,0:0:0:0:
320,192,169269,1,0,0:0:0:0:
192,192,169381,1,0,0:0:0:0:
64,192,169381,1,0,0:0:0:0:
448,192,169493,1,0,0:0:0:0:
320,192,169493,1,0,0:0:0:0:
64,192,169549,1,0,0:0:0:0:
192,192,169549,1,0,0:0:0:0:
448,192,169605,1,0,0:0:0:0:
320,192,169605,1,0,0:0:0:0:
64,192,169661,1,0,0:0:0:0:
192,192,169661,1,0,0:0:0:0:
448,192,169717,1,0,0:0:0:0:
320,192,169717,1,0,0:0:0:0:
64,192,169829,1,0,0:0:0:0:
192,192,169829,1,0,0:0:0:0:
192,192,169941,1,0,0:0:0:0:
64,192,169941,1,0,0:0:0:0:
448,192,169941,1,0,0:0:0:0:
320,192,169941,1,0,0:0:0:0:
448,192,170053,1,0,0:0:0:0:
64,192,170165,1,0,0:0:0:0:
192,192,170165,1,0,0:0:0:0:
320,192,170165,1,0,0:0:0:0:
192,192,170277,1,0,0:0:0:0:
448,192,170388,1,0,0:0:0:0:
320,192,170388,1,0,0:0:0:0:
64,192,170388,1,0,0:0:0:0:
192,192,170500,1,0,0:0:0:0:
448,192,170500,1,0,0:0:0:0:
192,192,170612,1,0,0:0:0:0:
64,192,170612,1,0,0:0:0:0:
320,192,170612,1,0,0:0:0:0:
64,192,170724,1,0,0:0:0:0:
448,192,170724,1,0,0:0:0:0:
192,192,170836,1,0,0:0:0:0:
320,192,170836,1,0,0:0:0:0:
448,192,170836,1,0,0:0:0:0:
64,192,170948,1,0,0:0:0:0:
192,192,170948,1,0,0:0:0:0:
448,192,171060,1,0,0:0:0:0:
64,192,171060,1,0,0:0:0:0:
320,192,171060,1,0,0:0:0:0:
192,192,171172,1,0,0:0:0:0:
448,192,171172,1,0,0:0:0:0:
192,192,171284,1,0,0:0:0:0:
320,192,171284,1,0,0:0:0:0:
320,192,171396,1,0,0:0:0:0:
64,192,171396,1,0,0:0:0:0:
64,192,171508,1,0,0:0:0:0:
192,192,171508,1,0,0:0:0:0:
448,192,171508,1,0,0:0:0:0:
448,192,171620,1,0,0:0:0:0:
320,192,171620,1,0,0:0:0:0:
64,192,171732,1,0,0:0:0:0:
192,192,171732,1,0,0:0:0:0:
320,192,171732,1,0,0:0:0:0:
448,192,171844,1,0,0:0:0:0:
320,192,171844,1,0,0:0:0:0:
192,192,171844,1,0,0:0:0:0:
64,192,171956,1,0,0:0:0:0:
320,192,171956,1,0,0:0:0:0:
448,192,171956,1,0,0:0:0:0:
64,192,172068,1,0,0:0:0:0:
192,192,172068,1,0,0:0:0:0:
448,192,172124,1,0,0:0:0:0:
320,192,172124,1,0,0:0:0:0:
64,192,172180,1,0,0:0:0:0:
192,192,172180,1,0,0:0:0:0:
192,192,172291,1,0,0:0:0:0:
320,192,172291,1,0,0:0:0:0:
448,192,172291,1,0,0:0:0:0:
448,192,172403,1,0,0:0:0:0:
320,192,172403,1,0,0:0:0:0:
64,192,172515,1,0,0:0:0:0:
192,192,172515,1,0,0:0:0:0:
448,192,172571,1,0,0:0:0:0:
320,192,172571,1,0,0:0:0:0:
64,192,172627,1,0,0:0:0:0:
192,192,172627,1,0,0:0:0:0:
448,192,172739,1,0,0:0:0:0:
320,192,172739,1,0,0:0:0:0:
64,192,172739,1,0,0:0:0:0:
320,192,172851,1,0,0:0:0:0:
192,192,172851,1,0,0:0:0:0:
192,192,172963,1,0,0:0:0:0:
64,192,172963,1,0,0:0:0:0:
448,192,172963,1,0,0:0:0:0:
64,192,173075,1,0,0:0:0:0:
320,192,173075,1,0,0:0:0:0:
448,192,173075,1,0,0:0:0:0:
448,192,173187,1,0,0:0:0:0:
320,192,173187,1,0,0:0:0:0:
64,192,173243,1,0,0:0:0:0:
192,192,173243,1,0,0:0:0:0:
448,192,173299,1,0,0:0:0:0:
320,192,173299,1,0,0:0:0:0:
192,192,173411,1,0,0:0:0:0:
64,192,173411,1,0,0:0:0:0:
192,192,173523,1,0,0:0:0:0:
64,192,173523,128,0,173971:0:0:0:0:
448,192,173523,1,0,0:0:0:0:
320,192,173523,1,0,0:0:0:0:
320,192,173635,1,0,0:0:0:0:
448,192,173747,1,0,0:0:0:0:
448,192,173859,1,0,0:0:0:0:
320,192,173971,1,0,0:0:0:0:
64,192,174055,1,0,0:0:0:0:
448,192,174083,1,0,0:0:0:0:
192,192,174194,1,0,0:0:0:0:
320,192,174306,1,0,0:0:0:0:
448,192,174362,1,0,0:0:0:0:
64,192,174418,1,0,0:0:0:0:
448,192,174474,1,0,0:0:0:0:
192,192,174530,1,0,0:0:0:0:
320,192,174642,1,0,0:0:0:0:
64,192,174698,1,0,0:0:0:0:
320,192,174754,1,0,0:0:0:0:
448,192,174782,1,0,0:0:0:0:
192,192,174866,1,0,0:0:0:0:
64,192,174866,1,0,0:0:0:0:
448,192,174978,1,0,0:0:0:0:
64,192,175034,128,0,175314:0:0:0:0:
320,192,175090,1,0,0:0:0:0:
320,192,175202,1,0,0:0:0:0:
192,192,175314,1,0,0:0:0:0:
320,192,175426,1,0,0:0:0:0:
448,192,175426,1,0,0:0:0:0:
192,192,175538,5,0,0:0:0:0:
448,192,175538,1,0,0:0:0:0:
192,192,175650,1,0,0:0:0:0:
320,192,175762,1,0,0:0:0:0:
64,192,175790,128,0,175874:0:0:0:0:
192,192,175874,1,0,0:0:0:0:
320,192,175985,1,0,0:0:0:0:
64,192,176041,1,0,0:0:0:0:
320,192,176097,1,0,0:0:0:0:
448,192,176125,128,0,176209:0:0:0:0:
192,192,176209,1,0,0:0:0:0:
64,192,176209,128,0,176321:0:0:0:0:
320,192,176433,1,0,0:0:0:0:
64,192,176461,1,0,0:0:0:0:
448,192,176657,5,0,0:0:0:0:
64,192,176657,1,0,0:0:0:0:
