osu file format v14

[General]
AudioFilename: audio.mp3
AudioLeadIn: 0
PreviewTime: -1
Countdown: 1
SampleSet: None
StackLeniency: 0.7
Mode: 0
LetterboxInBreaks: 0
WidescreenStoryboard: 1

[Editor]
DistanceSpacing: 0.8
BeatDivisor: 4
GridSize: 8
TimelineZoom: 2.2

[Metadata]
Title:Chaser
TitleUnicode:Chaser
Artist:Susumu Hirasawa
ArtistUnicode:Susumu Hirasawa
Creator:Aosek
Version:MODERN / MODERN
Source:
Tags:
BeatmapID:1895152
BeatmapSetID:908154

[Difficulty]
HPDrainRate:6
CircleSize:4
OverallDifficulty:8
ApproachRate:9.8
SliderMultiplier:2
SliderTickRate:1

[Events]
//Background and Video events
0,0,"ab2902be41786dacbe097ece5b908590.jpg",0,0
//Break Periods
2,19581,173044
//Storyboard Layer 0 (Background)
//Storyboard Layer 1 (Fail)
//Storyboard Layer 2 (Pass)
//Storyboard Layer 3 (Foreground)
//Storyboard Sound Samples

[TimingPoints]
1583,447.761194029851,4,2,0,42,1,0
8075,-100,4,2,0,42,0,1
8747,-50,4,2,0,42,0,0
11433,-100,4,2,0,42,0,1
12329,-50,4,2,0,42,0,0
15015,-100,4,2,0,42,0,1
15799,-50,4,2,0,42,0,0
173523,-100,4,2,0,42,0,0

[Colours]
Combo1 : 255,0,0
Combo2 : 128,0,0
Combo3 : 255,255,255
Combo4 : 255,255,0
Combo5 : 0,255,255
Combo6 : 255,0,128

[HitObjects]
142,105,1583,5,0,0:0:0:0:
55,189,1694,1,0,0:0:0:0:
156,244,1806,1,0,0:0:0:0:
69,328,1917,1,0,0:0:0:0:
148,82,2030,5,0,0:0:0:0:
43,183,2141,1,0,0:0:0:0:
165,249,2253,1,0,0:0:0:0:
60,350,2364,1,0,0:0:0:0:
271,313,2478,5,0,0:0:0:0:
403,254,2590,1,0,0:0:0:0:
344,121,2702,1,0,0:0:0:0:
212,180,2814,1,0,0:0:0:0:
263,332,2926,5,0,0:0:0:0:
422,261,3038,1,0,0:0:0:0:
351,101,3150,1,0,0:0:0:0:
192,172,3262,1,0,0:0:0:0:
306,222,3374,6,0,L|335:234,7,25
378,343,3821,1,0,0:0:0:0:
217,233,3933,1,0,0:0:0:0:
277,346,4045,5,0,0:0:0:0:
109,232,4157,1,0,0:0:0:0:
201,78,4269,5,0,0:0:0:0:
217,261,4381,1,0,0:0:0:0:
278,152,4493,1,0,0:0:0:0:
294,335,4605,1,0,0:0:0:0:
191,52,4717,5,0,0:0:0:0:
210,271,4829,1,0,0:0:0:0:
284,141,4941,1,0,0:0:0:0:
303,360,5053,1,0,0:0:0:0:
472,276,5165,5,0,0:0:0:0:
346,256,5277,1,0,0:0:0:0:
489,150,5389,1,0,0:0:0:0:
366,136,5501,1,0,0:0:0:0:
483,292,5612,5,0,0:0:0:0:
332,268,5724,1,0,0:0:0:0:
498,137,5836,1,0,0:0:0:0:
350,120,5948,1,0,0:0:0:0:
239,187,6060,5,0,0:0:0:0:
197,51,6172,1,0,0:0:0:0:
160,231,6284,1,0,0:0:0:0:
77,325,6396,1,0,0:0:0:0:
253,184,6508,5,0,0:0:0:0:
202,21,6620,1,0,0:0:0:0:
158,237,6732,1,0,0:0:0:0:
58,350,6844,1,0,0:0:0:0:
221,315,6956,2,0,L|257:306,7,25
335,267,7403,5,0,0:0:0:0:
389,124,7515,1,0,0:0:0:0:
248,68,7627,1,0,0:0:0:0:
183,211,7739,1,0,0:0:0:0:
420,216,7851,5,0,0:0:0:0:
215,356,7963,1,0,0:0:0:0:
238,54,8075,5,0,0:0:0:0:
458,341,8187,1,0,0:0:0:0:
118,286,8299,5,0,0:0:0:0:
442,22,8411,1,0,0:0:0:0:
27,94,8523,5,0,0:0:0:0:
472,350,8635,1,0,0:0:0:0:
343,60,8747,6,0,P|273:95|213:184,1,100
188,230,8971,1,0,0:0:0:0:
347,176,9083,1,0,0:0:0:0:
28,116,9194,6,0,P|98:151|158:240,1,100
206,329,9418,1,0,0:0:0:0:
14,280,9530,1,0,0:0:0:0:
213,182,9642,6,0,L|321:142,1,100
493,208,9866,2,0,L|385:248,1,100
367,28,10090,6,0,L|407:136,1,100
317,358,10314,1,0,0:0:0:0:
282,264,10425,1,0,0:0:0:0:
231,188,10538,6,0,P|269:177|336:211,1,100
437,283,10762,1,0,0:0:0:0:
408,173,10874,1,0,0:0:0:0:
138,268,10985,6,0,P|162:226|246:198,1,100
392,173,11209,1,0,0:0:0:0:
251,92,11321,1,0,0:0:0:0:
218,306,11433,5,0,0:0:0:0:
149,80,11545,1,0,0:0:0:0:
18,294,11657,5,0,0:0:0:0:
288,130,11769,1,0,0:0:0:0:
6,97,11881,5,0,0:0:0:0:
391,294,11993,1,0,0:0:0:0:
308,5,12105,5,0,0:0:0:0:
256,384,12217,1,0,0:0:0:0:
60,189,12329,6,0,L|168:179,1,100
277,172,12553,1,0,0:0:0:0:
277,172,12665,1,0,0:0:0:0:
157,323,12777,6,0,L|240:222,1,100
324,121,13001,1,0,0:0:0:0:
324,121,13113,1,0,0:0:0:0:
406,74,13224,6,0,P|370:39|322:30,1,100
398,253,13448,2,0,P|433:216|441:170,1,100
218,248,13672,6,0,P|253:282|301:291,1,100
213,46,13896,1,0,0:0:0:0:
145,161,14007,1,0,0:0:0:0:
23,179,14120,6,0,L|87:257,1,100
92,92,14344,1,0,0:0:0:0:
0,46,14455,1,0,0:0:0:0:
196,324,14568,6,0,L|132:246,1,100
113,65,14792,1,0,0:0:0:0:
223,120,14903,1,0,0:0:0:0:
249,240,15015,5,0,0:0:0:0:
326,92,15127,1,0,0:0:0:0:
374,291,15239,5,0,0:0:0:0:
189,65,15351,1,0,0:0:0:0:
443,179,15463,5,0,0:0:0:0:
94,211,15575,1,0,0:0:0:0:
356,2,15687,5,0,0:0:0:0:
54,382,15799,1,0,0:0:0:0:
320,261,15911,6,0,P|274:235|241:177,1,100
220,60,16135,1,0,0:0:0:0:
141,230,16247,1,0,0:0:0:0:
340,185,16359,2,0,P|384:210|413:265,1,100
253,335,16583,5,0,0:0:0:0:
90,290,16694,1,0,0:0:0:0:
269,339,16806,1,0,0:0:0:0:
73,285,16917,1,0,0:0:0:0:
240,186,17030,5,0,0:0:0:0:
149,348,17141,1,0,0:0:0:0:
250,171,17253,1,0,0:0:0:0:
140,365,17364,1,0,0:0:0:0:
5,203,17478,5,0,0:0:0:0:
104,14,17590,1,0,0:0:0:0:
272,184,17702,6,0,P|297:167|309:147,1,50
415,121,17814,2,0,P|398:95|378:83,1,50
363,0,17926,6,0,P|338:7|326:27,1,50
218,53,18038,2,0,P|236:78|256:90,1,50
267,210,18150,1,0,0:0:0:0:
428,131,18262,1,0,0:0:0:0:
140,112,18374,5,0,0:0:0:0:
282,184,18485,1,0,0:0:0:0:
209,327,18597,1,0,0:0:0:0:
67,254,18709,1,0,0:0:0:0:
179,96,18821,5,0,0:0:0:0:
296,245,18932,1,0,0:0:0:0:
146,358,19044,1,0,0:0:0:0:
28,212,19156,1,0,0:0:0:0:
182,76,19269,5,0,0:0:0:0:
144,384,19381,1,0,0:0:0:0:
75,76,173523,6,0,B|158:29|337:-34|424:148|457:254|457:254|289:80|114:152|114:152|272:183|350:302|350:302|185:242|157:371,1,1400
