osu file format v14

[General]
AudioFilename: audio.mp3
AudioLeadIn: 0
PreviewTime: 105205
Countdown: 0
SampleSet: Normal
StackLeniency: 0.4
Mode: 1
LetterboxInBreaks: 0
WidescreenStoryboard: 1

[Editor]
DistanceSpacing: 1.6
BeatDivisor: 4
GridSize: 32
TimelineZoom: 2.1

[Metadata]
Title:Speechless
TitleUnicode:講不出聲
Artist:Susanna Kwan
ArtistUnicode:關菊英
Creator:Pouyter
Version:Futsuu
Source:溏心風暴
Tags:溏心風暴,Gong Bat Chut Seng,Heart of Greed,關菊英,Susanna Kwan,tvb,廣東歌,cantonese
BeatmapID:1641873
BeatmapSetID:781824

[Difficulty]
HPDrainRate:6
CircleSize:2
OverallDifficulty:4
ApproachRate:4
SliderMultiplier:1.60000000596046
SliderTickRate:1

[Events]
//Background and Video events
0,0,"BG.jpg",0,0
//Break Periods
2,37590,40250
//Storyboard Layer 0 (Background)
//Storyboard Layer 1 (Fail)
//Storyboard Layer 2 (Pass)
//Storyboard Layer 3 (Foreground)
//Storyboard Layer 4 (Overlay)
//Storyboard Sound Samples

[TimingPoints]
800,468.75,4,1,0,80,1,0
2675,681.818181818182,4,1,0,90,1,0
3356,375,4,1,0,90,1,0
3731,300,4,1,0,90,1,0
4031,468.75,4,1,0,90,1,0
4734,487.80487804878,4,1,0,90,1,0
5221,333.333333333333,4,1,0,90,1,0
5554,387.096774193548,4,1,0,90,1,0
6328,535.714285714286,4,1,0,90,1,0
7399,324.324324324324,4,1,0,90,1,0
7723,260.869565217391,4,1,0,90,1,0
7983,260.869565217391,4,1,0,90,1,0
8243,235.294117647059,4,1,0,90,1,0
8478,260.869565217391,4,1,0,90,1,0
8738,260.869565217391,4,1,0,90,1,0
9259,333.333333333333,4,1,0,90,1,0
9925,666.666666666667,4,1,0,90,1,0
10591,375,4,1,0,90,1,0
10966,300,4,1,0,90,1,0
11866,266.666666666667,4,1,0,90,1,0
12132,200,4,1,0,90,1,0
12332,300,4,1,0,90,1,0
12632,375,4,1,0,90,1,0
13007,352.941176470588,4,1,0,90,1,0
13359,315.789473684211,4,1,0,90,1,0
13674,705.882352941176,4,1,0,90,1,0
14379,333.333333333333,4,1,0,90,1,0
14712,285.714285714286,4,1,0,90,1,0
14997,250,4,1,0,90,1,0
15247,260.869565217391,4,1,0,90,1,0
15507,300,4,1,0,90,1,0
15807,333.333333333333,4,1,0,90,1,0
16140,428.571428571429,4,1,0,90,1,0
16568,468.75,4,1,0,90,1,0
17007,631.578947368421,4,1,0,100,1,0
17638,352.941176470588,4,1,0,90,1,0
17990,285.714285714286,4,1,0,90,1,0
18275,272.727272727273,4,1,0,90,1,0
18547,240,4,1,0,90,1,0
19267,300,4,1,0,90,1,0
19867,705.882352941176,4,1,0,90,1,0
20572,612.244897959184,4,1,0,100,1,0
21184,352.941176470588,4,1,0,90,1,0
21536,300,4,1,0,90,1,0
22079,468.75,4,1,0,90,1,0
22782,260.869565217391,4,1,0,90,1,0
23042,300,4,1,0,90,1,0
23342,779.220779220779,4,1,0,90,1,0
24121,681.818181818182,4,1,0,100,1,0
24802,375,4,1,0,90,1,0
25177,292.682926829268,4,1,0,90,1,0
25469,250,4,1,0,90,1,0
25719,200,4,1,0,90,1,0
25919,179.10447761194,4,1,0,90,1,0
26277,187.5,4,1,0,90,1,0
26464,214.285714285714,4,1,0,90,1,0
26678,260.869565217391,4,1,0,90,1,0
26938,230.769230769231,4,1,0,90,1,0
27168,363.636363636364,4,1,0,90,1,0
27531,750,4,1,0,100,1,0
27999,444.444444444444,4,1,0,90,1,0
28443,461.538461538462,4,1,0,90,1,0
28846,400,4,1,0,90,1,0
29246,413.793103448276,4,1,0,90,1,0
29659,419.58041958042,4,1,0,80,1,0
30078,425.531914893617,4,1,0,80,1,0
30503,468.75,4,1,0,70,1,0
30971,444.444444444444,4,1,0,70,1,0
32304,500,4,1,0,60,1,0
32804,468.75,4,1,0,55,1,0
35147,705.882352941176,4,1,0,40,1,0
35852,769.230769230769,4,1,0,40,1,0
37390,853.242857142856,4,1,0,40,1,0
40803,767.230769230769,4,1,0,40,1,0
41570,451.127819548872,4,1,0,60,1,0
48788,447.761194029851,4,1,0,55,1,0
63116,-100,4,1,0,65,0,0
74030,-100,4,1,0,35,0,0
74926,-100,4,1,0,65,0,0
77444,-100,4,1,0,70,0,0
88190,-100,4,1,0,80,0,0
91773,-100,4,1,0,90,0,1
105205,-100,4,1,0,85,0,0
106101,-100,4,1,0,100,0,1
120429,-100,4,1,0,65,0,0
134758,-100,4,1,0,75,0,0
141922,-100,4,1,0,80,0,0
143713,-100,4,1,0,82,0,0
144608,-100,4,1,0,84,0,0
145504,-100,4,1,0,87,0,0
147295,-100,4,1,0,90,0,0
148190,-100,4,1,0,75,0,0
149086,-100,4,1,0,65,0,0
163414,-100,4,1,0,75,0,0
174161,-100,4,1,0,85,0,0
177743,-100,4,1,0,100,0,1
191176,-100,4,1,0,80,0,0
192071,-100,4,1,0,100,0,1
206399,454.545454545455,4,1,0,100,1,0
210035,461.538461538462,4,1,0,65,1,0
213727,545.454545454546,4,1,0,65,1,0
215908,571.428571428571,4,1,0,65,1,0
216479,769.230769230769,4,1,0,65,1,0
217248,789.473684210526,4,1,0,65,1,0

[HitObjects]
256,192,800,5,0,0:0:0:0:
256,192,2675,1,4,0:0:0:0:
256,192,3356,12,0,16568,0:0:0:0:
256,192,17007,5,4,0:0:0:0:
256,192,17638,12,0,37390,0:0:0:0:
256,192,41570,5,8,0:0:0:0:
256,192,42021,1,0,0:0:0:0:
256,192,42246,1,8,0:0:0:0:
256,192,42697,1,0,0:0:0:0:
256,192,42923,1,8,0:0:0:0:
256,192,43148,1,8,0:0:0:0:
256,192,43600,1,0,0:0:0:0:
256,192,43825,1,0,0:0:0:0:
256,192,44051,1,8,0:0:0:0:
256,192,44502,1,0,0:0:0:0:
256,192,44727,1,0,0:0:0:0:
256,192,44953,1,8,0:0:0:0:
256,192,45179,1,0,0:0:0:0:
256,192,45630,1,0,0:0:0:0:
256,192,45855,1,8,0:0:0:0:
256,192,46306,1,0,0:0:0:0:
256,192,46532,1,8,0:0:0:0:
256,192,46757,1,8,0:0:0:0:
256,192,47209,1,0,0:0:0:0:
256,192,47434,1,0,0:0:0:0:
256,192,47660,1,8,0:0:0:0:
256,192,48111,1,0,0:0:0:0:
256,192,48562,1,0,0:0:0:0:
256,192,48788,1,8,0:0:0:0:
256,192,49235,1,8,0:0:0:0:
256,192,49683,1,8,0:0:0:0:
256,192,50131,1,0,0:0:0:0:
256,192,50579,1,8,0:0:0:0:
256,192,50802,1,0,0:0:0:0:
256,192,51250,1,8,0:0:0:0:
256,192,51698,1,0,0:0:0:0:
256,192,52146,1,0,0:0:0:0:
256,192,52370,1,8,0:0:0:0:
256,192,52817,1,8,0:0:0:0:
256,192,53265,1,8,0:0:0:0:
256,192,53713,1,0,0:0:0:0:
256,192,54161,1,8,0:0:0:0:
256,192,54385,1,8,0:0:0:0:
256,192,54832,1,0,0:0:0:0:
256,192,55280,1,0,0:0:0:0:
256,192,55504,1,0,0:0:0:0:
256,192,55952,1,8,0:0:0:0:
256,192,56399,1,0,0:0:0:0:
256,192,56847,1,0,0:0:0:0:
256,192,57071,1,8,0:0:0:0:
256,192,57519,1,8,0:0:0:0:
256,192,57743,1,0,0:0:0:0:
256,192,58190,1,8,0:0:0:0:
256,192,58862,1,0,0:0:0:0:
256,192,59534,1,8,0:0:0:0:
256,192,59982,1,8,0:0:0:0:
256,192,60205,1,0,0:0:0:0:
256,192,60429,1,8,0:0:0:0:
256,192,60877,1,8,0:0:0:0:
256,192,61101,1,8,0:0:0:0:
256,192,61325,1,0,0:0:0:0:
256,192,61773,1,0,0:0:0:0:
256,192,61996,1,0,0:0:0:0:
256,192,62220,1,8,0:0:0:0:
256,192,62668,1,0,0:0:0:0:
256,192,62892,1,0,0:0:0:0:
256,192,63116,1,8,0:0:0:0:
256,192,63564,1,8,0:0:0:0:
256,192,63788,1,0,0:0:0:0:
256,192,64011,1,8,0:0:0:0:
256,192,64459,1,0,0:0:0:0:
256,192,64907,1,8,0:0:0:0:
256,192,65131,1,8,0:0:0:0:
256,192,65579,1,0,0:0:0:0:
256,192,66026,1,0,0:0:0:0:
256,192,66474,1,0,0:0:0:0:
256,192,66698,1,8,0:0:0:0:
256,192,67146,1,0,0:0:0:0:
256,192,67593,1,8,0:0:0:0:
256,192,67817,1,8,0:0:0:0:
256,192,68265,1,0,0:0:0:0:
256,192,68489,1,8,0:0:0:0:
256,192,68937,1,8,0:0:0:0:
256,192,69161,1,0,0:0:0:0:
256,192,69608,1,0,0:0:0:0:
256,192,70056,1,0,0:0:0:0:
256,192,70280,1,8,0:0:0:0:
256,192,70728,1,0,0:0:0:0:
256,192,71176,1,0,0:0:0:0:
256,192,71399,1,8,0:0:0:0:
256,192,71847,1,8,0:0:0:0:
256,192,72071,1,0,0:0:0:0:
256,192,72519,1,8,0:0:0:0:
256,192,72967,1,0,0:0:0:0:
256,192,73190,1,8,0:0:0:0:
256,192,73638,1,0,0:0:0:0:
256,192,73862,1,8,0:0:0:0:
256,192,74310,1,0,0:0:0:0:
256,192,74534,1,0,0:0:0:0:
256,192,74758,1,0,0:0:0:0:
256,192,74982,1,8,0:0:0:0:
256,192,75205,1,8,0:0:0:0:
256,192,75653,1,8,0:0:0:0:
256,192,76101,1,0,0:0:0:0:
256,192,76549,1,8,0:0:0:0:
256,192,76773,1,8,0:0:0:0:
256,192,77220,1,8,0:0:0:0:
256,192,77444,1,0,0:0:0:0:
256,192,77668,1,8,0:0:0:0:
256,192,78116,1,8,0:0:0:0:
256,192,78340,1,0,0:0:0:0:
256,192,78564,1,8,0:0:0:0:
256,192,79011,1,0,0:0:0:0:
256,192,79235,1,0,0:0:0:0:
256,192,79571,1,8,0:0:0:0:
256,192,79907,1,8,0:0:0:0:
256,192,80131,1,0,0:0:0:0:
256,192,80579,1,0,0:0:0:0:
256,192,81026,1,8,0:0:0:0:
256,192,81698,1,0,0:0:0:0:
256,192,81922,1,8,0:0:0:0:
256,192,82370,1,0,0:0:0:0:
256,192,82593,1,0,0:0:0:0:
256,192,82817,1,8,0:0:0:0:
256,192,83265,1,8,0:0:0:0:
256,192,83713,1,0,0:0:0:0:
256,192,83937,1,8,0:0:0:0:
256,192,84385,1,8,0:0:0:0:
256,192,84608,1,0,0:0:0:0:
256,192,84832,1,8,0:0:0:0:
256,192,85280,1,8,0:0:0:0:
256,192,85504,1,0,0:0:0:0:
256,192,85728,1,8,0:0:0:0:
256,192,86176,1,0,0:0:0:0:
256,192,86399,1,8,0:0:0:0:
256,192,86735,1,8,0:0:0:0:
256,192,87071,1,8,0:0:0:0:
256,192,87295,1,0,0:0:0:0:
256,192,87743,1,0,0:0:0:0:
256,192,88190,1,8,0:0:0:0:
256,192,88638,1,8,0:0:0:0:
256,192,88862,1,0,0:0:0:0:
256,192,89086,1,8,0:0:0:0:
256,192,89310,1,8,0:0:0:0:
256,192,89534,1,0,0:0:0:0:
256,192,89982,1,8,0:0:0:0:
256,192,90429,1,0,0:0:0:0:
256,192,90653,1,0,0:0:0:0:
256,192,90877,1,8,0:0:0:0:
256,192,91101,1,0,0:0:0:0:
256,192,91325,1,8,0:0:0:0:
256,192,91549,1,8,0:0:0:0:
256,192,91773,5,0,0:0:0:0:
256,192,92220,1,8,0:0:0:0:
256,192,92444,1,0,0:0:0:0:
256,192,92668,1,8,0:0:0:0:
256,192,93116,1,0,0:0:0:0:
256,192,93340,1,8,0:0:0:0:
256,192,94011,1,8,0:0:0:0:
256,192,94683,1,0,0:0:0:0:
256,192,94907,1,8,0:0:0:0:
256,192,95131,1,8,0:0:0:0:
256,192,95355,1,0,0:0:0:0:
256,192,95802,1,8,0:0:0:0:
256,192,96250,1,8,0:0:0:0:
256,192,96698,1,0,0:0:0:0:
256,192,96922,1,8,0:0:0:0:
256,192,97593,1,8,0:0:0:0:
256,192,98265,1,0,0:0:0:0:
256,192,98489,1,8,0:0:0:0:
256,192,98713,1,8,0:0:0:0:
256,192,98937,1,0,0:0:0:0:
256,192,99385,1,8,0:0:0:0:
256,192,99608,1,0,0:0:0:0:
256,192,99832,1,8,0:0:0:0:
256,192,100280,1,0,0:0:0:0:
256,192,100504,1,0,0:0:0:0:
256,192,100952,1,8,0:0:0:0:
256,192,101399,1,0,0:0:0:0:
256,192,101623,1,0,0:0:0:0:
256,192,102071,1,8,0:0:0:0:
256,192,102519,1,0,0:0:0:0:
256,192,102967,1,8,0:0:0:0:
256,192,103190,1,0,0:0:0:0:
256,192,103414,1,8,0:0:0:0:
256,192,103638,1,8,0:0:0:0:
256,192,103862,1,0,0:0:0:0:
256,192,104310,1,8,0:0:0:0:
256,192,104758,1,0,0:0:0:0:
256,192,104982,1,0,0:0:0:0:
256,192,105205,1,0,0:0:0:0:
256,192,105429,1,8,0:0:0:0:
256,192,105653,1,0,0:0:0:0:
256,192,105877,1,8,0:0:0:0:
256,192,106101,5,0,0:0:0:0:
256,192,106549,1,8,0:0:0:0:
256,192,106773,1,0,0:0:0:0:
256,192,106996,1,8,0:0:0:0:
256,192,107444,1,0,0:0:0:0:
256,192,107668,1,8,0:0:0:0:
256,192,108340,1,8,0:0:0:0:
256,192,108788,1,0,0:0:0:0:
256,192,109011,1,8,0:0:0:0:
256,192,109235,1,0,0:0:0:0:
256,192,109459,1,0,0:0:0:0:
256,192,109683,1,8,0:0:0:0:
256,192,110131,1,0,0:0:0:0:
256,192,110355,1,8,0:0:0:0:
256,192,110802,1,8,0:0:0:0:
256,192,111250,1,0,0:0:0:0:
256,192,111474,1,8,0:0:0:0:
256,192,111922,1,8,0:0:0:0:
256,192,112593,1,0,0:0:0:0:
256,192,112817,1,8,0:0:0:0:
256,192,113041,1,8,0:0:0:0:
256,192,113265,1,0,0:0:0:0:
256,192,113713,1,8,0:0:0:0:
256,192,114161,1,8,0:0:0:0:
256,192,114608,1,0,0:0:0:0:
256,192,114832,1,0,0:0:0:0:
256,192,115280,1,8,0:0:0:0:
256,192,115728,1,0,0:0:0:0:
256,192,115952,1,0,0:0:0:0:
256,192,116399,1,8,0:0:0:0:
256,192,116847,1,0,0:0:0:0:
256,192,117295,1,8,0:0:0:0:
256,192,117519,1,8,0:0:0:0:
256,192,117743,1,0,0:0:0:0:
256,192,118190,1,8,0:0:0:0:
256,192,118638,12,0,120429,0:0:0:0:
256,192,120877,5,8,0:0:0:0:
256,192,121325,1,8,0:0:0:0:
256,192,121773,1,0,0:0:0:0:
256,192,121996,1,8,0:0:0:0:
256,192,122668,1,8,0:0:0:0:
256,192,123564,1,0,0:0:0:0:
256,192,124011,1,8,0:0:0:0:
256,192,124459,1,8,0:0:0:0:
256,192,124907,1,8,0:0:0:0:
256,192,125355,1,0,0:0:0:0:
256,192,125579,1,8,0:0:0:0:
256,192,126250,1,8,0:0:0:0:
256,192,127146,1,0,0:0:0:0:
256,192,127593,1,8,0:0:0:0:
256,192,128041,1,8,0:0:0:0:
256,192,128489,1,8,0:0:0:0:
256,192,128937,1,0,0:0:0:0:
256,192,129161,1,8,0:0:0:0:
256,192,129832,1,8,0:0:0:0:
256,192,130728,1,0,0:0:0:0:
256,192,131176,1,8,0:0:0:0:
256,192,132071,1,8,0:0:0:0:
256,192,132519,1,0,0:0:0:0:
256,192,132967,1,8,0:0:0:0:
256,192,133638,1,8,0:0:0:0:
256,192,133862,1,0,0:0:0:0:
256,192,134086,1,8,0:0:0:0:
256,192,134310,1,8,0:0:0:0:
256,192,134758,1,0,0:0:0:0:
256,192,135653,1,8,0:0:0:0:
256,192,136101,1,0,0:0:0:0:
256,192,136325,1,8,0:0:0:0:
256,192,136773,1,8,0:0:0:0:
256,192,137444,1,8,0:0:0:0:
256,192,137892,1,8,0:0:0:0:
256,192,138340,1,0,0:0:0:0:
256,192,139011,1,8,0:0:0:0:
256,192,139235,1,8,0:0:0:0:
256,192,139683,1,0,0:0:0:0:
256,192,139907,1,8,0:0:0:0:
256,192,140355,1,8,0:0:0:0:
256,192,141026,1,8,0:0:0:0:
256,192,141474,1,8,0:0:0:0:
256,192,141922,1,0,0:0:0:0:
256,192,142817,1,8,0:0:0:0:
256,192,143265,1,0,0:0:0:0:
256,192,143489,1,8,0:0:0:0:
256,192,143937,1,8,0:0:0:0:
256,192,144385,1,0,0:0:0:0:
256,192,144832,1,8,0:0:0:0:
256,192,145056,1,0,0:0:0:0:
256,192,145504,1,4,0:0:0:0:
256,192,145952,1,0,0:0:0:0:
256,192,146399,1,8,0:0:0:0:
256,192,146623,1,8,0:0:0:0:
256,192,147071,1,0,0:0:0:0:
256,192,147295,1,8,0:0:0:0:
256,192,148190,1,8,0:0:0:0:
256,192,148414,1,0,0:0:0:0:
256,192,148638,1,0,0:0:0:0:
256,192,148862,1,0,0:0:0:0:
256,192,149086,1,8,0:0:0:0:
256,192,149534,1,0,0:0:0:0:
256,192,149758,1,0,0:0:0:0:
256,192,149982,1,8,0:0:0:0:
256,192,150429,1,0,0:0:0:0:
256,192,150877,1,8,0:0:0:0:
256,192,151101,1,8,0:0:0:0:
256,192,151549,1,0,0:0:0:0:
256,192,151996,1,0,0:0:0:0:
256,192,152444,1,0,0:0:0:0:
256,192,152668,1,8,0:0:0:0:
256,192,153116,1,0,0:0:0:0:
256,192,153564,1,8,0:0:0:0:
256,192,153788,1,8,0:0:0:0:
256,192,154235,1,0,0:0:0:0:
256,192,154459,1,8,0:0:0:0:
256,192,154907,1,8,0:0:0:0:
256,192,155131,1,0,0:0:0:0:
256,192,155579,1,0,0:0:0:0:
256,192,156026,1,0,0:0:0:0:
256,192,156250,1,8,0:0:0:0:
256,192,156698,1,0,0:0:0:0:
256,192,157146,1,0,0:0:0:0:
256,192,157370,1,8,0:0:0:0:
256,192,157817,1,8,0:0:0:0:
256,192,158041,1,0,0:0:0:0:
256,192,158489,1,8,0:0:0:0:
256,192,158937,1,0,0:0:0:0:
256,192,159161,1,8,0:0:0:0:
256,192,159608,1,0,0:0:0:0:
256,192,159832,1,8,0:0:0:0:
256,192,160280,1,0,0:0:0:0:
256,192,160504,1,0,0:0:0:0:
256,192,160728,1,8,0:0:0:0:
256,192,160952,1,0,0:0:0:0:
256,192,161176,1,8,0:0:0:0:
256,192,161623,1,0,0:0:0:0:
256,192,162071,1,8,0:0:0:0:
256,192,162519,1,0,0:0:0:0:
256,192,162743,1,8,0:0:0:0:
256,192,163190,1,8,0:0:0:0:
256,192,163414,1,0,0:0:0:0:
256,192,163638,1,8,0:0:0:0:
256,192,164086,1,8,0:0:0:0:
256,192,164310,1,0,0:0:0:0:
256,192,164534,1,8,0:0:0:0:
256,192,164982,1,0,0:0:0:0:
256,192,165205,1,0,0:0:0:0:
256,192,165429,1,8,0:0:0:0:
256,192,165877,1,8,0:0:0:0:
256,192,166101,1,0,0:0:0:0:
256,192,166549,1,0,0:0:0:0:
256,192,166996,1,8,0:0:0:0:
256,192,167220,1,0,0:0:0:0:
256,192,167444,1,8,0:0:0:0:
256,192,167668,1,0,0:0:0:0:
256,192,167892,1,8,0:0:0:0:
256,192,168340,1,8,0:0:0:0:
256,192,168564,1,0,0:0:0:0:
256,192,168788,1,8,0:0:0:0:
256,192,169235,1,8,0:0:0:0:
256,192,169459,1,0,0:0:0:0:
256,192,169683,1,0,0:0:0:0:
256,192,169907,1,8,0:0:0:0:
256,192,170355,1,8,0:0:0:0:
256,192,170579,1,0,0:0:0:0:
256,192,170802,1,8,0:0:0:0:
256,192,171250,1,8,0:0:0:0:
256,192,171474,1,0,0:0:0:0:
256,192,171698,1,8,0:0:0:0:
256,192,172146,1,0,0:0:0:0:
256,192,172370,1,8,0:0:0:0:
256,192,172593,1,0,0:0:0:0:
256,192,172817,1,8,0:0:0:0:
256,192,173265,1,8,0:0:0:0:
256,192,173489,1,0,0:0:0:0:
256,192,173713,1,8,0:0:0:0:
256,192,174161,1,0,0:0:0:0:
256,192,174608,1,8,0:0:0:0:
256,192,174832,1,0,0:0:0:0:
256,192,175056,1,8,0:0:0:0:
256,192,175280,1,8,0:0:0:0:
256,192,175504,1,0,0:0:0:0:
256,192,175952,1,8,0:0:0:0:
256,192,176399,1,8,0:0:0:0:
256,192,176623,1,0,0:0:0:0:
256,192,176847,1,8,0:0:0:0:
256,192,177071,1,0,0:0:0:0:
256,192,177295,1,8,0:0:0:0:
256,192,177519,1,8,0:0:0:0:
256,192,177743,1,0,0:0:0:0:
256,192,178190,1,8,0:0:0:0:
256,192,178414,1,0,0:0:0:0:
256,192,178638,1,8,0:0:0:0:
256,192,179086,1,0,0:0:0:0:
256,192,179310,1,8,0:0:0:0:
256,192,179982,1,8,0:0:0:0:
256,192,180653,1,0,0:0:0:0:
256,192,180877,1,8,0:0:0:0:
256,192,181101,1,8,0:0:0:0:
256,192,181325,1,0,0:0:0:0:
256,192,181773,1,8,0:0:0:0:
256,192,182220,1,8,0:0:0:0:
256,192,182668,1,0,0:0:0:0:
256,192,182892,1,8,0:0:0:0:
256,192,183564,1,8,0:0:0:0:
256,192,184235,1,0,0:0:0:0:
256,192,184459,1,8,0:0:0:0:
256,192,184683,1,8,0:0:0:0:
256,192,184907,1,0,0:0:0:0:
256,192,185355,1,8,0:0:0:0:
256,192,185579,1,0,0:0:0:0:
256,192,185802,1,8,0:0:0:0:
256,192,186250,1,0,0:0:0:0:
256,192,186474,1,0,0:0:0:0:
256,192,186922,1,8,0:0:0:0:
256,192,187370,1,0,0:0:0:0:
256,192,187593,1,0,0:0:0:0:
256,192,188041,1,8,0:0:0:0:
256,192,188489,1,0,0:0:0:0:
256,192,188937,1,8,0:0:0:0:
256,192,189161,1,0,0:0:0:0:
256,192,189385,1,8,0:0:0:0:
256,192,189608,1,8,0:0:0:0:
256,192,189832,1,0,0:0:0:0:
256,192,190280,1,8,0:0:0:0:
256,192,190728,1,0,0:0:0:0:
256,192,190952,1,0,0:0:0:0:
256,192,191176,1,0,0:0:0:0:
256,192,191399,1,8,0:0:0:0:
256,192,191623,1,0,0:0:0:0:
256,192,191847,1,8,0:0:0:0:
256,192,192071,1,0,0:0:0:0:
256,192,192519,1,8,0:0:0:0:
256,192,192743,1,0,0:0:0:0:
256,192,192967,1,8,0:0:0:0:
256,192,193414,1,0,0:0:0:0:
256,192,193638,1,8,0:0:0:0:
256,192,194310,1,8,0:0:0:0:
256,192,194758,1,0,0:0:0:0:
256,192,194982,1,8,0:0:0:0:
256,192,195205,1,0,0:0:0:0:
256,192,195429,1,0,0:0:0:0:
256,192,195653,1,8,0:0:0:0:
256,192,196101,1,0,0:0:0:0:
256,192,196325,1,8,0:0:0:0:
256,192,196773,1,8,0:0:0:0:
256,192,197220,1,0,0:0:0:0:
256,192,197444,1,8,0:0:0:0:
256,192,197892,1,8,0:0:0:0:
256,192,198564,1,0,0:0:0:0:
256,192,198788,1,8,0:0:0:0:
256,192,199011,1,8,0:0:0:0:
256,192,199235,1,0,0:0:0:0:
256,192,199683,1,8,0:0:0:0:
256,192,200131,1,8,0:0:0:0:
256,192,200579,1,0,0:0:0:0:
256,192,200802,1,0,0:0:0:0:
256,192,201250,1,8,0:0:0:0:
256,192,201698,1,0,0:0:0:0:
256,192,201922,1,0,0:0:0:0:
256,192,202370,1,8,0:0:0:0:
256,192,202817,1,0,0:0:0:0:
256,192,203265,1,8,0:0:0:0:
256,192,203489,1,8,0:0:0:0:
256,192,203713,1,0,0:0:0:0:
256,192,204161,1,8,0:0:0:0:
256,192,204608,12,0,206399,0:0:0:0:
256,192,206853,5,0,0:0:0:0:
256,192,207308,1,0,0:0:0:0:
256,192,207762,1,8,0:0:0:0:
256,192,208217,1,8,0:0:0:0:
256,192,208671,1,0,0:0:0:0:
256,192,209126,1,8,0:0:0:0:
256,192,209580,1,8,0:0:0:0:
256,192,210035,1,4,0:0:0:0:
256,192,210496,1,8,0:0:0:0:
256,192,210958,1,8,0:0:0:0:
256,192,211419,1,8,0:0:0:0:
256,192,211881,1,8,0:0:0:0:
256,192,212342,1,0,0:0:0:0:
256,192,212804,1,8,0:0:0:0:
256,192,213265,1,8,0:0:0:0:
256,192,213727,1,4,0:0:0:0:
256,192,214272,1,8,0:0:0:0:
256,192,214817,1,8,0:0:0:0:
256,192,215363,1,8,0:0:0:0:
256,192,215908,1,8,0:0:0:0:
256,192,216479,1,0,0:0:0:0:
256,192,217248,1,8,0:0:0:0:
256,192,218037,1,8,0:0:0:0:
256,192,220405,12,0,226721,0:0:0:0:
