osu file format v14

[General]
AudioFilename: audio.mp3
AudioLeadIn: 0
PreviewTime: 6448
Countdown: 0
SampleSet: Soft
StackLeniency: 0.5
Mode: 0
LetterboxInBreaks: 0
WidescreenStoryboard: 1

[Editor]
DistanceSpacing: 1
BeatDivisor: 4
GridSize: 8
TimelineZoom: 1

[Metadata]
Title:May Ritemed Ba Nito?
TitleUnicode:May Ritemed Ba Nito?
Artist:Susan Roces ft. Hatsune Miku V4X
ArtistUnicode:Susan Roces ft. Hatsune Miku V4X
Creator:_xyliac
Version:Tradless' May Ritemed ba para sa Akin
Source:
Tags:metax_v2 Shizuku- _xyliac Tradless Anima-kun Melty Gaze Fraye AJamez Shirou Crowley Akitoshi SurfChu85 3DMapPlayer justin1709 iMomoX CharlesMoveOn yuki_momoiro722 Pawlyk here arviejhay stygian131
BeatmapID:1586392
BeatmapSetID:753294

[Difficulty]
HPDrainRate:6
CircleSize:4
OverallDifficulty:8
ApproachRate:9
SliderMultiplier:1.6
SliderTickRate:1

[Events]
//Background and Video events
0,0,"bgg.jpg",0,0
//Break Periods
//Storyboard Layer 0 (Background)
//Storyboard Layer 1 (Fail)
//Storyboard Layer 2 (Pass)
//Storyboard Layer 3 (Foreground)
//Storyboard Sound Samples

[TimingPoints]
836,408.163265306122,4,2,0,50,1,0
836,-100,4,2,0,50,0,0
5938,-100,4,2,0,25,0,0
6550,-100,4,2,0,50,0,0
6856,-100,4,2,0,5,0,0
6958,-80,4,2,0,60,0,0
7264,-80,4,2,0,5,0,0
7367,-66.6666666666667,4,2,0,70,0,1
9101,-66.6666666666667,4,2,0,5,0,1
9203,-66.6666666666667,4,2,0,70,0,1
10529,-66.6666666666667,4,2,0,5,0,1
10631,-66.6666666666667,4,2,0,70,0,1
12366,-66.6666666666667,4,2,0,5,0,1
12468,-66.6666666666667,4,2,0,70,0,1
16142,-57.1428571428571,4,2,0,70,0,1
16754,-57.1428571428571,4,2,0,70,0,1
18591,-66.6666666666667,4,2,0,70,0,0
23693,-57.1428571428571,4,2,0,70,0,1
25121,-80,4,2,0,70,0,1
25938,-57.1428571428571,4,2,0,70,0,1
26958,-80,4,2,0,70,0,0
28591,-66.6666666666667,4,2,0,35,0,0

[Colours]
Combo1 : 114,200,196
Combo2 : 252,192,170

[HitObjects]
72,56,427,5,0,0:0:0:0:
40,136,631,1,0,0:0:0:0:
144,200,836,2,0,L|128:112,1,80
64,248,1244,2,0,P|96:280|128:296,1,80
208,256,1652,5,0,0:0:0:0:
200,352,1856,1,0,0:0:0:0:
144,200,2060,2,0,B|96:160|88:104|88:104|144:72|208:104,1,240
352,328,3284,6,0,L|360:248,1,80
264,168,3693,2,0,L|272:248,2,80
336,120,4305,1,0,0:0:0:0:
264,80,4509,2,0,B|222:60|184:64|184:64|152:96|112:96|112:96,1,160
115,95,5325,5,0,0:0:0:0:
200,280,5529,2,0,B|232:248|232:248|248:208|216:136|216:136,1,160
144,216,6550,6,0,P|120:260|132:328,1,120
208,280,6958,2,0,B|256:272|256:272|312:288|312:288|360:280,1,150
400,264,7366,5,0,0:0:0:0:
247,351,7570,1,0,0:0:0:0:
320,208,7774,2,0,B|344:152|344:152|328:88,1,120.000004577637
392,256,8182,2,0,B|434:158|434:158|406:45,1,180.000006866455
400,56,8591,5,0,0:0:0:0:
232,56,8795,2,0,P|256:136|344:152,1,180.000006866455
176,120,9203,2,0,P|257:139|315:71,1,180.000006866455
314,72,9611,1,0,0:0:0:0:
203,199,9815,2,0,P|260:138|230:54,1,180.000006866455
120,144,10223,6,0,B|112:208|112:208|128:264|128:264|120:320,1,180.000006866455
128,352,10631,1,0,0:0:0:0:
32,280,10835,1,0,0:0:0:0:
203,199,11040,2,0,B|240:184|240:184|320:200,1,120.000004577637
160,128,11448,2,0,B|224:101|224:101|364:129,1,180.000006866455
360,136,11856,1,0,0:0:0:0:
240,184,12060,6,0,B|209:221|227:269|227:269|285:265|302:219|302:219,1,180.000006866455
288,72,12468,6,0,B|270:26|220:18|220:18|194:70|225:108|225:108,1,180.000006866455
224,24,12876,1,0,0:0:0:0:
360,168,13080,6,0,B|407:175|440:136|440:136|407:87|359:96|359:96,1,180.000006866455
288,72,13489,1,0,0:0:0:0:
376,248,13693,1,0,0:0:0:0:
176,112,13897,5,0,0:0:0:0:
440,136,14101,1,0,0:0:0:0:
248,40,14305,5,0,0:0:0:0:
384,224,14509,2,0,B|336:248|336:248|208:224,1,180.000006866455
184,216,14917,1,0,0:0:0:0:
352,328,15121,5,0,0:0:0:0:
296,136,15325,1,0,0:0:0:0:
408,232,15529,5,0,0:0:0:0:
152,216,15733,1,0,0:0:0:0:
256,328,15938,5,0,0:0:0:0:
200,24,16142,2,0,B|218:126|218:126|206:152|206:152|226:173|226:173|248:299,1,280.000002670288
424,144,16754,2,0,B|384:120|384:120|336:120|336:120|296:144,1,140.000001335144
312,328,17162,6,0,B|361:192|361:192|304:224,1,210.000002002716
144,224,17570,6,0,B|237:334|237:334|238:269,1,210.000002002716
320,128,17978,6,0,B|177:153|177:153|233:186,1,210.000002002716
303,224,18387,1,0,0:0:0:0:
288,64,18591,6,0,L|152:88,1,120.000004577637
88,48,18999,1,0,0:0:0:0:
248,160,19203,2,0,B|272:240|272:240|296:200,1,120.000004577637
304,104,19509,5,0,0:0:0:0:
304,104,19611,2,0,P|232:88|184:112,1,120.000004577637
176,184,20019,1,0,0:0:0:0:
136,32,20223,1,0,0:0:0:0:
104,248,20427,6,0,B|168:224|232:256|232:256|280:216|248:160,1,240.000009155274
160,320,21040,6,0,B|224:336|264:376|264:376|280:312|328:272,1,240.000009155274
384,160,21653,1,0,0:0:0:0:
456,248,21857,1,0,0:0:0:0:
247,159,22061,2,0,B|183:175|183:175|151:161|143:135,1,120.000004577637
288,88,22468,6,0,P|325:132|320:192,1,120.000004577637
240,248,22876,2,0,P|288:288|344:288,1,120.000004577637
408,224,23284,1,0,0:0:0:0:
288,88,23488,1,0,0:0:0:0:
310,232,23693,6,0,B|277:296|277:296|296:363|296:363|360:327|360:327|377:256,1,280.000002670288,0|0,3:0|3:0,3:0:0:0:
304,160,24305,6,0,P|240:216|368:248,1,280.000002670288
392,168,24917,1,0,0:0:0:0:
288,88,25121,6,0,P|199:132|168:248,1,200,8|0,0:0|0:0,0:0:0:0:
288,208,25733,1,0,0:0:0:0:
296,56,25938,6,0,P|185:111|146:256,1,280.000002670288,8|0,0:0|0:0,0:0:0:0:
320,320,26550,1,0,0:0:0:0:
336,280,26652,1,0,0:0:0:0:
304,240,26754,1,0,0:0:0:0:
336,192,26856,1,0,0:0:0:0:
320,144,26958,6,0,B|360:120|360:120|328:168|320:200|320:200|248:168|176:200|176:200|144:144|176:80|176:80|232:112|248:168|248:168|256:264|200:328|200:328|144:320|112:272,1,800
256,192,28693,12,0,30631,0:0:0:0:
