osu file format v14

[General]
AudioFilename: audio.mp3
AudioLeadIn: 0
PreviewTime: 6448
Countdown: 0
SampleSet: Soft
StackLeniency: 0.2
Mode: 0
LetterboxInBreaks: 0
WidescreenStoryboard: 1

[Editor]
DistanceSpacing: 1
BeatDivisor: 4
GridSize: 4
TimelineZoom: 1

[Metadata]
Title:May Ritemed Ba Nito?
TitleUnicode:May Ritemed Ba Nito?
Artist:Susan Roces ft. Hatsune Miku V4X
ArtistUnicode:Susan Roces ft. Hatsune Miku V4X
Creator:_xyliac
Version:Tag 3 Kasi Dalawa Lang Naman Kaibigan Mo >:(
Source:
Tags:metax_v2 Shizuku- _xyliac Tradless Anima-kun Melty Gaze Fraye AJamez Shirou Crowley Akitoshi SurfChu85 3DMapPlayer justin1709 iMomoX CharlesMoveOn yuki_momoiro722 Pawlyk here arviejhay stygian131
BeatmapID:1586391
BeatmapSetID:753294

[Difficulty]
HPDrainRate:6
CircleSize:4
OverallDifficulty:10
ApproachRate:8
SliderMultiplier:1.8
SliderTickRate:1

[Events]
//Background and Video events
0,0,"bgg.jpg",0,0
//Break Periods
2,18791,22534
//Storyboard Layer 0 (Background)
//Storyboard Layer 1 (Fail)
//Storyboard Layer 2 (Pass)
//Storyboard Layer 3 (Foreground)
//Storyboard Sound Samples

[TimingPoints]
836,408.163265306122,4,2,0,50,1,0
6856,-100,4,2,0,5,0,0
6958,-100,4,2,0,50,0,0
7367,-66.6666666666667,4,2,0,70,0,1
18591,-66.6666666666667,4,2,0,70,0,0
23693,-66.6666666666667,4,2,0,70,0,1
26958,-66.6666666666667,4,2,0,70,0,0
28591,-66.6666666666667,4,2,0,35,0,0

[Colours]
Combo1 : 238,183,149
Combo2 : 233,233,235
Combo3 : 114,200,196

[HitObjects]
42,49,427,5,2,0:0:0:0:
175,49,631,1,2,0:0:0:0:
470,335,836,6,0,L|291:335,1,180,2|0,0:0|0:0,0:0:0:0:
290,335,1448,1,2,0:0:0:0:
468,24,1652,5,2,0:0:0:0:
468,162,1856,1,2,0:0:0:0:
44,360,2060,6,0,L|44:166,1,180,2|0,0:0|0:0,0:0:0:0:
44,180,2672,1,2,0:0:0:0:
177,180,2876,1,2,0:0:0:0:
44,180,3080,1,2,0:0:0:0:
457,366,3284,6,0,L|457:276,1,90,2|0,0:0|0:0,0:0:0:0:
342,151,3693,1,2,0:0:0:0:
380,366,3897,2,0,L|380:276,1,90,2|0,0:0|0:0,0:0:0:0:
342,151,4305,1,2,0:0:0:0:
17,311,4509,6,0,P|61:319|106:311,1,90,2|0,0:0|0:0,0:0:0:0:
173,197,4917,2,0,P|129:189|84:197,1,90,2|0,0:0|0:0,0:0:0:0:
105,311,5325,1,6,0:0:0:0:
85,197,5529,1,2,0:0:0:0:
455,27,6550,6,0,L|455:166,1,135,2|0,0:0|0:0,0:0:0:0:
455,297,6958,2,0,L|455:158,1,135,2|0,0:0|0:0,0:0:0:0:
53,27,7366,5,2,0:0:0:0:
104,112,7570,1,2,0:0:0:0:
155,27,7774,1,2,0:0:0:0:
53,27,7978,1,2,0:0:0:0:
155,197,8182,5,2,0:0:0:0:
257,27,8387,1,2,0:0:0:0:
53,27,8591,1,2,0:0:0:0:
155,197,8795,1,6,0:0:0:0:
351,197,10223,5,2,0:0:0:0:
155,197,10427,1,2,0:0:0:0:
351,197,10631,1,2,0:0:0:0:
155,343,10835,5,2,0:0:0:0:
351,343,11040,1,2,0:0:0:0:
155,343,11244,1,2,0:0:0:0:
351,51,11448,5,2,0:0:0:0:
155,51,11653,1,2,0:0:0:0:
155,343,11857,1,2,0:0:0:0:
351,343,12060,1,6,0:0:0:0:
256,291,13284,6,2,L|256:364,1,67.5000025749208
170,142,13489,6,2,L|107:106,1,67.5000025749208
341,142,13693,6,2,L|404:105,1,67.5000025749208
170,241,13897,6,2,L|107:278,1,67.5000025749208
341,241,14102,6,2,L|404:278,1,67.5000025749208
256,93,14305,6,2,L|256:20,1,67.5000025749208
256,192,14509,5,14,0:0:0:0:
256,25,14917,6,2,L|256:93,1,67.5000025749208
256,358,15121,6,2,L|256:291,1,67.5000025749208
111,108,15325,6,2,L|170:142,1,67.5000025749208
400,275,15529,6,2,L|341:241,1,67.5000025749208
111,275,15733,6,2,L|170:241,1,67.5000025749208
400,108,15937,6,2,L|341:142,1,67.5000025749208
256,192,16142,5,14,0:0:0:0:
46,44,16754,5,2,0:0:0:0:
466,340,16958,5,2,0:0:0:0:
46,340,17162,5,2,0:0:0:0:
466,44,17570,5,2,0:0:0:0:
46,44,17978,5,2,0:0:0:0:
466,340,18387,5,2,0:0:0:0:
46,44,18591,5,6,0:0:0:0:
46,340,23284,5,2,0:0:0:0:
466,44,23489,1,2,0:0:0:0:
19,135,23693,6,0,L|295:135,1,270.000010299683,6|0,0:0|0:0,0:0:0:0:
493,249,24305,2,0,L|217:249,1,270.000010299683,6|0,0:0|0:0,0:0:0:0:
19,135,24917,5,2,0:0:0:0:
256,362,25121,2,0,P|282:230|256:91,1,270.000010299683,6|0,0:0|0:0,0:0:0:0:
493,249,25733,5,2,0:0:0:0:
256,22,25938,2,0,P|230:154|256:293,1,270.000010299683,6|0,0:0|0:0,0:0:0:0:
256,22,26550,5,10,0:0:0:0:
108,277,26652,5,10,0:0:0:0:
403,277,26754,5,10,0:0:0:0:
256,22,26958,5,14,0:0:0:0:
256,192,27009,12,0,28591,0:0:0:0:
