osu file format v14

[General]
AudioFilename: audio.mp3
AudioLeadIn: 0
PreviewTime: 6448
Countdown: 0
SampleSet: Soft
StackLeniency: 0.5
Mode: 0
LetterboxInBreaks: 0
WidescreenStoryboard: 0

[Editor]
DistanceSpacing: 1
BeatDivisor: 4
GridSize: 4
TimelineZoom: 1

[Metadata]
Title:May Ritemed Ba Nito?
TitleUnicode:May Ritemed Ba Nito?
Artist:Susan Roces ft. Hatsune Miku V4X
ArtistUnicode:Susan Roces ft. Hatsune Miku V4X
Creator:_xyliac
Version:Mercury Drugs Parin Mga Ulol
Source:
Tags:metax_v2 Shizuku- _xyliac Tradless Anima-kun Melty Gaze Fraye AJamez Shirou Crowley Akitoshi SurfChu85 3DMapPlayer justin1709 iMomoX CharlesMoveOn yuki_momoiro722 Pawlyk here arviejhay stygian131
BeatmapID:1585928
BeatmapSetID:753294

[Difficulty]
HPDrainRate:5
CircleSize:4
OverallDifficulty:8
ApproachRate:9
SliderMultiplier:1.6
SliderTickRate:1

[Events]
//Background and Video events
0,0,"bgg.jpg",0,0
//Break Periods
2,18791,22684
//Storyboard Layer 0 (Background)
//Storyboard Layer 1 (Fail)
//Storyboard Layer 2 (Pass)
//Storyboard Layer 3 (Foreground)
//Storyboard Sound Samples

[TimingPoints]
836,408.163265306122,4,2,0,50,1,0
5938,-100,4,2,0,25,0,0
6550,-100,4,2,0,50,0,0
6856,-100,4,2,0,5,0,0
6958,-80,4,2,0,60,0,0
7264,-80,4,2,0,5,0,0
7367,-66.6666666666667,4,2,0,70,0,1
9101,-66.6666666666667,4,2,0,5,0,1
9203,-66.6666666666667,4,2,0,70,0,1
10529,-66.6666666666667,4,2,0,5,0,1
10631,-66.6666666666667,4,2,0,70,0,1
12366,-66.6666666666667,4,2,0,5,0,1
12468,-66.6666666666667,4,2,0,70,0,1
18591,-66.6666666666667,4,2,0,70,0,0
23693,-66.6666666666667,4,2,0,70,0,1
26958,-66.6666666666667,4,2,0,70,0,0
28591,-66.6666666666667,4,2,0,35,0,0

[Colours]
Combo1 : 114,200,196
Combo2 : 252,192,170

[HitObjects]
42,105,428,5,0,0:0:0:0:
131,64,632,1,0,0:0:0:0:
305,159,836,2,0,B|381:177|464:159|464:159,1,160,2|0,0:0|0:0,0:0:0:0:
463,159,1448,1,0,0:0:0:0:
299,82,1652,2,0,P|264:92|234:127,1,80,2|0,0:0|0:0,0:0:0:0:
309,346,2060,2,0,B|302:304|302:304|320:231|320:231|310:179,1,160,2|0,0:0|0:0,0:0:0:0:
385,308,2673,1,0,0:0:0:0:
235,228,2877,1,2,0:0:0:0:
235,228,3285,6,0,L|153:237,1,80,2|0,0:0|0:0,0:0:0:0:
112,150,3693,1,0,0:0:0:0:
6,137,3897,2,0,L|87:146,1,80,2|0,0:0|0:0,0:0:0:0:
42,253,4305,1,0,0:0:0:0:
187,112,4509,2,0,P|161:82|123:66,1,80,2|0,0:0|0:0,0:0:0:0:
265,82,4918,2,0,P|269:121|257:159,1,80,2|0,0:0|0:0,0:0:0:0:
187,112,5326,1,0,0:0:0:0:
372,42,5530,2,0,B|385:81|385:81|364:155|364:155|373:200,1,160,2|0,0:0|0:0,0:0:0:0:
157,258,6550,6,0,P|182:295|231:250,1,120,2|0,0:0|0:0,0:0:0:0:
83,197,6958,6,0,B|70:258|70:258|83:319|83:319|45:304,1,150,2|0,0:0|0:0,0:0:0:0:
157,258,7366,6,0,L|260:270,1,100,6|0,0:0|0:0,0:0:0:0:
323,159,7774,2,0,L|223:171,1,100,2|0,0:0|0:0,0:0:0:0:
285,362,8182,2,0,L|384:349,1,100,2|0,0:0|0:0,0:0:0:0:
295,71,8591,1,0,0:0:0:0:
256,270,8795,6,0,B|313:263|313:263|318:267|318:267|323:262|323:262|375:255|375:255|410:248|424:223,1,180.000006866455,2|0,0:0|0:0,0:0:0:0:
434,197,9203,1,2,0:0:0:0:
384,349,9407,1,2,0:0:0:0:
306,118,9611,1,2,0:0:0:0:
256,270,9815,1,2,0:0:0:0:
256,270,10223,2,0,B|222:237|178:245|178:245|169:239|169:239|163:249|163:249|122:264|109:309,1,180.000006866455,2|0,0:0|0:0,0:0:0:0:
110,330,10631,6,0,B|92:273|92:273|110:201,1,120.000004577637,6|0,0:0|0:0,0:0:0:0:
202,43,11040,2,0,B|216:101|216:101|198:158,1,120.000004577637,2|0,0:0|0:0,0:0:0:0:
0,94,11448,2,0,B|59:80|59:80|116:98,1,120.000004577637,2|0,0:0|0:0,0:0:0:0:
135,232,11856,1,0,0:0:0:0:
354,157,12060,6,0,B|316:145|280:177|280:177|276:185|276:185|272:177|272:177|236:145|196:157,1,180.000006866455,2|0,0:0|0:0,0:0:0:0:
337,236,12468,1,2,0:0:0:0:
373,75,12672,1,2,0:0:0:0:
337,236,12876,1,2,0:0:0:0:
373,75,13080,1,2,0:0:0:0:
213,187,13284,5,0,0:0:0:0:
475,164,13489,1,2,0:0:0:0:
163,63,13693,1,0,0:0:0:0:
271,334,13897,5,6,0:0:0:0:
348,53,14101,1,10,0:0:0:0:
137,262,14305,1,2,0:0:0:0:
475,164,14509,1,10,0:0:0:0:
475,164,14917,5,0,0:0:0:0:
160,99,15121,1,2,0:0:0:0:
443,318,15325,1,0,0:0:0:0:
137,81,15529,5,6,0:0:0:0:
432,41,15733,1,10,0:0:0:0:
111,281,15938,1,2,0:0:0:0:
472,320,16142,1,10,0:0:0:0:
472,320,16754,5,2,0:0:0:0:
405,169,16958,1,2,0:0:0:0:
308,303,17162,6,0,P|274:255|263:193,1,120.000004577637,6|0,0:0|0:0,0:0:0:0:
276,31,17570,2,0,P|251:84|203:124,1,120.000004577637,2|0,0:0|0:0,0:0:0:0:
56,194,17978,2,0,P|114:188|173:210,1,120.000004577637,10|0,0:0|0:0,0:0:0:0:
100,310,18387,1,2,0:0:0:0:
153,12,18591,1,2,0:0:0:0:
336,296,23284,5,2,0:0:0:0:
218,187,23489,1,2,0:0:0:0:
349,324,23693,2,0,L|473:339,1,120.000004577637,6|0,0:0|0:0,0:0:0:0:
339,105,24101,1,2,0:0:0:0:
164,368,24305,2,0,L|39:352,1,120.000004577637,10|0,0:0|0:0,0:0:0:0:
218,187,24713,1,2,0:0:0:0:
218,187,25121,6,0,B|231:247|218:309|218:309,1,120.000004577637,6|0,0:0|0:0,0:0:0:0:
72,48,25529,1,0,0:0:0:0:
96,170,25733,1,2,0:0:0:0:
326,89,25938,2,0,B|384:107|431:150|431:150,1,120.000004577637,10|0,0:0|0:0,0:0:0:0:
225,246,26346,2,2,L|218:187,1,60.0000022888184
321,263,26550,2,2,L|313:322,1,60.0000022888184
89,276,26754,1,2,0:0:0:0:
446,257,26958,5,6,0:0:0:0:
256,192,27009,12,0,28591,0:0:0:0:
