osu file format v14

[General]
AudioFilename: audio.mp3
AudioLeadIn: 0
PreviewTime: 6448
Countdown: 0
SampleSet: Soft
StackLeniency: 0.4
Mode: 0
LetterboxInBreaks: 0
WidescreenStoryboard: 1

[Editor]
Bookmarks: 23284
DistanceSpacing: 1
BeatDivisor: 4
GridSize: 4
TimelineZoom: 1.6

[Metadata]
Title:May Ritemed Ba Nito?
TitleUnicode:May Ritemed Ba Nito?
Artist:Susan Roces ft. Hatsune Miku V4X
ArtistUnicode:Susan Roces ft. Hatsune Miku V4X
Creator:_xyliac
Version:Arles
Source:
Tags:metax_v2 Shizuku- _xyliac Tradless Anima-kun Melty Gaze Fraye AJamez Shirou Crowley Akitoshi SurfChu85 3DMapPlayer justin1709 iMomoX CharlesMoveOn yuki_momoiro722 Pawlyk here arviejhay stygian131
BeatmapID:1589604
BeatmapSetID:753294

[Difficulty]
HPDrainRate:5
CircleSize:5
OverallDifficulty:10
ApproachRate:9.5
SliderMultiplier:2.81999990463257
SliderTickRate:1

[Events]
//Background and Video events
0,0,"bgg.jpg",0,0
//Break Periods
//Storyboard Layer 0 (Background)
//Storyboard Layer 1 (Fail)
//Storyboard Layer 2 (Pass)
//Storyboard Layer 3 (Foreground)
//Storyboard Sound Samples

[TimingPoints]
836,408.163265306122,4,2,0,40,1,0
836,-133.333333333333,4,2,0,40,0,0
6856,-133.333333333333,4,2,0,5,0,0
6958,-133.333333333333,4,2,0,40,0,0
7366,-80,4,2,0,60,0,1
18591,-100,4,2,0,40,0,0
22366,-100,4,2,0,5,0,0
22468,-100,4,2,0,40,0,0
23182,-100,4,2,0,5,0,0
23284,-100,4,2,0,40,0,0
23693,-66.6666666666667,4,2,0,60,0,1
28591,-200,4,2,0,20,0,0

[Colours]
Combo1 : 114,200,196
Combo2 : 252,192,170

[HitObjects]
310,48,427,5,2,0:0:0:0:
186,60,631,1,0,0:0:0:0:
312,21,836,2,0,B|337:65|312:111|312:111|321:129|321:129|293:174|323:224,1,211.500000915527,2|0,0:0|0:0,0:0:0:0:
390,174,1448,1,0,0:0:0:0:
141,237,1652,5,2,0:0:0:0:
270,335,1856,1,2,0:0:0:0:
125,123,2060,2,0,L|15:118,1,105.750000457764,2|0,0:0|0:0,0:0:0:0:
162,257,2468,5,0,0:0:0:0:
103,45,2672,1,0,0:0:0:0:
72,198,2876,1,2,0:0:0:0:
226,81,3080,1,0,0:0:0:0:
44,131,3284,6,0,P|6:166|2:217,1,105.750000457764,2|0,0:0|0:0,0:0:0:0:
91,347,3693,1,0,0:0:0:0:
293,197,3897,2,0,L|237:99,1,105.750000457764,2|0,0:0|0:0,0:0:0:0:
104,323,4305,1,0,0:0:0:0:
396,126,4509,5,2,0:0:0:0:
26,24,4917,5,2,0:0:0:0:
297,339,5325,5,2,0:0:0:0:
226,81,5529,1,2,0:0:0:0:
165,231,6550,6,0,B|60:253|60:253|104:217,1,158.625000686646,2|0,0:0|0:0,0:0:0:0:
347,153,6958,6,0,B|452:131|452:131|408:167,1,158.625000686646,2|0,0:0|0:0,0:0:0:0:
256,322,7366,5,14,0:0:0:0:
173,10,7570,1,0,0:0:0:0:
347,153,7774,1,2,0:0:0:0:
88,135,7978,5,0,0:0:0:0:
332,44,8182,2,0,B|373:24|399:60|447:51|447:51|423:78|388:55,1,176.249994039536,2|0,0:0|0:0,0:0:0:0:
54,141,8591,5,2,0:0:0:0:
261,341,8795,1,2,0:0:0:0:
140,278,9203,5,0,0:0:0:0:
356,295,9407,1,2,0:0:0:0:
73,345,9611,5,0,0:0:0:0:
401,224,9815,1,2,0:0:0:0:
49,70,10019,6,0,L|32:162,1,88.1249970197678
79,375,10223,1,2,0:0:0:0:
409,26,10427,2,0,L|426:118,1,88.1249970197678
379,331,10631,5,14,0:0:0:0:
181,124,10835,1,0,0:0:0:0:
370,250,11040,1,2,0:0:0:0:
59,165,11244,5,0,0:0:0:0:
383,59,11448,2,0,B|431:145|381:239|381:239,1,176.249994039536,2|0,0:0|0:0,0:0:0:0:
27,159,11856,5,2,0:0:0:0:
294,145,12060,1,2,0:0:0:0:
106,19,12468,5,0,0:0:0:0:
256,344,12672,1,2,0:0:0:0:
377,84,12876,1,0,0:0:0:0:
256,314,13080,1,2,0:0:0:0:
127,141,13284,1,0,0:0:0:0:
127,141,13387,1,0,0:0:0:0:
127,141,13489,6,0,P|163:117|213:108,1,88.1249970197678,2|0,0:0|0:0,0:0:0:0:
359,225,13693,2,0,P|326:196|277:181,1,88.1249970197678,2|0,0:0|0:0,0:0:0:0:
60,310,13897,5,14,0:0:0:0:
435,310,14101,1,2,0:0:0:0:
260,384,14305,1,2,0:0:0:0:
260,9,14509,1,2,0:0:0:0:
267,15,14917,5,0,0:0:0:0:
267,15,15019,1,0,0:0:0:0:
267,15,15121,2,0,L|257:118,1,88.1249970197678,2|0,0:0|0:0,0:0:0:0:
68,150,15325,2,0,L|58:47,1,88.1249970197678,2|0,0:0|0:0,0:0:0:0:
381,129,15529,5,14,0:0:0:0:
33,150,15733,1,2,0:0:0:0:
417,0,15938,1,2,0:0:0:0:
148,356,16142,1,2,0:0:0:0:
154,362,16550,5,0,0:0:0:0:
154,362,16652,1,0,0:0:0:0:
154,362,16754,2,0,P|142:324|141:268,1,88.1249970197678,2|0,0:0|0:0,0:0:0:0:
330,151,16958,2,0,P|328:194|315:236,1,88.1249970197678,2|0,0:0|0:0,0:0:0:0:
63,97,17162,5,14,0:0:0:0:
409,48,17366,1,2,0:0:0:0:
17,22,17570,5,10,0:0:0:0:
456,103,17774,1,2,0:0:0:0:
35,255,17978,5,14,0:0:0:0:
445,284,18182,1,2,0:0:0:0:
11,176,18387,5,10,0:0:0:0:
458,360,18591,1,2,0:0:0:0:
458,360,18999,5,0,0:0:0:0:
445,284,19203,1,2,0:0:0:0:
386,334,19407,1,0,0:0:0:0:
255,209,19611,6,0,L|272:281,1,70.4999976158143,2|0,0:0|0:0,0:0:0:0:
299,367,19815,1,0,0:0:0:0:
299,51,20019,6,0,L|282:123,1,70.4999976158143,2|0,0:0|0:0,0:0:0:0:
255,209,20223,1,0,0:0:0:0:
414,169,20427,5,6,0:0:0:0:
98,215,20835,5,0,0:0:0:0:
221,28,21448,5,0,0:0:0:0:
219,42,21652,1,2,0:0:0:0:
219,56,21856,1,0,0:0:0:0:
306,365,22060,6,0,B|343:299|298:218|298:218|270:231|261:260,1,211.499992847443
261,259,22468,2,0,P|307:280|290:217,1,140.999995231629,2|0,0:0|0:0,0:0:0:0:
168,200,22876,2,0,B|92:200|44:280|44:280|69:298|99:291,1,211.499992847443
98,291,23284,5,14,0:0:0:0:
428,129,23489,1,0,0:0:0:0:
428,129,23693,6,0,P|304:212|367:43,1,423.000001831055,14|0,0:0|0:0,0:0:0:0:
168,200,24305,6,0,P|271:118|221:280,1,423.000001831055,14|0,0:0|0:0,0:0:0:0:
127,295,24917,1,0,0:0:0:0:
304,108,25121,2,0,B|253:201|253:201|195:108,1,211.500000915527,14|0,0:0|0:0,0:0:0:0:
248,48,25529,5,0,0:0:0:0:
402,300,25733,1,2,0:0:0:0:
106,307,25938,1,0,0:0:0:0:
106,307,26346,5,0,0:0:0:0:
106,307,26448,1,0,0:0:0:0:
106,307,26550,2,0,L|92:198,1,105.750000457764
406,77,26754,2,0,L|419:185,1,105.750000457764
256,192,26958,1,14,0:0:0:0:
256,192,27009,12,0,28591,0:0:0:0:
