osu file format v14

[General]
AudioFilename: Survivor Burning Heart with lyrics.mp3
AudioLeadIn: 0
PreviewTime: -1
Countdown: 1
SampleSet: Normal
StackLeniency: 0.7
Mode: 0
LetterboxInBreaks: 1
WidescreenStoryboard: 1

[Editor]
Bookmarks: 15854
DistanceSpacing: 1.3
BeatDivisor: 4
GridSize: 8
TimelineZoom: 0.8

[Metadata]
Title:Burning Heart
TitleUnicode:Burning Heart
Artist:Survivor
ArtistUnicode:Survivor
Creator:Nagirops
Version:Hard
Source:Rocky
Tags:Rocky
BeatmapID:911813
BeatmapSetID:332400

[Difficulty]
HPDrainRate:6
CircleSize:4
OverallDifficulty:7
ApproachRate:8
SliderMultiplier:1.4
SliderTickRate:1

[Events]
//Background and Video events
0,0,"561a49ddd8.jpg",0,0
//Break Periods
//Storyboard Layer 0 (Background)
//Storyboard Layer 1 (Fail)
//Storyboard Layer 2 (Pass)
//Storyboard Layer 3 (Foreground)
//Storyboard Sound Samples

[TimingPoints]
1763,612.244897959184,4,1,0,100,1,0

[HitObjects]
64,48,844,5,0,0:0:0:0:
96,80,997,1,0,0:0:0:0:
128,112,1150,1,0,0:0:0:0:
264,232,1763,5,4,0:0:0:0:
344,184,2069,1,0,0:0:0:0:
416,128,2375,1,0,0:0:0:0:
472,64,2681,2,0,L|512:32,2,35
384,40,3293,1,0,0:0:0:0:
296,16,3599,1,0,0:0:0:0:
120,64,4211,6,0,L|80:96,2,35
200,104,4823,2,0,L|232:128,2,35
192,192,5435,1,0,0:0:0:0:
120,240,5741,1,0,0:0:0:0:
184,312,6047,1,0,0:0:0:0:
256,360,6353,1,0,0:0:0:0:
344,328,6659,2,0,L|376:360,4,35
376,240,7577,5,0,0:0:0:0:
448,184,7883,1,0,0:0:0:0:
392,112,8189,1,0,0:0:0:0:
456,48,8495,1,0,0:0:0:0:
456,48,8801,1,0,0:0:0:0:
184,0,9720,5,0,0:0:0:0:
152,32,9873,1,0,0:0:0:0:
128,72,10026,1,0,0:0:0:0:
152,112,10179,1,0,0:0:0:0:
184,144,10332,1,0,0:0:0:0:
272,152,10638,2,0,L|352:152,1,70
432,152,11250,2,0,L|496:208,1,70
488,288,11862,5,0,0:0:0:0:
488,376,12168,1,0,0:0:0:0:
400,376,12474,1,0,0:0:0:0:
352,376,12627,1,0,0:0:0:0:
304,376,12780,1,0,0:0:0:0:
216,376,13086,2,0,L|128:376,1,70
56,368,13698,2,0,L|56:272,1,70
104,224,14310,6,0,L|152:224,1,35
184,224,14616,1,0,0:0:0:0:
184,136,14922,2,0,L|120:136,1,35
104,136,15228,2,0,B|48:104|48:104|56:56|128:24|232:24,1,280
256,192,16759,12,0,18291,0:0:0:0:
48,80,18595,5,0,0:0:0:0:
136,88,18901,2,0,B|136:232|256:336|256:336|376:232|376:88,1,560
472,248,21961,6,0,L|352:344,1,140
184,336,23185,2,0,L|64:232,1,140
88,64,24410,1,0,0:0:0:0:
224,184,25022,1,0,0:0:0:0:
328,96,25481,2,0,L|376:128,1,35
416,184,25940,1,0,0:0:0:0:
416,184,26246,5,0,0:0:0:0:
440,272,26552,2,0,L|376:352,1,70
304,320,27164,1,0,0:0:0:0:
256,320,27317,1,0,0:0:0:0:
32,280,28082,2,0,P|-32:192|32:48,1,280
160,184,29918,1,0,0:0:0:0:
264,336,30530,1,0,0:0:0:0:
352,328,30836,5,0,0:0:0:0:
384,296,30989,1,0,0:0:0:0:
416,264,31142,1,0,0:0:0:0:
456,184,31449,2,0,L|456:112,1,70
456,24,32061,1,0,0:0:0:0:
232,24,32979,6,0,L|200:0,2,35
160,80,33591,1,0,0:0:0:0:
160,80,33744,1,0,0:0:0:0:
160,80,33897,1,0,0:0:0:0:
80,128,34203,1,0,0:0:0:0:
80,216,34509,2,0,P|128:320|216:344,1,210
392,344,36039,5,0,0:0:0:0:
480,184,36345,2,0,L|384:184,1,70
344,120,36957,1,0,0:0:0:0:
320,80,37110,1,0,0:0:0:0:
184,80,37569,1,0,0:0:0:0:
168,120,37722,1,0,0:0:0:0:
88,216,38181,2,0,B|88:328|88:328|216:328,1,210
368,328,39712,1,0,0:0:0:0:
432,160,40324,1,0,0:0:0:0:
472,80,40630,6,0,L|416:40,1,35
408,32,40936,1,0,0:0:0:0:
336,88,41242,1,0,0:0:0:0:
264,32,41548,1,0,0:0:0:0:
192,88,41854,1,0,0:0:0:0:
64,328,42772,5,0,0:0:0:0:
128,264,43078,1,0,0:0:0:0:
200,208,43384,2,0,L|136:144,3,70
96,80,44608,1,0,0:0:0:0:
96,80,44761,1,0,0:0:0:0:
96,80,44914,1,0,0:0:0:0:
184,80,45220,1,0,0:0:0:0:
264,32,45526,5,0,0:0:0:0:
304,48,45679,1,0,0:0:0:0:
344,72,45832,2,0,B|432:72|432:72|496:120,3,140
432,184,47975,1,0,0:0:0:0:
384,184,48128,1,0,0:0:0:0:
336,184,48281,1,0,0:0:0:0:
296,264,48587,1,0,0:0:0:0:
216,304,48893,1,0,0:0:0:0:
128,312,49199,6,0,P|64:256|64:184,1,140
80,24,50423,1,0,0:0:0:0:
112,56,50576,1,0,0:0:0:0:
152,80,50729,2,0,P|192:120|248:72,1,140
336,80,51647,1,0,0:0:0:0:
408,144,51953,1,0,0:0:0:0:
192,320,52885,6,0,L|192:224,1,70
192,160,53497,1,0,0:0:0:0:
152,144,53650,1,0,0:0:0:0:
64,120,54109,2,0,B|112:32|112:32|224:32,1,210
312,48,55334,5,0,0:0:0:0:
352,64,55487,1,0,0:0:0:0:
392,88,55640,1,0,0:0:0:0:
456,152,55946,1,0,0:0:0:0:
456,200,56099,1,0,0:0:0:0:
456,248,56252,1,0,0:0:0:0:
392,320,56558,1,0,0:0:0:0:
392,320,56711,1,0,0:0:0:0:
392,320,56865,2,0,B|312:360|312:360|240:360,1,140
176,328,57783,6,0,L|112:272,1,70
72,208,58395,1,0,0:0:0:0:
72,120,58701,1,0,0:0:0:0:
136,56,59007,1,0,0:0:0:0:
184,56,59160,1,0,0:0:0:0:
232,56,59314,1,0,0:0:0:0:
256,144,59620,1,0,0:0:0:0:
256,144,59926,1,0,0:0:0:0:
432,184,60538,5,0,0:0:0:0:
424,96,60844,2,0,L|472:72,2,35
336,96,61456,2,0,L|280:32,3,70
