osu file format v14

[General]
AudioFilename: audio.mp3
AudioLeadIn: 0
PreviewTime: 59911
Countdown: 0
SampleSet: Soft
StackLeniency: 0.3
Mode: 0
LetterboxInBreaks: 0
WidescreenStoryboard: 0

[Editor]
Bookmarks: 4516,14324,16631,23410,32765,41996,60462,78924,83539,88155
DistanceSpacing: 1.1
BeatDivisor: 4
GridSize: 4
TimelineZoom: 1.8

[Metadata]
Title:found & lost (TV Size)
TitleUnicode:found & lost (TV Size)
Artist:Survive Said The Prophet
ArtistUnicode:Survive Said The Prophet
Creator:AirinCat
Version:Normal
Source:BANANA FISH
Tags:バナナフィッシュ japanese and rock anime opening 1st first op mappa ash eiji yosh Yoshida Akimi 吉田 秋生
BeatmapID:1712548
BeatmapSetID:816544

[Difficulty]
HPDrainRate:3
CircleSize:3.2
OverallDifficulty:3
ApproachRate:5
SliderMultiplier:0.8
SliderTickRate:1

[Events]
//Background and Video events
Video,120,"vid.avi"
0,0,"screenshot.jpg",0,0
//Break Periods
2,16841,22364
//Storyboard Layer 0 (Background)
//Storyboard Layer 1 (Fail)
//Storyboard Layer 2 (Pass)
//Storyboard Layer 3 (Foreground)
//Storyboard Sound Samples

[TimingPoints]
488,288.461538461538,4,2,2,48,1,0
13757,-100,4,2,2,48,0,0
14334,-100,4,2,1,52,0,0
14622,-100,4,2,1,35,0,0
14911,-100,4,2,1,35,0,0
15199,-100,4,2,1,30,0,0
15487,-100,4,2,1,25,0,0
15776,-100,4,2,1,20,0,0
16064,-100,4,2,1,15,0,0
16353,-100,4,2,1,10,0,0
23420,-100,4,2,1,46,0,0
23564,-100,4,2,1,46,0,0
32795,-100,4,2,1,52,0,0
34959,-100,4,2,2,40,0,0
35103,-100,4,2,1,52,0,0
37843,-100,4,2,2,40,0,0
37987,-100,4,2,1,52,0,0
39574,-100,4,2,2,40,0,0
39718,-100,4,2,1,52,0,0
41449,-99.9999999999999,4,2,1,52,0,0
42026,-100,4,2,2,46,0,0
42891,-100,4,2,2,46,0,0
55872,-100,4,2,1,52,0,0
56161,-100,4,2,1,35,0,0
58757,-100,4,2,1,60,0,0
59045,-100,4,2,1,70,0,0
59334,-100,4,2,1,80,0,0
59622,-100,4,2,1,90,0,0
59911,-100,4,2,1,5,0,0
60199,-100,4,2,1,35,0,0
60487,-100,4,2,2,62,0,1
61858,-100,4,2,2,5,0,1
61930,-100,4,2,2,62,0,1
71088,-100,4,2,2,5,0,1
71161,-100,4,2,2,62,0,1
77795,-100,4,2,2,40,0,0
78372,-100,4,2,1,40,0,0
78949,-100,4,2,2,54,0,1
88180,-100,4,2,2,46,0,0

[Colours]
Combo1 : 237,121,27
Combo2 : 217,211,170
Combo3 : 251,215,13
SliderTrackOverride : 0,0,0

[HitObjects]
256,192,488,12,0,4526,0:0:0:0:
56,169,5103,6,0,P|41:118|55:45,1,120,14|10,0:0|0:0,0:0:0:0:
183,49,5968,2,0,P|197:99|184:173,1,120,10|10,0:0|0:0,0:0:0:0:
194,297,6834,1,10,0:0:0:0:
261,352,7122,1,10,0:0:0:0:
344,324,7411,6,0,P|385:308|436:312,1,80,14|0,0:0|1:0,0:0:0:0:
463,299,7843,2,0,L|453:204,1,80,10|0,0:0|1:0,0:0:0:0:
450,175,8276,2,0,P|408:183|322:163,1,120,10|10,0:0|0:0,0:0:0:0:
214,110,9141,1,10,0:0:0:0:
156,176,9430,1,10,0:0:0:0:
201,251,9718,6,8,P|224:306|206:367,1,120,14|10,0:0|0:0,0:0:0:0:
77,371,10584,2,8,P|53:315|71:254,1,120,10|10,0:0|0:0,0:0:0:0:
136,147,11449,1,10,0:0:0:0:
153,60,11737,1,10,0:0:0:0:
235,91,12026,6,0,P|278:99|324:90,1,80,14|0,0:0|1:0,0:0:0:0:
354,77,12459,2,0,B|424:56|424:56|477:87,1,120,10|10,0:0|0:0,0:0:0:0:
485,118,13036,2,0,L|480:252,1,120,10|8,0:0|0:0,0:0:0:0:
422,304,13757,2,0,P|375:292|331:301,1,80,14|10,0:0|0:0,0:0:0:0:
260,324,14334,1,14,0:0:0:0:
256,192,14622,12,0,16641,0:0:0:0:
116,263,23564,6,8,P|155:252|206:261,1,80,8|8,0:0|0:0,0:0:0:0:
276,286,24141,2,8,P|324:294|372:282,1,80,8|8,0:0|0:0,0:0:0:0:
429,242,24718,2,8,P|444:197|438:153,2,80,8|8|8,0:0|0:0|0:0,0:0:0:0:
358,188,25584,1,8,0:0:0:0:
375,101,25872,6,8,P|420:73|459:72,2,80,8|8|8,0:0|0:0|0:0,0:0:0:0:
287,113,26737,1,8,0:0:0:0:
222,53,27026,2,8,L|132:68,1,80,8|8,0:0|0:0,0:0:0:0:
61,100,27603,2,8,P|84:138|91:184,1,80,8|8,0:0|0:0,0:0:0:0:
65,256,28180,6,8,P|54:292|63:350,2,80,8|8|8,0:0|0:0|0:0,0:0:0:0:
150,235,29045,1,8,0:0:0:0:
191,312,29334,2,8,L|280:291,1,80,8|8,0:0|0:0,0:0:0:0:
351,262,29911,2,8,P|403:270|446:258,1,80,8|8,0:0|0:0,0:0:0:0:
487,199,30487,6,8,L|497:114,1,80,8|8,0:0|0:0,0:0:0:0:
471,35,31064,1,8,0:0:0:0:
392,74,31353,1,8,0:0:0:0:
320,23,31641,2,8,L|235:39,1,80,8|8,0:0|0:0,0:0:0:0:
156,61,32218,1,8,0:0:0:0:
81,13,32507,1,8,0:0:0:0:
32,86,32795,6,8,L|47:170,1,80,12|8,0:0|0:0,0:0:0:0:
117,216,33372,2,8,L|107:301,1,80,8|8,0:0|0:0,0:0:0:0:
183,340,33949,2,8,P|212:302|253:286,1,80,8|8,0:0|0:0,0:0:0:0:
328,285,34526,1,8,0:0:0:0:
324,197,34814,6,8,L|292:153,2,40,8|8|12,0:0|0:0|0:0,0:0:0:0:
412,218,35391,1,8,0:0:0:0:
482,165,35680,2,8,L|460:81,1,80,8|8,0:0|0:0,0:0:0:0:
378,58,36257,2,8,P|330:69|290:61,1,80,8|8,0:0|0:0,0:0:0:0:
218,31,36834,2,8,P|172:22|122:33,1,80,8|8,0:0|0:0,0:0:0:0:
58,60,37411,5,12,0:0:0:0:
49,147,37699,2,8,L|22:188,2,40,8|8|8,0:0|0:0|0:0,0:0:0:0:
137,151,38276,2,8,L|229:169,1,80,8|8,0:0|0:0,0:0:0:0:
293,197,38853,2,8,P|282:240|291:286,1,80,8|8,0:0|0:0,0:0:0:0:
357,327,39430,6,8,L|395:302,2,40,8|8|12,0:0|0:0|0:0,0:0:0:0:
274,357,40007,2,8,L|180:341,1,80,8|8,0:0|0:0,0:0:0:0:
108,357,40584,1,8,0:0:0:0:
39,301,40872,1,8,0:0:0:0:
53,214,41161,1,8,0:0:0:0:
134,181,41449,2,8,L|124:87,1,80,8|8,0:0|0:0,0:0:0:0:
73,29,42026,6,0,P|119:15|166:19,1,80,4|8,0:0|0:0,0:0:0:0:
234,170,42891,1,8,0:0:0:0:
277,93,43180,2,0,L|364:88,1,80,0|8,1:0|0:0,0:0:0:0:
442,100,43757,1,0,0:0:0:0:
413,183,44045,1,8,0:0:0:0:
482,237,44334,6,0,P|505:285|503:328,1,80,4|8,0:0|0:0,0:0:0:0:
333,346,45199,1,8,0:0:0:0:
333,258,45487,2,8,P|291:231|247:223,1,80,0|8,1:0|0:0,0:0:0:0:
178,245,46064,2,0,P|136:250|88:237,1,80,0|8,0:0|0:0,0:0:0:0:
53,166,46641,6,0,L|44:78,1,80,4|8,0:0|0:0,0:0:0:0:
218,55,47507,1,8,0:0:0:0:
272,124,47795,2,8,P|319:132|366:122,1,80,0|8,1:0|0:0,0:0:0:0:
397,52,48372,1,0,0:0:0:0:
476,89,48661,1,8,0:0:0:0:
436,167,48949,6,0,P|426:218|437:261,1,80,4|8,0:0|0:0,0:0:0:0:
293,355,49814,1,8,0:0:0:0:
302,267,50103,2,8,P|296:215|275:182,1,80,0|8,1:0|0:0,0:0:0:0:
217,131,50680,2,0,P|203:91|207:42,1,80,0|8,0:0|0:0,0:0:0:0:
288,77,51257,6,8,L|375:64,1,80,4|8,0:0|0:0,0:0:0:0:
462,213,52122,1,8,0:0:0:0:
378,186,52411,2,8,P|334:185|291:199,1,80,0|8,1:0|0:0,0:0:0:0:
222,236,52987,1,0,0:0:0:0:
273,307,53276,1,8,0:0:0:0:
190,336,53564,6,8,P|143:345|96:336,1,80,4|8,0:0|0:0,0:0:0:0:
20,190,54430,1,8,0:0:0:0:
107,196,54718,2,0,L|191:171,2,80,0|8|8,1:0|0:0|0:0,0:0:0:0:
256,294,55872,5,14,0:0:0:0:
256,192,56161,12,0,59911,0:0:0:0:
367,287,60487,6,0,B|311:265|311:265|201:297,1,160,12|10,0:0|0:0,0:0:0:0:
130,319,61353,1,2,0:0:0:0:
108,233,61641,2,0,L|131:61,1,160,8|10,0:0|0:0,0:0:0:0:
203,28,62507,1,10,0:0:0:0:
263,92,62795,6,8,B|347:115|346:64|434:95,1,160,12|10,0:0|0:0,0:0:0:0:
381,170,63661,1,2,0:0:0:0:
444,230,63949,2,0,P|441:269|419:316,1,80,8|0,0:0|1:0,0:0:0:0:
337,311,64526,2,0,P|293:307|249:324,1,80,10|10,0:0|0:0,0:0:0:0:
184,355,65103,6,0,B|88:325|88:325|67:250,1,160,12|10,0:0|0:0,0:0:0:0:
41,184,65968,1,2,0:0:0:0:
69,100,66257,2,0,L|160:95,1,80,8|0,0:0|1:0,0:0:0:0:
230,127,66834,1,10,0:0:0:0:
297,70,67122,1,10,0:0:0:0:
374,112,67411,6,0,B|470:108,1,80,14|0,0:0|1:0,0:0:0:0:
495,123,67843,2,0,P|482:165|487:213,1,80,8|0,0:0|1:0,0:0:0:0:
489,243,68276,2,0,B|440:238|440:238|402:254|402:254|323:240,1,160,10|8,0:0|0:0,0:0:0:0:
285,168,69141,1,0,1:0:0:0:
197,160,69430,1,0,1:0:0:0:
138,225,69718,6,0,B|93:276|110:333|110:333|163:355,1,160,14|10,0:0|0:0,0:0:0:0:
236,367,70584,1,2,0:0:0:0:
320,343,70872,2,8,P|339:243|343:169,1,160,8|10,0:0|0:0,0:0:0:0:
336,97,71737,1,10,0:0:0:0:
249,111,72026,6,8,B|178:136|163:83|88:111,1,160,12|10,0:0|0:0,0:0:0:0:
21,161,72891,1,2,0:0:0:0:
78,228,73180,2,0,P|77:268|65:314,1,80,8|0,0:0|1:0,0:0:0:0:
143,351,73757,2,0,P|191:345|230:324,1,80,10|10,0:0|0:0,0:0:0:0:
299,295,74334,6,0,B|354:274|405:299|405:299|438:246,1,160,12|10,0:0|0:0,0:0:0:0:
481,183,75199,1,2,0:0:0:0:
434,108,75487,2,0,L|343:124,1,80,8|0,0:0|1:0,0:0:0:0:
268,139,76064,1,10,0:0:0:0:
195,88,76353,1,10,0:0:0:0:
139,155,76641,6,0,B|151:245,1,80,14|0,0:0|1:0,0:0:0:0:
151,278,77074,2,0,L|65:288,1,80,10|0,0:0|1:0,0:0:0:0:
27,287,77507,2,0,B|18:214|18:214|29:181|29:181|23:125,1,160,10|0,0:0|1:0,0:0:0:0:
241,17,78949,6,0,L|370:24,1,120,14|10,0:0|0:0,0:0:0:0:
364,155,79814,2,0,L|230:173,1,120,10|10,0:0|0:0,0:0:0:0:
326,275,80680,1,10,0:0:0:0:
412,289,80968,1,10,0:0:0:0:
483,237,81257,6,0,L|474:144,1,80,14|0,0:0|1:0,0:0:0:0:
457,117,81689,2,0,P|392:105|333:130,1,120,10|10,0:0|0:0,0:0:0:0:
283,189,82411,2,0,B|297:237|297:237|289:283|289:283|295:323,2,120,12|8|12,0:0|0:0|0:0,0:0:0:0:
210,139,83564,6,0,L|76:139,1,120,14|10,0:0|0:0,0:0:0:0:
16,249,84430,2,0,L|150:251,1,120,10|10,0:0|0:0,0:0:0:0:
237,335,85295,1,10,0:0:0:0:
325,330,85584,1,10,0:0:0:0:
381,262,85872,6,0,P|386:220|374:167,1,80,14|0,0:0|1:0,0:0:0:0:
352,148,86305,2,0,P|301:154|261:144,1,80,10|0,0:0|1:0,0:0:0:0:
231,130,86737,2,0,P|167:120|102:144,1,120,14|8,0:0|0:0,0:0:0:0:
34,240,87603,2,8,L|56:316,1,80,8|8,0:0|0:0,0:0:0:0:
73,357,88036,1,8,0:0:0:0:
