osu file format v14

[General]
AudioFilename: audio.mp3
AudioLeadIn: 0
PreviewTime: 59911
Countdown: 0
SampleSet: Soft
StackLeniency: 0.3
Mode: 0
LetterboxInBreaks: 0
WidescreenStoryboard: 0

[Editor]
Bookmarks: 4516,14324,16631,23410,32765,41996,60462,78924,83539,88155
DistanceSpacing: 1.1
BeatDivisor: 2
GridSize: 4
TimelineZoom: 1.3

[Metadata]
Title:found & lost (TV Size)
TitleUnicode:found & lost (TV Size)
Artist:Survive Said The Prophet
ArtistUnicode:Survive Said The Prophet
Creator:AirinCat
Version:Easy
Source:BANANA FISH
Tags:バナナフィッシュ japanese and rock anime opening 1st first op mappa ash eiji yosh Yoshida Akimi 吉田 秋生
BeatmapID:1715817
BeatmapSetID:816544

[Difficulty]
HPDrainRate:2
CircleSize:3.2
OverallDifficulty:2
ApproachRate:3
SliderMultiplier:0.7
SliderTickRate:1

[Events]
//Background and Video events
Video,120,"vid.avi"
0,0,"screenshot.jpg",0,0
//Break Periods
2,16841,22124
//Storyboard Layer 0 (Background)
//Storyboard Layer 1 (Fail)
//Storyboard Layer 2 (Pass)
//Storyboard Layer 3 (Foreground)
//Storyboard Sound Samples

[TimingPoints]
488,288.461538461538,4,2,2,48,1,0
3949,-100,4,2,2,5,0,0
5103,-100,4,2,2,48,0,0
14334,-100,4,2,1,52,0,0
14622,-100,4,2,1,35,0,0
14911,-100,4,2,1,35,0,0
15199,-100,4,2,1,30,0,0
15487,-100,4,2,1,25,0,0
15776,-100,4,2,1,20,0,0
16064,-100,4,2,1,15,0,0
16353,-100,4,2,1,10,0,0
23420,-100,4,2,1,46,0,0
23564,-100,4,2,1,46,0,0
32795,-100,4,2,1,52,0,0
34959,-100,4,2,2,40,0,0
35103,-100,4,2,1,52,0,0
37843,-100,4,2,2,40,0,0
37987,-100,4,2,1,52,0,0
39574,-100,4,2,2,40,0,0
39718,-100,4,2,1,52,0,0
41449,-99.9999999999999,4,2,1,52,0,0
42026,-100,4,2,2,46,0,0
42891,-100,4,2,2,46,0,0
55872,-100,4,2,1,52,0,0
56161,-100,4,2,1,35,0,0
58757,-100,4,2,1,60,0,0
59045,-100,4,2,1,70,0,0
59334,-100,4,2,1,5,0,0
59622,-100,4,2,1,5,0,0
59911,-100,4,2,1,5,0,0
60199,-100,4,2,1,35,0,0
60487,-100,4,2,2,62,0,1
61858,-100,4,2,2,5,0,1
61930,-100,4,2,2,62,0,1
71088,-100,4,2,2,5,0,1
71161,-100,4,2,2,62,0,1
77795,-100,4,2,2,40,0,0
78372,-100,4,2,1,40,0,0
78949,-100,4,2,2,54,0,1
88180,-100,4,2,2,46,0,0

[Colours]
Combo1 : 237,121,27
Combo2 : 217,211,170
Combo3 : 251,215,13
SliderTrackOverride : 0,0,0

[HitObjects]
256,192,488,12,0,3949,0:0:0:0:
108,282,5103,6,0,P|155:268|216:280,1,105,14|10,0:0|0:0,0:0:0:0:
303,343,5968,2,0,P|350:356|409:346,1,105,10|10,0:0|0:0,0:0:0:0:
487,266,6834,2,8,L|476:189,1,70,10|10,0:0|0:0,0:0:0:0:
423,141,7411,6,0,L|428:32,2,105,14|10|10,0:0|0:0|0:0,0:0:0:0:
318,189,8709,1,10,0:0:0:0:
223,123,9141,2,0,L|147:132,1,70,10|10,0:0|0:0,0:0:0:0:
81,160,9718,6,8,P|93:214|82:268,1,105,14|10,0:0|0:0,0:0:0:0:
172,336,10584,2,8,P|247:329|279:339,1,105,10|10,0:0|0:0,0:0:0:0:
387,310,11449,2,8,L|381:230,1,70,10|10,0:0|0:0,0:0:0:0:
424,176,12026,6,0,L|428:64,2,105,14|10|10,0:0|0:0|0:0,0:0:0:0:
308,169,13324,1,10,0:0:0:0:
205,221,13757,2,0,L|128:212,1,70,14|10,0:0|0:0,0:0:0:0:
59,201,14334,1,14,0:0:0:0:
256,192,14622,12,0,16641,0:0:0:0:
211,51,23564,6,8,P|146:28|75:52,1,140
88,202,24718,2,8,P|158:223|222:194,1,140
251,128,25584,1,8,0:0:0:0:
326,112,25872,2,0,B|387:104|387:104|427:122|427:122|488:117,1,140,8|8,0:0|0:0,0:0:0:0:
364,239,27026,6,8,P|344:278|349:350,2,105,8|0|8,0:0|0:0|0:0,0:0:0:0:
314,180,28180,2,0,L|169:186,1,140,8|8,0:0|0:0,0:0:0:0:
89,314,29334,2,0,L|234:309,1,140,8|8,0:0|0:0,0:0:0:0:
297,344,30199,1,8,0:0:0:0:
365,308,30487,6,0,B|359:252|359:252|371:226|371:226|362:166,1,140,8|8,0:0|0:0,0:0:0:0:
428,31,31641,2,0,P|361:12|293:31,1,140,8|8,0:0|0:0,0:0:0:0:
189,143,32795,6,8,B|198:288,1,140,12|8,0:0|0:0,0:0:0:0:
43,282,33949,2,8,L|52:133,1,140
62,65,34814,1,8,0:0:0:0:
131,31,35103,2,8,B|181:21|181:21|228:44|266:24,1,140,12|8,0:0|0:0,0:0:0:0:
207,165,36257,6,8,P|182:211|186:263,2,105,8|0|8,0:0|0:0|0:0,0:0:0:0:
276,133,37411,2,0,L|422:138,1,140,12|8,0:0|0:0,0:0:0:0:
468,282,38564,2,0,L|326:276,1,140,8|8,0:0|0:0,0:0:0:0:
270,327,39430,1,8,0:0:0:0:
194,343,39718,6,8,B|130:320|116:376|58:351,1,140,12|8,0:0|0:0,0:0:0:0:
111,206,40872,2,8,B|175:183|189:239|247:214,1,140
376,297,42026,6,0,P|433:301|482:280,2,105,4|0|8,0:0|0:0|0:0,0:0:0:0:
339,229,43180,2,0,L|338:145,1,70,0|8,1:0|0:0,0:0:0:0:
273,117,43757,2,0,L|272:33,1,70,0|8,1:0|0:0,0:0:0:0:
204,10,44334,6,0,P|146:6|92:27,2,105,4|0|8,0:0|0:0|0:0,0:0:0:0:
272,47,45487,1,0,1:0:0:0:
418,96,46064,2,0,L|411:175,1,70,0|8,0:0|0:0,0:0:0:0:
390,239,46641,6,0,L|381:357,2,105,4|0|8,0:0|0:0|0:0,0:0:0:0:
334,185,47795,2,0,L|264:175,1,70,0|8,1:0|0:0,0:0:0:0:
200,218,48372,2,0,L|121:219,1,70,0|8,0:0|0:0,0:0:0:0:
70,170,48949,6,0,P|66:119|39:74,2,105,4|0|8,0:0|0:0|0:0,0:0:0:0:
53,245,50103,1,0,1:0:0:0:
143,370,50680,2,0,L|217:361,1,70,0|8,0:0|0:0,0:0:0:0:
281,327,51257,6,0,P|333:327|390:362,2,105,4|0|8,0:0|0:0|0:0,0:0:0:0:
220,279,52411,2,0,L|221:200,1,70,0|8,1:0|0:0,0:0:0:0:
280,160,52987,2,0,L|282:84,1,70,0|8,0:0|0:0,0:0:0:0:
214,51,53564,2,0,L|105:68,2,105,4|0|8,0:0|0:0|0:0,0:0:0:0:
281,12,54718,2,0,L|365:1,2,70,0|8|8,1:0|0:0|0:0,0:0:0:0:
204,146,55872,5,14,0:0:0:0:
256,192,56161,12,0,58468,0:0:0:0:
476,277,60487,6,0,P|422:253|331:267,1,140,12|10,0:0|0:0,0:0:0:0:
280,306,61353,1,2,0:0:0:0:
216,349,61641,2,0,P|138:353|82:310,1,140,8|10,0:0|0:0,0:0:0:0:
38,261,62507,1,10,0:0:0:0:
83,198,62795,6,0,B|106:129|53:117|84:51,1,140,12|10,0:0|0:0,0:0:0:0:
143,18,63661,1,2,0:0:0:0:
212,51,63949,2,0,P|282:73|354:55,2,140,8|10|12,0:0|0:0|0:0,0:0:0:0:
58,34,65680,6,0,L|51:114,1,70,10|2,0:0|0:0,0:0:0:0:
41,180,66257,1,8,0:0:0:0:
194,198,66834,2,8,L|280:203,1,70,10|10,0:0|0:0,0:0:0:0:
317,257,67411,6,0,L|430:262,2,105,14|8|10,0:0|0:0|0:0,0:0:0:0:
276,322,68564,2,0,L|125:315,1,140,14|0,0:0|1:0,0:0:0:0:
61,180,69718,6,8,P|129:163|201:182,1,140,14|10,0:0|0:0,0:0:0:0:
255,227,70584,1,2,0:0:0:0:
311,279,70872,2,8,P|357:303|444:291,1,140,8|10,0:0|0:0,0:0:0:0:
499,240,71737,1,10,0:0:0:0:
449,180,72026,6,0,B|428:134|428:134|444:35,1,140,12|10,0:0|0:0,0:0:0:0:
374,9,72891,1,2,0:0:0:0:
303,39,73180,2,0,P|233:59|155:39,2,140,8|10|12,0:0|0:0|0:0,0:0:0:0:
431,123,74911,6,0,L|418:205,1,70,10|2,0:0|0:0,0:0:0:0:
401,266,75487,1,8,0:0:0:0:
271,349,76064,2,8,L|196:338,1,70,10|10,0:0|0:0,0:0:0:0:
126,320,76641,1,14,0:0:0:0:
80,213,77074,1,10,0:0:0:0:
135,111,77507,2,0,B|204:96|204:96|268:103|268:103|354:89,1,210,10|2,0:0|0:0,0:0:0:0:
453,196,78949,6,0,L|339:215,1,105,14|10,0:0|0:0,0:0:0:0:
285,309,79814,2,0,L|167:301,1,105,10|10,0:0|0:0,0:0:0:0:
73,256,80680,2,0,L|66:174,1,70,10|10,0:0|0:0,0:0:0:0:
113,124,81257,6,0,L|103:11,2,105,14|10|10,0:0|0:0|0:0,0:0:0:0:
171,173,82411,2,0,B|215:160|215:160|269:160|269:160|312:173,1,140,12|8,0:0|0:0,0:0:0:0:
378,205,83276,1,12,0:0:0:0:
443,164,83564,6,0,P|454:113|445:61,1,105,14|10,0:0|0:0,0:0:0:0:
345,2,84430,2,8,P|293:-1|233:24,1,105,10|10,0:0|0:0,0:0:0:0:
156,91,85295,2,8,L|152:172,1,70,10|10,0:0|0:0,0:0:0:0:
146,237,85872,5,14,0:0:0:0:
245,299,86305,1,10,0:0:0:0:
356,270,86737,2,0,L|469:281,1,105,14|8,0:0|0:0,0:0:0:0:
509,174,87603,2,8,L|401:163,1,105,8|8,0:0|0:0,0:0:0:0:
