osu file format v14

[General]
AudioFilename: audio.mp3
AudioLeadIn: 0
PreviewTime: 31428
Countdown: 0
SampleSet: Soft
StackLeniency: 0.7
Mode: 2
LetterboxInBreaks: 0
WidescreenStoryboard: 1

[Editor]
Bookmarks: 1113,11218,21323,30165,31428,41534,51639,61744,71849,81955
DistanceSpacing: 0.8
BeatDivisor: 4
GridSize: 4
TimelineZoom: 2.2

[Metadata]
Title:MUKANJYO (TV Size)
TitleUnicode:MUKANJYO (TV Size)
Artist:Survive Said The Prophet
ArtistUnicode:Survive Said The Prophet
Creator:Benita
Version:Rain
Source:ヴィンランド・サガ
Tags:Vinland Saga Opening op anime japanese j-rock jrock j-pop jpop BeatingHeart EclipZ Benny- BennyBananas
BeatmapID:2722046
BeatmapSetID:1313402

[Difficulty]
HPDrainRate:6
CircleSize:3.8
OverallDifficulty:9
ApproachRate:9
SliderMultiplier:1.8
SliderTickRate:2

[Events]
//Background and Video events
0,0,"bg.jpg",0,0
//Break Periods
//Storyboard Layer 0 (Background)
//Storyboard Layer 1 (Fail)
//Storyboard Layer 2 (Pass)
//Storyboard Layer 3 (Foreground)
//Storyboard Layer 4 (Overlay)
//Storyboard Sound Samples

[TimingPoints]
1118,315.789473684211,4,2,1,30,1,0
11223,-100,4,2,1,60,0,0
21328,-100,4,2,1,60,0,0
30170,-100,4,2,1,40,0,0
31433,-100,4,2,1,80,0,1
41460,-100,4,2,1,80,0,0
41539,-100,4,2,1,80,0,1
51644,-100,4,2,1,70,0,0
71854,-100,4,2,1,80,0,1
81960,-100,4,2,1,80,0,0
84486,-100,4,2,1,60,0,0
85749,-100,4,2,1,50,0,0
87012,-100,4,2,1,5,0,0

[Colours]
Combo1 : 209,157,81
Combo2 : 218,99,68
Combo3 : 218,68,68

[HitObjects]
185,327,1118,5,0,0:0:0:0:
290,270,1275,1,2,0:0:0:0:
183,241,1433,2,0,L|177:112,1,90
333,106,1749,2,0,L|136:102,1,180,2|0,0:0|0:0,0:0:0:0:
419,99,2381,6,0,L|421:213,1,90,2|0,0:0|0:0,0:0:0:0:
314,219,2696,1,2,0:0:0:0:
422,244,2854,1,0,0:0:0:0:
269,291,3012,2,0,L|152:286,1,90,2|0,0:0|0:0,0:0:0:0:
290,247,3328,2,0,L|387:245,1,90,2|0,0:0|0:0,0:0:0:0:
225,220,3644,6,0,P|173:182|235:91,1,180,2|0,0:0|0:0,0:0:0:0:
302,90,4118,1,0,0:0:0:0:
453,82,4275,2,0,L|266:70,1,180,2|0,0:0|0:0,0:0:0:0:
363,21,4749,1,0,0:0:0:0:
210,72,4907,6,0,L|213:194,1,90,2|0,0:0|0:0,0:0:0:0:
367,189,5223,1,2,0:0:0:0:
204,235,5539,2,0,L|86:237,1,90,2|0,0:0|0:0,0:0:0:0:
249,202,5854,2,0,L|367:197,1,90,2|0,0:0|0:0,0:0:0:0:
185,176,6170,6,0,P|126:134|169:15,1,180,2|0,0:0|0:0,0:0:0:0:
229,32,6644,2,0,L|431:33,1,180,2|0,0:0|0:0,0:0:0:0:
327,99,7118,2,0,P|265:165|333:228,1,180,2|0,0:0|0:0,0:0:0:0:
403,225,7591,6,0,L|417:34,1,180,2|0,0:0|0:0,0:0:0:0:
321,43,8065,2,0,L|221:43,2,90,2|0|0,0:0|0:0|0:0,0:0:0:0:
421,39,8539,1,0,0:0:0:0:
270,171,8696,6,0,L|85:173,1,180,2|0,0:0|0:0,0:0:0:0:
193,112,9170,2,0,L|395:113,1,180,2|0,0:0|0:0,0:0:0:0:
279,135,9644,2,0,P|217:201|254:294,1,180,2|0,0:0|0:0,0:0:0:0:
330,294,10118,6,0,L|110:300,1,180,2|0,0:0|0:0,0:0:0:0:
247,251,10591,2,0,L|252:150,1,90,2|0,0:0|0:0,0:0:0:0:
161,156,10907,2,0,L|161:49,1,90,2|0,0:0|0:0,0:0:0:0:
381,77,11223,6,0,L|428:80,1,45,8|0,1:2|1:2,1:2:0:0:
428,140,11381,2,0,L|368:140,1,45,0|0,1:2|1:2,1:2:0:0:
210,127,11539,2,0,P|153:202|210:251,1,180,8|8,1:2|0:0,0:0:0:0:
294,251,12012,1,0,0:0:0:0:
447,244,12170,2,0,L|445:146,1,90,8|0,0:0|0:0,0:0:0:0:
291,147,12486,6,0,L|288:47,1,90,8|0,0:0|0:0,0:0:0:0:
381,48,12802,1,8,0:0:0:0:
289,18,12960,1,0,0:0:0:0:
442,120,13118,2,0,L|255:114,1,180,8|8,0:0|0:0,0:0:0:0:
329,49,13591,1,0,0:0:0:0:
95,96,13749,6,0,L|87:151,1,45,8|0,1:2|1:2,1:2:0:0:
126,172,13907,2,0,L|182:176,1,45,0|0,1:2|1:2,1:2:0:0:
364,175,14065,2,0,P|395:132|345:22,1,180,8|8,1:2|0:0,0:0:0:0:
265,22,14539,1,0,0:0:0:0:
113,145,14696,2,0,L|204:147,1,90,8|0,0:0|0:0,0:0:0:0:
51,280,15012,6,0,L|157:277,2,90,8|0|8,0:0|0:0|0:0,0:0:0:0:
205,180,15486,2,0,P|251:251|209:326,1,180
53,331,15960,2,0,L|48:226,1,90,8|8,0:0|0:3,0:0:0:0:
106,217,16196,1,8,0:3:0:0:
314,217,16275,6,0,L|381:218,1,45,8|0,1:2|1:2,1:2:0:0:
365,163,16433,2,0,L|311:162,1,45,0|0,1:2|1:2,1:2:0:0:
147,159,16591,1,8,1:2:0:0:
42,133,16749,2,0,P|62:73|178:26,1,180
260,35,17223,2,0,P|307:64|258:162,1,180,8|8,0:0|0:0,0:0:0:0:
165,167,17696,2,0,P|129:205|184:304,1,180
281,310,18170,2,0,L|375:309,1,90,8|0,0:0|0:0,0:0:0:0:
261,263,18486,2,0,L|162:256,1,90,8|0,0:0|0:0,0:0:0:0:
401,227,18802,6,0,L|454:228,1,45,8|0,1:2|1:2,1:2:0:0:
448,167,18960,2,0,L|396:172,1,45,0|0,1:2|1:2,1:2:0:0:
207,180,19118,1,8,1:2:0:0:
104,145,19275,2,0,P|136:64|221:47,1,180
318,67,19749,2,0,P|370:133|326:206,1,180,8|8,0:0|0:0,0:0:0:0:
231,232,20223,2,0,L|420:228,1,180
314,192,20696,2,0,L|206:189,1,90,8|0,0:0|0:0,0:0:0:0:
361,157,21012,2,0,L|360:57,1,90,12|0,0:0|0:0,0:0:0:0:
296,49,21249,1,0,0:0:0:0:
121,57,21328,6,0,L|40:67,1,45,8|0,1:2|1:2,1:2:0:0:
62,130,21486,2,0,L|143:118,1,45,0|0,1:2|1:2,1:2:0:0:
259,110,21644,1,8,1:2:0:0:
368,132,21802,2,0,L|366:235,1,90,0|8,0:0|0:0,0:0:0:0:
249,218,22118,2,0,L|251:286,1,45,0|0,1:2|1:2,1:2:0:0:
331,289,22275,2,0,L|400:295,1,45,8|0,1:2|1:2,1:2:0:0:
384,237,22433,2,0,L|335:230,1,45,0|0,1:2|1:2,1:2:0:0:
146,220,22591,6,0,P|111:182|167:83,1,180,8|8,1:2|0:0,0:0:0:0:
256,84,23065,1,0,0:0:0:0:
409,147,23223,2,0,L|411:248,1,90,8|0,0:0|0:0,0:0:0:0:
257,281,23539,1,8,0:0:0:0:
348,297,23696,1,0,0:0:0:0:
129,307,23854,6,0,L|81:303,1,45,8|0,1:2|1:2,1:2:0:0:
84,239,24012,2,0,L|135:241,1,45,0|0,1:2|1:2,1:2:0:0:
295,245,24170,1,0,1:2:0:0:
432,234,24328,2,0,L|436:135,1,90,0|8,0:0|0:0,0:0:0:0:
302,130,24644,2,0,L|249:129,1,45,0|0,1:2|1:2,1:2:0:0:
208,151,24802,2,0,L|204:231,1,45,8|0,1:2|1:2,1:2:0:0:
251,247,24960,2,0,L|317:247,1,45,0|0,1:2|1:2,1:2:0:0:
139,302,25118,6,0,P|86:280|123:181,1,180,8|8,1:2|0:0,0:0:0:0:
222,172,25591,1,0,0:0:0:0:
374,203,25749,2,0,L|386:305,1,90,8|0,0:0|0:0,0:0:0:0:
229,313,26065,2,0,L|130:311,1,90,12|0,0:0|0:0,0:0:0:0:
378,280,26381,6,0,L|389:218,1,45,8|0,1:2|1:2,1:2:0:0:
368,205,26539,2,0,L|317:198,1,45,0|0,1:2|1:2,1:2:0:0:
146,193,26696,1,8,1:2:0:0:
250,185,26854,2,0,L|250:88,1,90,0|8,0:0|0:0,0:0:0:0:
151,83,27170,2,0,L|149:128,1,45,0|0,1:2|1:2,1:2:0:0:
211,164,27328,2,0,L|268:165,1,45,8|0,1:2|1:2,1:2:0:0:
260,226,27486,2,0,L|200:232,1,45,0|0,1:2|1:2,1:2:0:0:
44,242,27644,6,0,P|17:189|95:88,1,180,8|8,1:2|0:0,0:0:0:0:
166,79,28118,1,0,0:0:0:0:
316,171,28275,2,0,L|440:166,2,90,8|0|8,0:0|0:0|0:0,0:0:0:0:
157,183,28749,1,0,0:0:0:0:
411,249,28907,6,0,L|415:198,1,45,8|0,1:2|1:2,1:2:0:0:
386,182,29065,2,0,L|326:176,1,45,0|0,1:2|1:2,1:2:0:0:
148,178,29223,2,0,P|118:135|186:44,1,180,8|8,1:2|0:0,0:0:0:0:
323,48,29696,2,0,L|323:99,1,45,0|0,1:2|1:2,1:2:0:0:
258,141,29854,2,0,L|199:145,1,45,8|0,1:2|1:2,1:2:0:0:
212,197,30012,2,0,L|269:197,1,45,0|0,1:2|1:2,1:2:0:0:
444,195,30170,6,0,L|475:94,1,90,8|0,0:3|0:0,0:0:0:0:
316,97,30486,2,0,L|128:86,1,180,2|2,0:0|0:0,0:0:0:0:
228,24,30960,1,0,0:0:0:0:
75,49,31118,2,0,P|54:101|106:162,1,135,2|0,0:0|0:0,0:0:0:0:
347,195,31433,6,0,L|462:191,2,90,4|8|8,1:2|0:0|0:0,0:0:0:0:
175,208,31907,2,0,L|173:112,1,90,0|8,1:2|0:0,0:0:0:0:
274,87,32223,1,8,0:0:0:0:
445,125,32381,2,0,L|450:235,1,90,0|8,1:2|0:0,0:0:0:0:
169,222,32696,6,0,L|60:222,2,90,0|8|8,1:2|0:0|0:0,0:0:0:0:
332,222,33170,2,0,L|348:123,1,90,0|8,1:2|0:0,0:0:0:0:
229,128,33486,1,8,0:0:0:0:
400,124,33644,2,0,L|491:118,1,90,0|8,1:2|0:0,0:0:0:0:
243,95,33960,6,0,L|112:94,2,90,0|8|8,1:2|0:0|0:0,0:0:0:0:
405,68,34433,1,0,1:2:0:0:
299,69,34591,1,8,0:0:0:0:
195,69,34749,1,8,0:0:0:0:
357,146,34907,2,0,L|353:256,1,90,0|8,1:2|0:0,0:0:0:0:
47,270,35223,6,0,L|166:266,2,90,0|8|8,1:2|0:0|0:0,0:0:0:0:
219,295,35696,2,0,L|227:196,1,90,0|8,1:2|0:0,0:0:0:0:
127,193,36012,1,8,0:0:0:0:
301,189,36170,2,0,L|392:184,1,90,0|8,1:2|0:0,0:0:0:0:
338,128,36407,1,8,0:0:0:0:
147,135,36486,6,0,L|52:133,1,90,0|8,1:2|0:0,0:0:0:0:
307,91,36802,2,0,L|315:205,1,90,8|0,0:0|1:2,0:0:0:0:
177,214,37118,2,0,L|184:319,1,90,8|8,0:0|0:0,0:0:0:0:
294,326,37433,2,0,L|399:323,1,90,0|8,1:2|0:0,0:0:0:0:
131,325,37749,6,0,L|127:216,1,90,0|8,1:2|0:0,0:0:0:0:
351,244,38065,2,0,L|354:124,1,90,8|0,0:0|1:2,0:0:0:0:
227,134,38381,2,0,L|150:63,1,90,8|8,0:0|0:0,0:0:0:0:
305,89,38696,2,0,L|314:-11,1,90,0|8,1:2|0:0,0:0:0:0:
49,95,39012,6,0,L|38:202,1,90,0|8,1:2|0:0,0:0:0:0:
141,230,39328,1,8,0:0:0:0:
297,206,39486,2,0,L|401:183,2,90,0|8|8,1:2|0:0|0:0,0:0:0:0:
44,192,39960,6,0,L|147:175,2,90,0|8|8,1:2|0:0|0:0,0:0:0:0:
263,281,40433,2,0,P|320:233|261:152,1,180,0|8,1:2|0:0,0:0:0:0:
230,151,40828,1,8,0:0:0:0:
72,160,40907,2,0,L|64:276,1,90,4|8,1:2|0:0,0:0:0:0:
121,280,41144,1,8,0:0:0:0:
291,279,41223,2,0,L|344:274,1,45,0|0,1:2|1:2,1:2:0:0:
158,235,41381,2,0,L|110:227,1,45,0|0,1:2|1:2,1:2:0:0:
286,177,41539,6,0,L|401:173,2,90,4|8|8,1:2|0:0|0:0,0:0:0:0:
114,105,42012,1,0,1:2:0:0:
223,103,42170,1,8,0:0:0:0:
329,106,42328,1,8,0:0:0:0:
153,199,42487,2,0,L|158:309,1,90,0|8,1:2|0:0,0:0:0:0:
394,308,42802,6,0,L|503:308,2,90,0|8|8,1:2|0:0|0:0,0:0:0:0:
221,307,43276,2,0,L|205:208,1,90,0|8,1:2|0:0,0:0:0:0:
324,213,43592,1,8,0:0:0:0:
165,209,43750,2,0,L|74:203,1,90,0|8,1:2|0:0,0:0:0:0:
299,195,44066,6,0,L|430:194,2,90,0|8|8,1:2|0:0|0:0,0:0:0:0:
126,211,44539,2,0,L|123:109,1,90,0|8,1:2|0:0,0:0:0:0:
230,110,44854,1,8,0:0:0:0:
57,115,45013,2,0,L|53:225,1,90,0|8,1:2|0:0,0:0:0:0:
341,280,45329,6,0,L|222:276,2,90,0|8|8,1:2|0:0|0:0,0:0:0:0:
169,298,45802,2,0,L|166:200,1,90,0|8,1:2|0:0,0:0:0:0:
265,201,46118,1,8,0:0:0:0:
95,192,46276,2,0,L|103:75,1,90,0|8,1:2|0:0,0:0:0:0:
469,194,46592,6,0,L|474:92,1,90,0|8,1:2|0:0,0:0:0:0:
237,101,46908,2,0,L|238:216,1,90,8|0,0:0|1:2,0:0:0:0:
382,215,47224,2,0,L|423:313,1,90,8|8,0:0|0:0,0:0:0:0:
195,318,47539,2,0,L|90:315,1,90,0|8,1:2|0:0,0:0:0:0:
252,310,47855,6,0,L|276:206,1,90,0|8,1:2|0:0,0:0:0:0:
135,219,48171,2,0,L|132:99,1,90,8|0,0:0|1:2,0:0:0:0:
297,135,48487,2,0,L|403:139,1,90,8|8,0:0|0:0,0:0:0:0:
160,139,48802,2,0,L|161:37,1,90,0|8,1:2|0:0,0:0:0:0:
463,95,49118,6,0,L|474:202,1,90,0|8,1:2|0:0,0:0:0:0:
371,230,49434,1,8,0:0:0:0:
469,285,49591,1,0,1:2:0:0:
316,300,49749,2,0,L|199:294,1,90,8|0,0:0|1:2,0:0:0:0:
256,232,49986,1,0,1:2:0:0:
445,238,50065,2,0,L|504:232,2,45,0|0|8,1:2|1:2|0:0,1:2:0:0:
152,235,50381,6,0,L|142:167,1,45,0|0,1:2|1:2,1:2:0:0:
301,196,50539,2,0,L|363:187,2,45,0|0|8,1:2|1:2|0:0,1:2:0:0:
173,117,50854,2,0,L|168:52,1,45,8|8,0:3|0:3,0:3:0:0:
254,66,51012,2,0,L|256:132,1,45,8|8,0:3|0:3,0:0:0:0:
112,202,51170,2,0,L|65:204,1,45,0|0,1:2|1:2,1:2:0:0:
249,202,51328,2,0,L|302:203,1,45,0|0,1:2|1:2,1:2:0:0:
142,161,51486,2,0,L|79:158,1,45,0|0,1:2|1:2,1:2:0:0:
307,105,51644,6,0,P|396:132|369:360,1,360,4|4,2:1|0:0,0:0:0:0:
196,340,52591,2,0,L|192:217,1,90,0|8,0:0|0:0,0:0:0:0:
247,237,52828,1,8,0:0:0:0:
394,232,52907,6,0,P|434:192|381:83,1,180,0|0,1:2|0:0,0:0:0:0:
240,83,53381,2,0,L|58:78,1,180,8|0,0:0|0:0,0:0:0:0:
221,148,53854,2,0,L|226:262,1,90,0|8,0:0|0:0,0:0:0:0:
172,241,54091,1,8,0:0:0:0:
18,251,54170,6,0,L|233:81,1,270,4|0,2:1|0:0,0:0:0:0:
454,147,55118,2,8,L|464:198,1,45
436,224,55275,2,8,L|384:227,1,45
191,232,55433,6,0,P|147:197|197:94,1,180,0|8,1:2|0:0,0:0:0:0:
425,91,55907,2,0,P|469:121|427:231,1,180,0|8,1:2|0:0,0:0:0:0:
296,231,56381,2,0,L|195:224,1,90,0|0,0:0|1:2,0:0:0:0:
167,167,56618,1,0,1:2:0:0:
367,173,56696,6,0,P|411:136|353:27,1,180,4|0,2:1|0:0,0:0:0:0:
278,30,57170,1,8,0:0:0:0:
174,31,57328,2,0,L|364:42,1,180,4|0,0:0|0:0,0:0:0:0:
468,105,57802,2,8,L|471:163,1,45
294,210,57960,6,0,L|97:205,1,180,0|0,1:2|0:0,0:0:0:0:
295,168,58591,2,0,L|480:154,1,180,4|0,0:0|0:0,0:0:0:0:
369,88,59065,2,8,L|297:85,1,45
369,88,59223,6,0,P|431:176|379:205,1,180,4|0,2:1|0:0,0:0:0:0:
293,207,59696,1,8,0:0:0:0:
178,205,59854,2,0,P|135:158|191:57,1,180,4|8,0:0|0:0,0:0:0:0:
239,58,60249,1,8,0:0:0:0:
288,82,60328,1,8,0:0:0:0:
300,125,60407,1,8,0:0:0:0:
105,207,60486,6,0,L|41:205,2,60,0|0|0,1:2|1:2|1:2,1:2:0:0:
326,248,60802,2,0,P|364:203|319:125,1,135,12|0,0:0|0:0,0:0:0:0:
168,115,61118,2,0,L|99:108,2,60,0|0|0,1:2|1:2|1:2,1:2:0:0:
389,138,61433,2,0,P|434:179|428:263,1,135,12|0,0:0|0:0,0:0:0:0:
140,108,61749,6,0,P|70:134|169:348,1,360,4|4,2:1|0:0,0:0:0:0:
316,340,62696,2,0,L|320:217,1,90,0|8,0:0|0:0,0:0:0:0:
265,237,62933,1,8,0:0:0:0:
118,232,63012,6,0,P|78:192|131:83,1,180,0|0,1:2|0:0,0:0:0:0:
272,83,63486,2,0,L|454:78,1,180,8|0,0:0|0:0,0:0:0:0:
291,148,63960,2,0,L|286:262,1,90,0|8,0:0|0:0,0:0:0:0:
340,241,64196,1,8,0:0:0:0:
494,251,64275,6,0,L|279:81,1,270,4|0,2:1|0:0,0:0:0:0:
58,147,65223,2,8,L|48:198,1,45
76,224,65381,2,8,L|128:227,1,45
321,232,65538,6,0,P|365:197|315:94,1,180,0|0,1:2|0:0,0:0:0:0:
214,92,66012,1,0,1:2:0:0:
96,156,66170,2,0,L|31:169,2,60,4|0|0,1:2|1:2|1:2,1:2:0:0:
217,163,66486,2,0,L|206:85,1,60,0|0,1:2|1:2,1:2:0:0:
124,102,66696,1,0,1:2:0:0:
311,201,66802,6,0,P|355:164|297:55,1,180,4|0,2:1|0:0,0:0:0:0:
226,60,67275,1,8,0:0:0:0:
329,31,67433,2,0,L|139:42,1,180,4|0,0:0|0:0,0:0:0:0:
66,213,67907,2,8,L|138:217,1,45
294,210,68065,6,0,L|491:203,1,180,0|0,1:2|0:0,0:0:0:0:
396,157,68539,1,8,0:0:0:0:
295,168,68696,2,0,L|77:164,1,180,4|0,0:0|0:0,0:0:0:0:
175,97,69170,2,8,L|237:88,1,45
369,88,69328,6,0,L|458:95,2,90,0|0|0,1:2|0:0|0:0,0:0:0:0:
266,80,69802,1,0,1:2:0:0:
381,141,69960,1,8,0:0:0:0:
422,160,70038,1,8,0:0:0:0:
452,193,70117,1,8,0:0:0:0:
468,234,70196,1,8,0:0:0:0:
467,279,70275,1,8,0:3:0:0:
450,320,70354,1,8,0:3:0:0:
418,352,70433,1,8,0:3:0:0:
377,370,70512,1,8,0:3:0:0:
175,365,70591,6,0,P|101:323|199:211,1,270,0|0,1:2|0:0,0:0:0:0:
371,200,71539,2,0,L|381:308,1,90
138,306,71854,6,0,P|94:260|153:157,1,180,12|0,0:0|0:0,0:0:0:0:
284,168,72328,2,0,P|334:137|272:29,1,180,12|0,0:0|0:0,0:0:0:0:
181,37,72802,2,8,L|123:39,1,45
125,96,72960,2,8,L|183:93,1,45
389,98,73118,6,0,P|467:128|378:329,1,360,0|4,1:2|0:0,0:0:0:0:
190,323,74223,2,8,L|184:273,1,45
332,275,74381,6,0,P|369:242|309:148,1,180,4|0,0:0|0:0,0:0:0:0:
163,166,74854,2,0,P|124:140|178:33,1,180,12|0,0:0|0:0,0:0:0:0:
319,45,75328,2,8,L|367:49,1,45
362,124,75486,2,8,L|314:122,1,45
92,121,75644,5,0,1:2:0:0:
200,133,75802,2,0,L|210:322,1,180,8|0,0:0|1:2,0:0:0:0:
46,344,76433,2,0,L|231:319,1,180,8|8,0:0|0:0,0:0:0:0:
443,301,76907,6,0,P|489:266|415:160,1,180,12|0,0:0|0:0,0:0:0:0:
308,167,77381,2,0,L|525:148,1,180,12|0,0:0|0:0,0:0:0:0:
374,70,77854,2,8,L|306:63,1,45
283,81,78012,2,8,L|265:147,1,45
471,138,78170,6,0,P|483:198|260:284,1,360,0|4,1:2|0:0,0:0:0:0:
410,229,79275,2,8,L|401:155,1,45
237,183,79433,6,0,L|56:169,1,180,12|0,0:0|0:0,0:0:0:0:
193,168,79907,2,0,L|394:151,1,180,12|0,0:0|0:0,0:0:0:0:
242,134,80381,2,8,L|186:129,1,45
207,76,80539,2,8,L|265:78,1,45
436,90,80696,5,0,1:2:0:0:
328,120,80854,2,0,L|348:314,1,180,8|0,0:0|0:0,0:0:0:0:
80,268,81328,2,0,L|75:380,1,90,0|0,1:2|0:0,0:0:0:0:
432,360,81960,5,4,2:1:0:0:
256,192,82275,12,0,87012,0:0:0:0:
