osu file format v14

[General]
AudioFilename: audio.mp3
AudioLeadIn: 0
PreviewTime: 31428
Countdown: 0
SampleSet: Soft
StackLeniency: 0.7
Mode: 2
LetterboxInBreaks: 0
WidescreenStoryboard: 1

[Editor]
Bookmarks: 1113,11218,21323,30165,31428,41534,51639,61744,71849,81955
DistanceSpacing: 1
BeatDivisor: 4
GridSize: 4
TimelineZoom: 1.3

[Metadata]
Title:MUKANJYO (TV Size)
TitleUnicode:MUKANJYO (TV Size)
Artist:Survive Said The Prophet
ArtistUnicode:Survive Said The Prophet
Creator:Benita
Version:EclipZ's True Warrior
Source:ヴィンランド・サガ
Tags:Vinland Saga Opening op anime japanese j-rock jrock j-pop jpop BeatingHeart EclipZ Benny- BennyBananas
BeatmapID:2722044
BeatmapSetID:1313402

[Difficulty]
HPDrainRate:6
CircleSize:4
OverallDifficulty:9.3
ApproachRate:9.3
SliderMultiplier:1.8
SliderTickRate:2

[Events]
//Background and Video events
0,0,"bg.jpg",0,0
//Break Periods
//Storyboard Layer 0 (Background)
//Storyboard Layer 1 (Fail)
//Storyboard Layer 2 (Pass)
//Storyboard Layer 3 (Foreground)
//Storyboard Layer 4 (Overlay)
//Storyboard Sound Samples

[TimingPoints]
1118,315.789473684211,4,2,1,30,1,0
11223,-83.3333333333333,4,2,1,60,0,0
21328,-76.9230769230769,4,2,1,60,0,0
30170,-76.9230769230769,4,2,1,40,0,0
31433,-66.6666666666667,4,2,1,80,0,1
41460,-66.6666666666667,4,2,1,80,0,0
41539,-66.6666666666667,4,2,1,80,0,1
51644,-83.3333333333333,4,2,1,70,0,0
71854,-100,4,2,1,80,0,1
72248,-100,4,2,1,5,0,1
72328,-100,4,2,1,80,0,1
72722,-66.6666666666667,4,2,1,5,0,1
72802,-100,4,2,1,80,0,1
74381,-100,4,2,1,80,0,1
74775,-100,4,2,1,5,0,1
74854,-100,4,2,1,80,0,1
75248,-100,4,2,1,5,0,1
75328,-100,4,2,1,80,0,1
76907,-100,4,2,1,80,0,1
77301,-100,4,2,1,5,0,1
77381,-100,4,2,1,80,0,1
77775,-100,4,2,1,5,0,1
77854,-100,4,2,1,80,0,1
79433,-100,4,2,1,80,0,1
79827,-100,4,2,1,5,0,1
79907,-100,4,2,1,80,0,1
80301,-100,4,2,1,5,0,1
80381,-100,4,2,1,80,0,1
81960,-100,4,2,1,80,0,0
84486,-100,4,2,1,60,0,0
85749,-100,4,2,1,50,0,0
87012,-100,4,2,1,5,0,0

[Colours]
Combo1 : 209,157,81
Combo2 : 218,99,68
Combo3 : 218,68,68

[HitObjects]
127,149,1118,6,0,L|130:256,1,90,0|2,0:0|0:0,0:0:0:0:
283,148,1433,2,0,L|194:148,1,90
352,145,1749,1,2,0:0:0:0:
417,214,1907,1,0,0:0:0:0:
389,313,2065,1,0,0:0:0:0:
304,349,2223,1,0,0:0:0:0:
457,84,2381,6,0,L|351:84,1,90,2|0,0:0|0:0,0:0:0:0:
217,136,2696,2,0,L|317:136,1,90,2|0,0:0|0:0,0:0:0:0:
148,202,3012,2,0,L|46:202,1,90,2|0,0:0|0:0,0:0:0:0:
13,134,3328,1,2,0:0:0:0:
77,65,3486,1,0,0:0:0:0:
239,52,3644,6,0,L|239:148,1,90,2|0,0:0|0:0,0:0:0:0:
361,142,3960,2,0,L|361:46,1,90
199,51,4275,2,0,L|199:147,1,90,2|0,0:0|0:0,0:0:0:0:
77,135,4591,2,0,L|77:39,1,90
204,124,4907,5,2,0:0:0:0:
82,91,5065,1,0,0:0:0:0:
208,73,5223,2,0,L|314:73,1,90,2|0,0:0|0:0,0:0:0:0:
171,36,5539,1,2,0:0:0:0:
292,39,5696,1,0,0:0:0:0:
164,70,5854,2,0,L|106:143,1,90,2|0,0:0|0:0,0:0:0:0:
285,149,6170,6,0,L|355:216,2,90,2|0|0,0:0|0:0|0:0,0:0:0:0:
117,170,6644,2,0,L|47:237,2,90,2|0|0,0:0|0:0|0:0,0:0:0:0:
284,81,7118,2,0,L|383:81,1,90,2|0,0:0|0:0,0:0:0:0:
239,43,7433,5,0,0:0:0:0:
157,99,7591,1,2,0:0:0:0:
115,192,7749,1,0,0:0:0:0:
174,266,7907,1,0,0:0:0:0:
255,302,8065,2,0,L|349:302,1,90,2|0,0:0|0:0,0:0:0:0:
418,228,8381,2,0,L|324:228,1,90
179,171,8696,6,0,L|109:238,2,90,2|0|0,0:0|0:0|0:0,0:0:0:0:
315,177,9170,2,0,L|385:244,2,90,2|0|0,0:0|0:0|0:0,0:0:0:0:
164,42,9644,2,0,L|69:42,1,90,2|0,0:0|0:0,0:0:0:0:
210,89,9960,5,0,0:0:0:0:
290,142,10118,1,2,0:0:0:0:
277,252,10275,1,0,0:0:0:0:
193,316,10433,1,0,0:0:0:0:
265,262,10591,1,2,0:0:0:0:
193,316,10749,1,0,0:0:0:0:
278,81,10907,2,0,L|374:81,1,90,2|0,0:0|0:0,0:0:0:0:
139,167,11223,5,8,1:2:0:0:
101,129,11302,1,0,1:2:0:0:
101,97,11381,1,0,1:2:0:0:
139,63,11460,1,0,1:2:0:0:
320,71,11539,2,0,L|320:187,1,107.999996704102,8|0,1:2|0:0,0:0:0:0:
169,185,11854,2,0,L|169:69,1,107.999996704102,8|0,0:0|0:0,0:0:0:0:
321,208,12170,2,0,L|206:208,1,107.999996704102,8|0,0:0|0:0,0:0:0:0:
376,96,12486,6,0,L|376:208,1,107.999996704102,8|0,0:0|0:0,0:0:0:0:
224,182,12802,2,0,L|224:70,1,107.999996704102,8|0,0:0|0:0,0:0:0:0:
376,204,13118,2,0,L|464:124,1,107.999996704102,8|0,0:0|0:0,0:0:0:0:
293,199,13433,2,0,L|200:129,1,107.999996704102,8|0,0:0|0:0,0:0:0:0:
435,138,13749,5,8,1:2:0:0:
473,100,13828,1,0,1:2:0:0:
473,68,13907,1,0,1:2:0:0:
435,34,13986,1,0,1:2:0:0:
246,85,14065,2,0,L|246:202,1,107.999996704102,8|0,1:2|0:0,0:0:0:0:
387,105,14381,2,0,L|388:226,1,107.999996704102,8|0,0:0|0:0,0:0:0:0:
224,177,14696,2,0,L|101:177,1,107.999996704102,8|0,0:0|0:0,0:0:0:0:
268,173,15012,6,0,L|376:175,2,107.999996704102,8|0|8,0:0|0:0|0:0,0:0:0:0:
126,166,15486,2,0,L|126:56,1,107.999996704102
289,227,15802,1,0,0:0:0:0:
116,192,15960,1,8,0:0:0:0:
343,174,16118,2,0,L|408:174,1,53.9999983520508,8|8,0:3|0:3,0:0:0:0:
239,171,16275,5,8,1:2:0:0:
201,133,16354,1,0,1:2:0:0:
201,101,16433,1,0,1:2:0:0:
239,67,16512,1,0,1:2:0:0:
427,70,16591,1,8,1:2:0:0:
308,69,16749,2,0,L|190:69,2,107.999996704102
460,168,17223,2,0,L|349:168,1,107.999996704102,8|0,0:0|0:0,0:0:0:0:
232,109,17539,6,0,L|303:208,1,107.999996704102,8|0,0:0|0:0,0:0:0:0:
154,213,17854,2,0,L|262:213,1,107.999996704102
382,220,18170,2,0,L|323:320,1,107.999996704102,8|0,0:0|0:0,0:0:0:0:
191,106,18486,2,0,L|81:106,1,107.999996704102,8|0,0:0|0:0,0:0:0:0:
324,151,18802,5,8,1:2:0:0:
362,113,18881,1,0,1:2:0:0:
362,81,18960,1,0,1:2:0:0:
324,47,19039,1,0,1:2:0:0:
138,89,19118,1,8,1:2:0:0:
257,88,19276,2,0,L|375:88,2,107.999996704102
106,172,19749,2,0,L|219:172,1,107.999996704102,8|0,0:0|0:0,0:0:0:0:
335,120,20065,6,0,L|247:201,1,107.999996704102,8|0,0:0|0:0,0:0:0:0:
397,248,20381,2,0,L|288:248,1,107.999996704102
170,191,20696,2,0,L|109:293,1,107.999996704102,8|0,0:0|0:0,0:0:0:0:
278,43,21012,2,0,L|278:150,1,107.999996704102,12|0,0:0|0:0,0:0:0:0:
10,89,21328,5,8,1:2:0:0:
56,84,21407,1,0,1:2:0:0:
103,77,21486,1,0,1:2:0:0:
150,68,21565,1,0,1:2:0:0:
339,88,21644,2,0,L|340:219,1,116.999994644165,8|0,1:2|0:0,0:0:0:0:
213,87,21960,5,8,0:0:0:0:
435,107,22118,1,0,1:2:0:0:
465,86,22196,1,0,1:2:0:0:
434,58,22275,1,8,1:2:0:0:
388,53,22354,1,0,1:2:0:0:
341,46,22433,1,0,1:2:0:0:
294,37,22512,1,0,1:2:0:0:
109,137,22591,6,0,L|38:238,1,116.999994644165,8|0,1:2|0:0,0:0:0:0:
195,168,22907,2,0,L|61:169,1,116.999994644165,8|0,0:0|0:0,0:0:0:0:
249,144,23223,2,0,L|320:245,1,116.999994644165,8|0,0:0|0:0,0:0:0:0:
156,173,23539,2,0,L|290:174,1,116.999994644165,8|0,0:0|0:0,0:0:0:0:
495,173,23854,5,8,1:2:0:0:
494,134,23933,1,0,1:2:0:0:
447,117,24012,1,0,1:2:0:0:
400,108,24091,1,0,1:2:0:0:
208,161,24170,2,0,L|208:17,1,116.999994644165,0|0,1:2|0:0,0:0:0:0:
343,74,24486,5,8,0:0:0:0:
120,191,24644,1,0,1:2:0:0:
73,167,24722,1,0,1:2:0:0:
52,123,24801,1,8,1:2:0:0:
64,70,24880,1,0,1:2:0:0:
110,40,24959,1,0,1:2:0:0:
166,34,25038,1,0,1:2:0:0:
380,145,25118,6,0,L|266:194,1,116.999994644165,8|0,1:2|0:0,0:0:0:0:
130,151,25433,2,0,L|249:194,1,116.999994644165,8|0,0:0|0:0,0:0:0:0:
384,85,25749,2,0,L|260:84,1,116.999994644165,8|0,0:0|0:0,0:0:0:0:
50,49,26065,2,0,L|21:162,1,116.999994644165,12|0,0:0|0:0,0:0:0:0:
244,164,26381,5,8,1:2:0:0:
290,159,26460,1,0,1:2:0:0:
290,113,26539,1,0,1:2:0:0:
244,108,26618,1,0,1:2:0:0:
436,63,26696,2,0,L|435:198,1,116.999994644165,8|0,1:2|0:0,0:0:0:0:
324,117,27012,5,8,0:0:0:0:
94,129,27170,1,0,1:2:0:0:
54,110,27248,1,0,1:2:0:0:
25,76,27327,1,8,1:2:0:0:
48,39,27407,1,0,1:2:0:0:
96,29,27485,1,0,1:2:0:0:
152,29,27564,1,0,1:2:0:0:
352,41,27644,6,0,L|423:142,1,116.999994644165,8|0,1:2|0:0,0:0:0:0:
267,71,27960,2,0,L|401:72,1,116.999994644165,8|0,0:0|0:0,0:0:0:0:
214,21,28275,2,0,L|143:122,1,116.999994644165,8|0,0:0|0:0,0:0:0:0:
299,51,28591,2,0,L|165:52,1,116.999994644165,8|0,0:0|0:0,0:0:0:0:
451,165,28907,5,8,1:2:0:0:
475,123,28986,1,0,1:2:0:0:
456,81,29065,1,0,1:2:0:0:
410,72,29144,1,0,1:2:0:0:
228,109,29223,2,0,L|228:233,1,116.999994644165,8|0,1:2|0:0,0:0:0:0:
377,125,29539,5,8,0:0:0:0:
212,140,29696,1,0,1:2:0:0:
160,116,29774,1,0,1:2:0:0:
161,75,29853,1,8,1:2:0:0:
213,52,29932,1,0,1:2:0:0:
257,42,30011,1,0,1:2:0:0:
257,27,30090,1,0,1:2:0:0:
24,137,30170,5,8,0:3:0:0:
431,89,31433,6,0,L|288:89,2,135.000005149842,4|8|8,1:2|0:0|0:0,0:0:0:0:
179,97,31907,1,0,1:2:0:0:
314,166,32065,2,0,L|314:312,1,135.000005149842,8|8,0:0|0:0,0:0:0:0:
42,192,32381,1,0,1:2:0:0:
177,194,32539,1,8,0:0:0:0:
490,143,32696,6,0,L|348:143,2,135.000005149842,0|8|8,1:2|0:0|0:0,0:0:0:0:
184,113,33170,2,0,L|39:113,2,135.000005149842,0|8|8,1:2|0:0|0:0,0:0:0:0:
475,84,33644,2,0,L|488:218,1,135.000005149842,0|8,1:2|0:0,0:0:0:0:
171,145,33960,5,0,1:2:0:0:
305,177,34118,2,0,L|313:319,1,135.000005149842,8|8,0:0|0:0,0:0:0:0:
52,126,34433,1,0,1:2:0:0:
187,179,34591,2,0,L|195:321,1,135.000005149842,8|8,0:0|0:0,0:0:0:0:
477,173,34907,2,0,L|332:173,1,135.000005149842,0|8,1:2|0:0,0:0:0:0:
22,139,35223,5,0,1:2:0:0:
156,123,35381,1,8,0:0:0:0:
291,91,35539,1,8,0:0:0:0:
23,208,35696,2,0,L|167:208,2,135.000005149842,0|8|8,1:2|0:0|0:0,0:0:0:0:
307,154,36170,1,0,1:2:0:0:
201,96,36328,2,0,L|135:118,1,67.5000025749208,8|8,0:0|0:0,0:0:0:0:
353,106,36486,6,0,L|487:106,1,135.000005149842,0|8,1:2|0:0,0:0:0:0:
211,223,36802,1,8,0:0:0:0:
366,225,36960,1,0,1:2:0:0:
87,162,37118,2,0,L|87:303,1,135.000005149842,8|8,0:0|0:0,0:0:0:0:
333,173,37433,2,0,L|481:174,1,135.000005149842,0|8,1:2|0:0,0:0:0:0:
165,115,37749,6,0,L|312:115,2,135.000005149842,0|8|8,1:2|0:0|0:0,0:0:0:0:
424,60,38223,1,0,1:2:0:0:
154,159,38381,2,0,L|154:294,1,135.000005149842,8|8,0:0|0:0,0:0:0:0:
435,306,38696,2,0,L|435:171,1,135.000005149842,0|8,1:2|0:0,0:0:0:0:
118,105,39012,5,0,1:2:0:0:
253,94,39170,1,8,0:0:0:0:
388,72,39328,1,8,0:0:0:0:
126,66,39486,1,0,1:2:0:0:
364,85,39644,2,0,L|374:219,1,135.000005149842,8|8,0:0|0:0,0:0:0:0:
59,360,39960,6,0,L|186:287,2,135.000005149842,0|8|8,1:2|0:0|0:0,0:0:0:0:
373,315,40433,2,0,P|468:238|378:165,1,270.000010299683,0|8,1:2|0:0,0:0:0:0:
292,47,40828,1,8,0:0:0:0:
56,224,40907,2,0,L|125:95,1,135.000005149842,4|8,1:2|0:0,0:0:0:0:
193,93,41144,1,8,0:0:0:0:
364,120,41223,2,0,L|446:120,1,67.5000025749208,0|0,1:2|1:2,1:2:0:0:
240,142,41381,2,0,L|233:219,1,67.5000025749208,0|0,1:2|1:2,1:2:0:0:
447,266,41539,6,0,L|304:266,2,135.000005149842,4|8|8,1:2|0:0|0:0,0:0:0:0:
197,94,42012,1,0,1:2:0:0:
62,133,42170,2,0,L|62:275,1,135.000005149842,8|8,0:0|0:0,0:0:0:0:
333,165,42486,1,0,1:2:0:0:
468,167,42644,1,8,0:0:0:0:
151,226,42802,6,0,L|289:226,2,135.000005149842,0|8|8,1:2|0:0|0:0,0:0:0:0:
455,110,43275,1,0,1:2:0:0:
320,107,43433,2,0,L|320:252,1,135.000005149842,8|8,0:0|0:0,0:0:0:0:
30,137,43749,2,0,L|178:137,1,135.000005149842,0|8,1:2|0:0,0:0:0:0:
485,103,44065,6,0,L|334:103,2,135.000005149842,0|8|8,1:2|0:0|0:0,0:0:0:0:
205,100,44539,1,0,1:2:0:0:
342,156,44696,2,0,L|344:301,1,135.000005149842,8|8,0:0|0:0,0:0:0:0:
51,213,45012,2,0,L|192:213,1,135.000005149842,0|8,1:2|0:0,0:0:0:0:
494,205,45328,5,0,1:2:0:0:
360,189,45486,1,8,0:0:0:0:
225,157,45644,1,8,0:0:0:0:
495,253,45802,2,0,L|359:253,2,135.000005149842,0|8|8,1:2|0:0|0:0,0:0:0:0:
211,244,46275,1,0,1:2:0:0:
320,194,46433,2,0,L|386:216,1,67.5000025749208,8|0,0:0|0:0,0:0:0:0:
177,144,46591,6,0,L|35:143,1,135.000005149842,0|8,1:2|0:0,0:0:0:0:
324,90,46907,1,8,0:0:0:0:
171,84,47065,1,0,1:2:0:0:
463,114,47223,2,0,L|308:114,1,135.000005149842,8|8,0:0|0:0,0:0:0:0:
40,226,47539,2,0,L|180:226,1,135.000005149842,0|8,1:2|0:0,0:0:0:0:
481,267,47854,6,0,L|481:114,1,135.000005149842,0|8,1:2|0:0,0:0:0:0:
202,121,48170,1,8,0:0:0:0:
357,123,48328,1,0,1:2:0:0:
52,94,48486,2,0,L|193:94,1,135.000005149842,8|8,0:0|0:0,0:0:0:0:
486,223,48802,2,0,L|346:223,1,135.000005149842,0|8,1:2|0:0,0:0:0:0:
48,82,49118,6,0,L|47:233,1,135.000005149842,0|8,1:2|0:0,0:0:0:0:
332,119,49433,1,8,0:0:0:0:
183,113,49591,1,0,1:2:0:0:
365,116,49749,1,8,0:0:0:0:
95,236,49907,6,0,L|73:306,1,67.5000025749208,0|0,1:2|1:2,0:0:0:0:
235,233,50065,2,0,L|246:306,1,67.5000025749208,0|0,1:2|1:2,1:2:0:0:
96,177,50223,1,8,0:0:0:0:
373,195,50381,6,0,L|441:196,1,67.5000025749208,0|0,1:2|1:2,1:2:0:0:
269,229,50539,2,0,L|244:299,1,67.5000025749208,0|0,1:2|1:2,1:2:0:0:
408,162,50696,1,8,0:0:0:0:
130,115,50854,5,8,0:3:0:0:
90,82,50933,1,8,0:3:0:0:
106,38,51012,1,8,0:3:0:0:
160,40,51091,1,8,0:3:0:0:
362,94,51170,6,0,L|383:166,1,67.5000025749208,0|0,1:2|1:2,1:2:0:0:
161,101,51328,2,0,L|121:166,1,67.5000025749208,0|0,1:2|1:2,1:2:0:0:
358,56,51486,2,0,L|429:87,1,67.5000025749208,0|0,1:2|1:2,1:2:0:0:
165,23,51644,6,0,P|39:100|220:164,1,431.999986816407,4|4,2:1|0:0,0:0:0:0:
109,148,52591,1,0,0:0:0:0:
68,131,52670,1,0,0:0:0:0:
68,100,52749,1,8,0:0:0:0:
109,67,52828,1,8,0:0:0:0:
293,69,52907,6,0,P|247:163|146:191,1,215.999993408203,0|0,1:2|0:0,0:0:0:0:
368,130,53381,2,0,P|322:224|221:252,1,215.999993408203,8|0,0:0|0:0,0:0:0:0:
452,303,53854,1,0,0:0:0:0:
211,315,54012,2,0,L|156:297,1,53.9999983520508,8|8,0:0|0:0,0:0:0:0:
372,228,54170,5,4,2:1:0:0:
110,194,54644,1,0,0:0:0:0:
388,193,55118,1,8,0:0:0:0:
429,181,55196,1,8,0:0:0:0:
429,145,55276,1,8,0:0:0:0:
388,112,55355,1,8,0:0:0:0:
166,109,55433,6,0,L|396:222,1,215.999993408203,0|8,1:2|0:0,0:0:0:0:
124,22,55907,2,0,P|60:116|112:201,1,215.999993408203,0|8,1:2|0:0,0:0:0:0:
212,201,56381,1,0,0:0:0:0:
440,209,56539,2,0,L|502:198,1,53.9999983520508,0|0,1:2|1:2,0:0:0:0:
283,57,56696,6,0,L|106:181,1,215.999993408203,4|0,2:1|0:0,0:0:0:0:
372,226,57170,1,8,0:0:0:0:
233,232,57328,1,4,0:0:0:0:
60,108,57644,1,0,0:0:0:0:
20,92,57723,1,0,0:0:0:0:
20,61,57802,1,8,0:0:0:0:
61,28,57881,1,8,0:0:0:0:
283,31,57960,5,0,1:2:0:0:
511,100,58275,2,0,L|404:70,1,107.999996704102
244,98,58591,2,0,L|353:67,1,107.999996704102,4|0,0:0|0:0,0:0:0:0:
495,160,58907,1,0,0:0:0:0:
198,118,59065,2,8,L|136:128,1,53.9999983520508
363,121,59223,6,0,B|465:221|336:318,1,215.999993408203,4|0,2:1|0:0,0:0:0:0:
202,293,59696,1,8,0:0:0:0:
425,298,59854,1,4,0:0:0:0:
185,189,60170,1,8,0:0:0:0:
147,163,60249,1,8,0:0:0:0:
147,134,60328,1,8,0:0:0:0:
185,103,60407,1,8,0:0:0:0:
373,83,60486,5,0,1:2:0:0:
311,63,60590,1,0,1:2:0:0:
247,49,60696,1,0,1:2:0:0:
431,26,60801,1,12,0:0:0:0:
173,94,61119,5,0,1:2:0:0:
235,74,61223,1,0,1:2:0:0:
299,53,61329,1,0,1:2:0:0:
98,48,61434,1,12,0:0:0:0:
362,2,61749,6,0,P|490:150|291:231,1,431.999986816407,4|4,2:1|0:0,0:0:0:0:
430,148,62696,1,0,0:0:0:0:
471,131,62775,1,0,0:0:0:0:
471,100,62854,1,8,0:0:0:0:
430,67,62933,1,8,0:0:0:0:
246,85,63012,6,0,P|292:179|393:207,1,215.999993408203,0|0,1:2|0:0,0:0:0:0:
171,146,63486,2,0,P|217:240|318:268,1,215.999993408203,8|0,0:0|0:0,0:0:0:0:
81,304,63960,1,0,0:0:0:0:
334,232,64118,2,0,L|395:210,1,53.9999983520508,8|8,0:0|0:0,0:0:0:0:
164,161,64275,5,4,2:1:0:0:
393,156,64749,1,0,0:0:0:0:
104,152,65223,1,8,0:0:0:0:
63,135,65302,1,8,0:0:0:0:
63,104,65381,1,8,0:0:0:0:
104,71,65460,1,8,0:0:0:0:
325,73,65539,6,0,P|433:125|422:214,1,215.999993408203,0|0,1:2|0:0,0:0:0:0:
184,297,66012,1,0,1:2:0:0:
462,260,66171,5,4,1:2:0:0:
492,219,66275,1,0,1:2:0:0:
462,183,66380,1,0,1:2:0:0:
223,177,66487,5,0,1:2:0:0:
161,157,66591,1,0,1:2:0:0:
97,136,66697,1,0,1:2:0:0:
351,112,66802,6,0,P|414:211|348:282,1,215.999993408203,4|0,2:1|0:0,0:0:0:0:
116,207,67275,1,8,0:0:0:0:
393,183,67749,1,0,0:0:0:0:
434,166,67828,1,0,0:0:0:0:
434,135,67907,1,8,0:0:0:0:
393,102,67986,1,8,0:0:0:0:
183,107,68065,5,0,1:2:0:0:
348,186,68381,2,0,L|453:157,1,107.999996704102,0|8,0:0|0:0,0:0:0:0:
292,188,68697,2,0,L|173:154,1,107.999996704102,4|0,0:0|0:0,0:0:0:0:
347,122,69012,1,0,0:0:0:0:
97,124,69170,2,8,L|31:112,1,53.9999983520508
262,86,69328,5,0,1:2:0:0:
359,150,69486,2,0,L|359:267,1,107.999996704102
92,86,69802,1,0,1:2:0:0:
359,113,69960,5,8,0:0:0:0:
414,76,70039,1,8,0:0:0:0:
361,63,70118,1,8,0:0:0:0:
307,50,70197,1,8,0:0:0:0:
109,56,70275,2,0,L|44:47,1,53.9999983520508,8|8,0:3|0:3,0:0:0:0:
270,57,70433,2,0,L|331:47,1,53.9999983520508,8|8,0:3|0:3,0:0:0:0:
36,112,70591,5,0,1:2:0:0:
400,31,71854,6,0,P|472:118|404:186,1,225,12|0,0:0|0:0,0:0:0:0:
133,35,72328,2,0,P|61:122|129:190,1,225,12|0,0:0|0:0,0:0:0:0:
320,114,72802,1,8,0:0:0:0:
384,97,72881,1,8,0:0:0:0:
448,83,72960,1,8,0:0:0:0:
512,67,73039,1,8,0:0:0:0:
225,51,73118,6,0,L|131:52,1,90,0|0,1:2|0:0,0:0:0:0:
296,52,73433,2,0,L|395:52,1,90
167,124,73749,1,4,0:0:0:0:
430,135,74065,1,0,0:0:0:0:
199,88,74223,2,8,L|144:76,1,45
365,42,74381,6,0,P|437:129|369:197,1,225,4|0,0:0|0:0,0:0:0:0:
112,41,74854,2,0,P|40:128|108:196,1,225,12|0,0:0|0:0,0:0:0:0:
350,239,75328,1,8,0:0:0:0:
391,222,75407,1,8,0:0:0:0:
391,191,75486,1,8,0:0:0:0:
350,158,75565,1,8,0:0:0:0:
79,177,75644,5,0,1:2:0:0:
327,81,75802,1,8,0:0:0:0:
87,91,76118,1,0,1:2:0:0:
329,74,76433,1,8,0:0:0:0:
56,51,76749,1,8,0:0:0:0:
356,47,76907,6,0,P|428:134|360:202,1,225,12|0,0:0|0:0,0:0:0:0:
89,50,77381,2,0,P|17:137|85:205,1,225,12|0,0:0|0:0,0:0:0:0:
256,135,77854,1,8,0:0:0:0:
320,118,77933,1,8,0:0:0:0:
384,104,78012,1,8,0:0:0:0:
448,88,78091,1,8,0:0:0:0:
172,64,78170,6,0,P|92:183|156:278,1,270,0|0,1:2|0:0,0:0:0:0:
297,169,78802,2,0,L|198:169,1,90,4|0,0:0|0:0,0:0:0:0:
375,89,79118,1,0,0:0:0:0:
159,63,79275,2,8,L|116:53,1,45
332,57,79433,6,0,P|404:144|336:212,1,225,12|0,0:0|0:0,0:0:0:0:
92,75,79907,2,0,P|20:162|88:230,1,225,12|0,0:0|0:0,0:0:0:0:
300,246,80381,1,8,0:0:0:0:
341,229,80460,1,8,0:0:0:0:
341,198,80539,1,8,0:0:0:0:
300,165,80618,1,8,0:0:0:0:
44,174,80696,5,0,1:2:0:0:
179,169,80854,2,0,L|185:269,1,90,8|0,0:0|0:0,0:0:0:0:
44,174,81170,1,0,0:0:0:0:
359,70,81328,2,0,L|260:69,1,90,0|0,1:2|0:0,0:0:0:0:
438,116,81644,2,0,L|445:209,1,90
119,178,81960,5,4,2:1:0:0:
256,192,82118,12,0,87012,0:0:0:0:
