osu file format v14

[General]
AudioFilename: audio.mp3
AudioLeadIn: 0
PreviewTime: 30739
Countdown: 0
SampleSet: Soft
StackLeniency: 0.8
Mode: 0
LetterboxInBreaks: 0
WidescreenStoryboard: 1

[Editor]
DistanceSpacing: 1
BeatDivisor: 4
GridSize: 16
TimelineZoom: 1.6

[Metadata]
Title:MUKANJYO (TV Size)
TitleUnicode:MUKANJYO (TV Size)
Artist:Survive Said The Prophet
ArtistUnicode:Survive Said The Prophet
Creator:Smoke
Version:NORMAL
Source:ヴィンランド・サガ
Tags:vinland saga anime op japanese opening rock jrock j-rock mizujin -_aqua AqUa_M1X poggers Gabizon04
BeatmapID:4249226
BeatmapSetID:1942367

[Difficulty]
HPDrainRate:4
CircleSize:3
OverallDifficulty:4.5
ApproachRate:6
SliderMultiplier:0.999999999999999
SliderTickRate:1

[Events]
//Background and Video events
0,0,"cool bg.jpg",0,0
Video,-752,"vid.mp4"
//Break Periods
//Storyboard Layer 0 (Background)
//Storyboard Layer 1 (Fail)
//Storyboard Layer 2 (Pass)
//Storyboard Layer 3 (Foreground)
//Storyboard Layer 4 (Overlay)
//Storyboard Sound Samples

[TimingPoints]
463,315.789473684211,4,2,1,45,1,0
463,-111.111111111111,4,2,1,45,0,0
10568,-105.263157894737,4,2,1,55,0,0
20673,-100,4,2,1,65,0,0
29515,-111.111111111111,4,2,1,70,0,0
30699,-100,4,2,1,5,0,0
30778,-90.9090909090909,4,2,1,85,0,1
50989,-100,4,2,1,75,0,0
69936,-111.111111111111,4,2,1,70,0,0
71199,-100,4,2,1,70,0,0
81620,-111.111111111111,4,2,1,68,0,0
81936,-111.111111111111,4,2,1,65,0,0
82252,-111.111111111111,4,2,1,63,0,0
82568,-111.111111111111,4,2,1,60,0,0
82884,-111.111111111111,4,2,1,57,0,0
83199,-111.111111111111,4,2,1,53,0,0
83515,-111.111111111111,4,2,1,50,0,0
83831,-111.111111111111,4,2,1,47,0,0
84147,-111.111111111111,4,2,1,43,0,0
84463,-111.111111111111,4,2,1,40,0,0
84778,-111.111111111111,4,2,1,37,0,0
85094,-111.111111111111,4,2,1,33,0,0
85410,-111.111111111111,4,2,1,30,0,0
85726,-111.111111111111,4,2,1,27,0,0
86041,-111.111111111111,4,2,1,23,0,0
86357,-111.111111111111,4,2,1,20,0,0
86673,-111.111111111111,4,2,1,17,0,0
86989,-111.111111111111,4,2,1,13,0,0
87305,-111.111111111111,4,2,1,10,0,0
87620,-111.111111111111,4,2,1,7,0,0
87936,-111.111111111111,4,2,1,5,0,0

[Colours]
Combo1 : 208,78,21
Combo2 : 224,164,37
Combo3 : 202,122,74
Combo4 : 156,157,142

[HitObjects]
49,324,463,5,0,0:0:0:0:
115,263,778,2,0,L|160:270,1,44.999998626709,2|2,0:0|0:0,0:0:0:0:
196,296,1094,2,0,L|291:286,1,89.999997253418,2|0,0:0|0:0,0:0:0:0:
362,334,1726,1,2,0:0:0:0:
449,315,2041,1,2,0:0:0:0:
467,226,2357,2,0,L|515:222,2,44.999998626709,2|2|2,0:0|0:0|0:0,0:0:0:0:
412,153,2989,6,0,L|425:61,1,89.999997253418,2|2,0:0|0:0,0:0:0:0:
343,24,3620,1,2,0:0:0:0:
267,73,3936,1,2,0:0:0:0:
256,162,4252,2,0,L|250:211,2,44.999998626709,2|2|2,0:0|0:0|0:0,0:0:0:0:
174,123,4884,2,0,L|180:74,2,44.999998626709,2|2|2,0:0|0:0|0:0,0:0:0:0:
97,171,5515,6,0,P|69:230|75:302,2,134.999995880127,2|2|2,0:0|0:0|0:0,0:0:0:0:
97,171,8041,6,0,P|69:230|75:302,2,134.999995880127,2|2|2,0:0|0:0|0:0,0:0:0:0:
97,171,10568,6,0,L|156:181,1,47.4999987316131,10|8,3:2|3:2,0:0:0:0:
190,188,10884,1,8,3:2:0:0:
259,123,11199,1,2,3:2:0:0:
352,140,11515,1,2,3:2:0:0:
393,225,11831,2,0,L|381:281,2,47.4999987316131,2|0|2,3:2|0:0|3:2,0:0:0:0:
440,209,12305,1,0,0:0:0:0:
440,209,12463,1,2,3:2:0:0:
501,136,12778,1,2,3:2:0:0:
461,49,13094,6,0,L|405:42,1,47.4999987316131,10|8,3:2|3:2,0:0:0:0:
366,35,13410,1,8,3:2:0:0:
288,90,13726,2,0,P|243:90|192:60,1,94.9999974632263,2|2,3:2|3:2,0:0:0:0:
168,39,14199,1,2,0:0:0:0:
168,39,14357,2,0,L|177:-12,2,47.4999987316131,2|2|2,3:2|0:0|3:2,0:0:0:0:
121,48,14831,2,0,B|91:83|91:83|111:135,1,94.9999974632263,2|2,0:0|0:0,0:0:0:0:
125,173,15305,1,2,3:2:0:0:
70,250,15620,6,0,L|16:260,2,47.4999987316131,10|8|8,3:2|3:2|3:2,0:0:0:0:
108,279,16094,2,0,B|163:277|143:294|209:291,1,94.9999974632263,2|0,0:0|0:0,0:0:0:0:
239,262,16568,2,0,B|297:259|277:276|332:274,1,94.9999974632263,2|0,3:2|3:2,0:0:0:0:
373,298,17041,2,0,P|421:246|430:167,1,142.499996194839,2|0,0:0|3:2,0:0:0:0:
366,108,17831,1,0,3:2:0:0:
293,46,18147,6,0,L|303:-8,2,47.4999987316131,10|8|8,3:2|3:2|3:2,0:0:0:0:
253,73,18621,2,0,B|251:128|268:108|265:174,1,94.9999974632263,2|0,0:0|0:0,0:0:0:0:
300,199,19095,2,0,B|302:257|285:237|287:292,1,94.9999974632263,2|0,3:2|3:2,0:0:0:0:
265,334,19568,2,0,P|194:348|122:308,1,142.499996194839,2|0,0:0|3:2,0:0:0:0:
67,249,20358,1,2,3:2:0:0:
123,166,20673,6,0,L|184:175,2,50,10|8|8,3:2|3:2|3:2,0:0:0:0:
89,129,21147,2,0,B|76:79|76:79|109:28,1,99.9999999999999,2|8,0:0|3:2,0:0:0:0:
147,16,21620,2,0,L|205:26,1,50,10|8,3:2|3:2,0:0:0:0:
233,58,21936,2,0,L|340:45,1,99.9999999999999,8|0,3:2|3:2,0:0:0:0:
432,35,22568,1,0,3:2:0:0:
472,126,22884,1,0,3:2:0:0:
413,206,23199,6,0,L|355:214,2,50,10|8|8,3:2|3:2|3:2,0:0:0:0:
445,244,23673,2,0,L|432:346,1,99.9999999999999,2|8,0:0|3:2,0:0:0:0:
390,371,24147,2,0,L|332:361,1,50,10|8,3:2|3:2,0:0:0:0:
291,351,24463,1,8,3:2:0:0:
226,275,24778,1,2,3:2:0:0:
137,321,25094,1,2,3:2:0:0:
62,254,25410,1,2,3:2:0:0:
94,159,25726,6,0,L|77:95,2,50,10|8|0,3:2|3:2|3:2,0:0:0:0:
143,165,26199,2,0,P|193:143|248:148,1,99.9999999999999,2|8,0:0|3:2,0:0:0:0:
281,168,26673,2,0,P|310:178|335:178,1,50,10|8,3:2|3:2,0:0:0:0:
375,160,26989,1,8,3:2:0:0:
468,194,27305,2,0,L|484:86,1,99.9999999999999,2|0,3:2|3:2,0:0:0:0:
412,24,27936,2,0,L|304:39,1,99.9999999999999,2|10,3:2|3:2,0:0:0:0:
275,70,28410,5,8,3:2:0:0:
275,70,28568,2,0,B|220:67|236:81|170:77,1,99.9999999999999,10|0,3:2|3:2,0:0:0:0:
80,46,29199,2,0,L|70:105,1,50,10|8,3:2|3:2,0:0:0:0:
66,140,29515,1,4,3:3:0:0:
66,140,30778,6,0,B|132:150|111:159|181:168,1,110.000003356934,6|0,3:1|3:2,0:0:0:0:
213,130,31252,2,0,B|279:120|258:111|328:102,1,110.000003356934,10|0,3:2|3:2,0:0:0:0:
364,71,31726,1,10,3:2:0:0:
459,125,32041,2,0,L|454:187,1,55.0000016784668,14|2,3:2|3:2,0:0:0:0:
405,198,32357,1,2,0:0:0:0:
405,198,32515,2,0,P|381:241|388:301,1,110.000003356934,10|2,3:2|3:2,0:0:0:0:
423,341,32989,1,10,3:2:0:0:
317,372,33305,6,0,P|266:364|202:356,1,110.000003356934,14|0,3:2|3:2,0:0:0:0:
172,315,33778,2,0,P|180:264|188:200,1,110.000003356934,8|0,3:2|3:2,0:0:0:0:
226,166,34252,2,0,P|222:140|218:109,1,55.0000016784668,10|2,3:2|3:2,0:0:0:0:
207,57,34568,2,0,P|159:33|89:51,1,110.000003356934,14|0,3:2|3:2,0:0:0:0:
53,59,35041,1,10,3:2:0:0:
45,172,35357,1,0,3:2:0:0:
45,172,35515,2,0,L|36:245,1,55.0000016784668,10|2,3:2|3:2,0:0:0:0:
31,281,35831,5,14,3:2:0:0:
113,354,36147,1,2,3:2:0:0:
210,302,36463,2,0,L|278:310,1,55.0000016784668,2|0,3:2|3:2,0:0:0:0:
319,316,36778,2,0,B|365:321|365:321|384:339|384:339|425:343,1,110.000003356934,10|12,3:2|3:2,0:0:0:0:
495,260,37410,2,0,P|496:237|483:201,1,55.0000016784668,2|8,3:2|3:2,0:0:0:0:
446,168,37726,1,2,3:2:0:0:
341,202,38041,1,10,3:2:0:0:
268,119,38357,6,0,L|278:54,2,55.0000016784668,14|0|0,3:2|3:2|3:2,0:0:0:0:
221,148,38831,2,0,L|211:213,2,55.0000016784668,10|2|0,3:2|3:2|3:2,0:0:0:0:
180,110,39305,2,0,P|122:107|57:137,1,110.000003356934,10|2,3:2|3:2,0:0:0:0:
34,162,39778,2,0,P|40:220|47:277,1,110.000003356934,10|0,3:2|3:2,0:0:0:0:
53,326,40252,1,10,3:2:0:0:
154,368,40568,1,10,3:2:0:0:
241,301,40884,6,0,P|236:256|229:181,1,110.000003356934,6|0,3:1|3:2,0:0:0:0:
187,156,41357,2,0,P|192:111|199:36,1,110.000003356934,10|0,3:2|3:2,0:0:0:0:
238,9,41831,1,10,3:2:0:0:
315,87,42147,2,0,L|377:92,1,55.0000016784668,14|2,3:2|3:2,0:0:0:0:
399,46,42463,1,2,3:2:0:0:
399,46,42621,2,0,P|452:38|500:63,1,110.000003356934,10|2,3:2|3:2,0:0:0:0:
510,117,43095,1,10,3:2:0:0:
448,208,43411,6,0,P|440:259|432:323,1,110.000003356934,14|0,3:2|3:2,0:0:0:0:
388,349,43884,2,0,B|324:345|344:361|271:356,1,110.000003356934,8|0,3:2|3:2,0:0:0:0:
234,324,44358,2,0,P|230:298|226:267,1,55.0000016784668,10|2,3:2|3:2,0:0:0:0:
218,214,44674,2,0,P|170:190|100:208,1,110.000003356934,14|0,3:2|3:2,0:0:0:0:
67,224,45147,1,10,3:2:0:0:
15,133,45463,1,0,3:2:0:0:
15,133,45621,2,0,L|24:60,1,55.0000016784668,10|2,3:2|3:2,0:0:0:0:
59,37,45937,5,14,3:2:0:0:
157,85,46253,1,2,3:2:0:0:
256,38,46569,2,0,L|324:46,1,55.0000016784668,2|0,3:2|3:2,0:0:0:0:
351,81,46884,2,0,B|346:127|346:127|328:146|328:146|324:187,1,110.000003356934,10|12,3:2|3:2,0:0:0:0:
417,243,47516,2,0,P|425:268|425:296,1,55.0000016784668,2|8,3:2|3:2,0:0:0:0:
427,351,47832,1,2,3:2:0:0:
320,375,48147,1,10,3:2:0:0:
248,290,48463,6,0,L|258:225,2,55.0000016784668,14|0|0,3:2|3:2|3:2,0:0:0:0:
206,326,48936,1,10,3:2:0:0:
108,371,49252,1,8,3:2:0:0:
108,371,49410,1,10,3:2:0:0:
41,290,49726,1,10,3:2:0:0:
41,290,49884,2,0,P|48:236|57:173,1,110.000003356934,8|10,3:2|3:2,0:0:0:0:
95,142,50357,2,0,P|126:138|160:149,1,55.0000016784668,8|8,3:2|3:2,0:0:0:0:
184,185,50673,2,0,P|215:189|249:178,1,55.0000016784668,8|8,3:2|3:2,0:0:0:0:
279,160,50989,6,0,B|308:164|332:166|332:166|352:184|352:184|381:187|486:200,1,200,6|0,3:1|0:0,0:0:0:0:
504,103,51936,2,0,L|494:52,1,50,2|0,3:2|3:2,0:0:0:0:
480,5,52252,2,0,P|412:1|369:17,1,99.9999999999999,8|2,0:2|0:0,0:0:0:0:
351,50,52726,2,0,P|283:54|240:38,1,99.9999999999999,2|2,3:2|0:0,0:0:0:0:
207,23,53199,1,2,0:0:0:0:
132,89,53515,6,0,P|124:141|115:197,1,99.9999999999999,4|0,3:2|0:0,0:0:0:0:
156,218,53989,1,0,3:2:0:0:
219,354,54463,2,0,P|247:345|284:348,1,50,0|0,3:2|3:2,0:0:0:0:
316,355,54778,2,0,P|368:361|422:332,1,99.9999999999999,10|0,0:0|3:2,0:0:0:0:
444,305,55252,1,10,0:0:0:0:
402,217,55568,1,0,3:2:0:0:
402,217,55726,2,0,L|415:111,1,99.9999999999999,2|4,0:0|3:2,0:0:0:0:
393,19,56357,5,2,0:0:0:0:
301,60,56673,1,2,0:0:0:0:
216,6,56989,2,0,L|162:16,2,50,2|0|8,3:2|3:2|0:0,0:0:0:0:
301,60,57620,1,2,0:0:0:0:
235,135,57936,1,2,0:0:0:0:
304,206,58252,1,2,0:0:0:0:
225,268,58568,6,0,B|169:269|187:283|123:285,1,99.9999999999999,6|2,3:2|0:0,0:0:0:0:
81,264,59041,1,0,3:2:0:0:
81,264,59199,1,2,0:0:0:0:
11,178,59515,2,0,L|16:119,1,50,2|0,3:2|3:2,0:0:0:0:
18,72,59831,2,0,P|13:50|0:20,2,50,8|8|0,0:0|0:0|3:2,0:0:0:0:
123,104,60463,2,0,P|147:100|171:93,2,50,8|8|0,0:0|0:0|3:2,0:0:0:0:
113,213,61094,6,0,P|194:211|301:286,1,200,6|0,3:2|0:0,0:0:0:0:
366,354,62041,2,0,L|426:346,1,50,2|0,3:2|3:2,0:0:0:0:
459,313,62357,2,0,P|478:272|472:213,1,99.9999999999999,10|2,0:0|0:0,0:0:0:0:
434,179,62831,2,0,P|415:138|421:79,1,99.9999999999999,2|2,3:2|0:0,0:0:0:0:
444,35,63305,1,2,0:0:0:0:
339,2,63620,6,0,B|297:7|297:7|279:25|279:25|232:33,1,99.9999999999999,6|0,3:2|0:0,0:0:0:0:
215,76,64094,2,0,B|173:71|173:71|155:53|155:53|108:45,1,99.9999999999999,4|0,3:2|0:0,0:0:0:0:
73,72,64568,2,0,P|60:100|65:131,1,50,0|0,3:2|3:2,0:0:0:0:
73,172,64884,1,14,3:2:0:0:
195,290,65357,1,10,0:0:0:0:
195,290,65515,2,0,L|180:353,2,50,0|8|8,3:2|3:2|3:2,0:0:0:0:
245,263,65989,1,8,3:2:0:0:
245,263,66147,5,6,3:2:0:0:
336,323,66463,1,2,0:0:0:0:
425,259,66778,1,2,0:0:0:0:
385,156,67094,2,0,L|392:89,1,50,2|0,3:2|3:2,0:0:0:0:
394,51,67410,5,10,0:0:0:0:
295,1,67726,1,2,0:0:0:0:
205,65,68041,1,2,0:0:0:0:
221,173,68357,2,0,L|228:225,1,50,2|0,3:2|3:2,0:0:0:0:
236,277,68673,6,0,P|190:304|135:297,1,99.9999999999999,8|2,0:0|3:2,0:0:0:0:
99,280,69147,1,8,0:0:0:0:
99,280,69305,1,0,3:2:0:0:
38,188,69620,2,0,L|49:135,1,50,0|0,3:2|3:2,0:0:0:0:
57,90,69936,1,10,3:2:0:0:
57,90,71199,6,0,B|117:81|97:68|157:60,1,99.9999999999999,4|2,3:2|0:0,0:0:0:0:
195,26,71673,2,0,B|255:35|235:48|295:56,1,99.9999999999999,2|2,3:2|0:0,0:0:0:0:
334,88,72147,2,0,L|388:80,1,50,2|2,3:2|3:2,0:0:0:0:
438,71,72463,1,14,0:0:0:0:
311,336,73568,5,0,3:2:0:0:
311,336,73726,2,0,L|212:327,1,99.9999999999999,6|2,3:2|0:0,0:0:0:0:
162,352,74199,2,0,P|126:315|116:251,1,99.9999999999999,2|2,3:2|0:0,0:0:0:0:
69,236,74673,1,2,3:2:0:0:
149,161,74989,1,12,0:0:0:0:
149,161,75147,1,0,3:2:0:0:
241,220,75463,1,14,0:0:0:0:
331,157,75778,1,6,3:2:0:0:
310,53,76094,1,0,3:2:0:0:
310,53,76252,6,0,P|261:35|198:45,1,99.9999999999999,4|0,3:2|0:0,0:0:0:0:
165,13,76726,2,0,P|116:31|53:21,1,99.9999999999999,0|2,3:2|0:0,0:0:0:0:
24,59,77199,2,0,L|17:118,1,50,0|0,3:2|3:2,0:0:0:0:
13,163,77515,2,0,B|131:180|98:197|212:212,1,200,10|4,0:0|0:0,0:0:0:0:
329,329,78620,5,0,3:2:0:0:
329,329,78778,2,0,P|379:335|431:313,1,99.9999999999999,6|2,3:2|0:0,0:0:0:0:
469,284,79252,2,0,P|463:234|485:182,1,99.9999999999999,0|0,3:2|0:0,0:0:0:0:
511,142,79726,2,0,L|505:87,1,50,0|0,3:2|3:2,0:0:0:0:
501,37,80041,1,10,0:0:0:0:
501,37,80199,1,6,3:2:0:0:
366,130,80673,1,10,3:2:0:0:
366,130,80831,1,4,3:2:0:0:
244,17,81305,1,4,3:2:0:0:
256,192,81463,12,0,88252,0:0:0:0:
