osu file format v14

[General]
AudioFilename: audio.mp3
AudioLeadIn: 0
PreviewTime: 30707
Countdown: 0
SampleSet: Soft
StackLeniency: 0.7
Mode: 0
LetterboxInBreaks: 0
WidescreenStoryboard: 0

[Editor]
Bookmarks: 8378,64746
DistanceSpacing: 0.8
BeatDivisor: 4
GridSize: 16
TimelineZoom: 1

[Metadata]
Title:MUKANJYO (TV Size)
TitleUnicode:MUKANJYO (TV Size)
Artist:Survive Said The Prophet
ArtistUnicode:Survive Said The Prophet
Creator:Sajinn
Version:REVENGE
Source:ヴィンランド・サガ
Tags:nymphe kiyoshi guarden hakashii vinland saga anime op japanese opening rock jrock yosh morita Tatsuya Ivan Yudai viking
BeatmapID:3098608
BeatmapSetID:1513391

[Difficulty]
HPDrainRate:5.4
CircleSize:4.2
OverallDifficulty:8.8
ApproachRate:9.2
SliderMultiplier:1.92
SliderTickRate:1

[Events]
//Background and Video events
0,0,"1037601.jpg",0,0
//Break Periods
//Storyboard Layer 0 (Background)
//Storyboard Layer 1 (Fail)
//Storyboard Layer 2 (Pass)
//Storyboard Layer 3 (Foreground)
//Storyboard Layer 4 (Overlay)
//Storyboard Sound Samples

[TimingPoints]
471,315.789473684211,4,2,22,42,1,0
471,-161.290322580645,4,2,22,42,0,0
8049,-238.095238095238,4,2,22,42,0,0
10892,-121.951219512195,4,2,22,52,0,0
20365,-454.545454545452,4,2,22,52,0,0
20681,-121.951219512195,4,2,22,52,0,0
25418,-454.545454545452,4,2,22,52,0,0
25734,-121.951219512195,4,2,22,52,0,0
30786,-75.7575757575758,4,2,22,72,0,0
39313,-312.5,4,2,22,72,0,0
40576,-75.7575757575758,4,2,22,72,0,0
50997,-454.545454545455,4,2,22,52,0,0
59839,-75.7575757575758,4,2,22,52,0,0
60471,-138.888888888889,4,2,22,52,0,0
60786,-454.545454545455,4,2,22,52,0,0
68681,-108.695652173913,4,2,22,62,0,0
69944,-833.333333333333,4,2,22,62,0,0
71207,-49.5049504950495,4,2,22,62,0,1
72155,-70.4225352112676,4,2,22,62,0,1
72786,-833.333333333333,4,2,22,62,0,1
73576,-81.9672131147541,4,2,22,62,0,1
74207,-161.290322580645,4,2,22,62,0,1
75155,-43.1034482758621,4,2,22,62,0,1
75471,-75.7575757575758,4,2,22,62,0,1
75786,-238.095238095238,4,2,22,62,0,1
76260,-49.5049504950495,4,2,22,62,0,1
76734,-454.545454545455,4,2,22,62,0,1
77523,-833.333333333333,4,2,22,62,0,1
78628,-43.1034482758621,4,2,22,62,0,1
81313,-357.142857142857,4,2,22,62,0,1
86523,-357.142857142857,4,2,22,5,0,0

[Colours]
Combo1 : 109,106,106
Combo2 : 154,153,153
Combo3 : 227,3,3
Combo4 : 154,7,7
Combo5 : 145,82,6
Combo6 : 191,111,15

[HitObjects]
62,176,471,85,0,0:0:0:0:
137,125,628,1,2,0:2:0:0:
198,166,786,1,2,0:2:0:0:
260,127,944,1,2,0:2:0:0:
187,183,1102,2,0,P|174:241|162:299,1,119.039995277344,2|0,0:2|0:0,0:0:0:0:
214,360,1576,1,0,0:0:0:0:
325,256,1734,6,0,P|289:245|245:233,1,59.519997638672,2|2,0:2|0:2,0:0:0:0:
387,330,2049,2,0,P|351:341|307:353,1,59.519997638672,2|2,0:2|0:2,0:0:0:0:
339,256,2365,1,2,0:2:0:0:
390,314,2523,1,2,0:2:0:0:
512,236,2681,2,0,P|461:245|433:203,1,89.279996458008,2|0,0:2|0:0,0:0:0:0:
380,165,2997,70,0,P|370:113|352:23,1,119.039995277344,2|2,0:2|0:2,0:0:0:0:
354,42,3471,1,0,0:0:0:0:
287,152,3628,2,0,P|228:140|170:129,1,119.039995277344,2|2,0:2|0:2,0:0:0:0:
124,67,4102,1,2,0:2:0:0:
19,138,4260,5,2,0:2:0:0:
109,79,4418,1,2,0:2:0:0:
14,158,4576,2,0,B|84:152|65:197|131:193,1,119.039995277344,2|2,0:2|0:2,0:0:0:0:
258,240,5049,1,2,0:2:0:0:
184,258,5207,2,0,P|154:283|164:337,1,89.279996458008,2|0,0:2|0:0,0:0:0:0:
220,375,5523,70,0,P|278:363|336:352,1,119.039995277344,2|0,0:2|0:0,0:0:0:0:
276,232,5997,2,0,P|334:243|392:254,1,119.039995277344,2|0,0:2|0:0,0:0:0:0:
354,134,6471,2,0,P|412:122|470:111,1,119.039995277344,2|0,0:2|0:0,0:0:0:0:
280,78,6944,6,0,P|267:50|260:7,2,59.519997638672
218,137,7418,2,0,P|191:124|162:117,1,59.519997638672
243,221,7734,2,0,P|269:208|298:201,1,59.519997638672
269,326,8049,70,0,P|234:302|183:297,1,80.6399975390626,2|0,0:2|0:0,0:0:0:0:
166,218,8523,2,0,P|131:242|80:247,1,80.6399975390626,2|0,0:2|0:0,0:0:0:0:
23,121,8997,2,0,P|58:145|109:150,1,80.6399975390626,2|0,0:2|0:0,0:0:0:0:
162,95,9471,6,0,P|177:73|183:45,2,40.3199987695313
220,150,9944,2,0,P|242:135|270:129,1,40.3199987695313
314,224,10260,2,0,P|298:212|280:205,1,40.3199987695313
168,315,10576,53,8,0:2:0:0:
173,326,10655,1,8,0:2:0:0:
181,335,10734,1,10,0:2:0:0:
191,342,10813,1,8,0:2:0:0:
201,343,10892,70,0,P|247:332|311:316,1,78.7200012011719,10|2,0:2|0:2,0:0:0:0:
402,257,11207,1,2,1:2:0:0:
471,303,11365,1,2,0:2:0:0:
367,337,11523,1,2,1:2:0:0:
396,273,11681,1,2,0:2:0:0:
290,152,11839,5,2,1:2:0:0:
316,240,11997,1,2,0:2:0:0:
383,172,12155,1,2,1:2:0:0:
327,228,12313,1,2,0:2:0:0:
279,138,12471,2,0,P|233:127|169:111,1,78.7200012011719,2|2,1:2|0:2,0:0:0:0:
198,250,12786,2,0,P|159:259|121:268,1,78.7200012011719,2|0,1:2|0:0,0:0:0:0:
27,95,13102,69,8,0:2:0:0:
38,90,13181,1,8,0:2:0:0:
50,90,13260,1,10,0:2:0:0:
62,92,13339,1,8,0:2:0:0:
70,98,13418,6,0,P|96:130|94:176,1,78.7200012011719,2|2,1:2|0:2,0:0:0:0:
21,263,13734,2,0,B|67:254|97:288|97:288|112:337|167:349,1,157.440002402344,2|2,1:2|1:2,0:0:0:0:
212,298,14207,1,2,0:2:0:0:
321,356,14365,69,2,1:2:0:0:
392,319,14523,1,2,0:2:0:0:
308,364,14681,1,2,1:2:0:0:
326,278,14839,2,0,P|335:239|344:201,1,78.7200012011719,2|0,0:2|1:2,0:0:0:0:
504,121,15155,1,2,0:2:0:0:
430,175,15313,1,2,1:2:0:0:
329,80,15471,2,0,P|302:78|268:73,1,39.3600006005859,2|2,3:2|3:2,0:0:0:0:
155,150,15628,5,10,0:2:0:0:
160,161,15707,1,8,0:2:0:0:
168,170,15786,1,8,0:2:0:0:
178,177,15865,1,8,0:2:0:0:
188,178,15944,70,0,P|234:167|298:151,1,78.7200012011719,8|2,0:2|0:2,0:0:0:0:
143,48,16260,2,0,P|127:107|100:218,1,157.440002402344,0|2,1:2|1:2,0:0:0:0:
100,206,16734,1,0,0:0:0:0:
5,315,16892,6,0,B|95:280|71:371|171:339,1,157.440002402344,0|0,1:2|1:2,0:0:0:0:
157,338,17365,1,0,0:0:0:0:
310,282,17523,2,0,P|257:271|215:258,1,78.7200012011719,0|0,1:2|0:0,0:0:0:0:
315,113,17839,2,0,B|286:148|286:148|300:202,1,78.7200012011719,0|0,1:2|0:0,0:0:0:0:
447,222,18155,69,10,0:2:0:0:
457,215,18234,1,8,0:2:0:0:
465,206,18313,1,8,0:2:0:0:
470,195,18392,1,8,0:2:0:0:
465,186,18471,6,0,P|426:176|388:167,1,78.7200012011719,8|2,0:2|0:2,0:0:0:0:
310,282,18786,2,0,P|287:318|316:367,1,78.7200012011719,0|0,1:2|0:0,0:0:0:0:
429,367,19102,2,0,B|388:296|489:293|441:211,1,157.440002402344,2|0,1:2|1:2,0:0:0:0:
440,218,19576,1,2,0:2:0:0:
274,179,19734,2,0,P|313:169|351:160,1,78.7200012011719,0|0,1:2|0:0,0:0:0:0:
448,93,20049,2,0,B|464:53|464:53|441:17,1,78.7200012011719,0|0,1:2|0:0,0:0:0:0:
263,174,20365,70,0,P|244:167|227:162,1,31.6800009667969,6|0,1:2|0:0,0:0:0:0:
176,109,20681,5,10,0:2:0:0:
162,114,20760,1,8,0:2:0:0:
148,119,20839,1,8,0:2:0:0:
134,124,20918,1,8,0:2:0:0:
122,130,20997,70,0,P|99:171|110:206,1,78.7200012011719,8|2,0:2|0:2,0:0:0:0:
192,292,21313,1,0,1:2:0:0:
263,174,21471,5,8,0:2:0:0:
277,179,21550,1,8,0:2:0:0:
291,184,21629,1,10,0:2:0:0:
305,189,21708,1,8,0:2:0:0:
318,195,21786,2,0,P|333:216|344:247,1,39.3600006005859,8|8,0:2|0:2,0:0:0:0:
268,310,21944,70,0,P|229:300|191:291,1,78.7200012011719,8|0,0:2|0:0,0:0:0:0:
57,379,22260,2,0,B|16:308|117:305|69:223,1,157.440002402344,0|0,1:2|1:2,0:0:0:0:
67,225,22734,1,0,0:0:0:0:
103,53,22892,2,0,P|112:91|121:129,1,78.7200012011719,2|0,1:2|0:0,0:0:0:0:
194,238,23207,5,10,0:2:0:0:
205,243,23286,1,8,0:2:0:0:
217,243,23365,1,8,0:2:0:0:
229,241,23444,1,8,0:2:0:0:
237,235,23523,70,0,P|263:203|261:157,1,78.7200012011719,8|2,0:2|0:2,0:0:0:0:
191,81,23839,1,0,1:2:0:0:
310,96,23997,5,8,0:2:0:0:
324,101,24076,1,8,0:2:0:0:
338,106,24155,1,10,0:2:0:0:
352,111,24234,1,8,0:2:0:0:
362,115,24313,2,0,P|370:144|377:169,1,39.3600006005859,8|8,0:2|0:2,0:0:0:0:
491,278,24471,70,0,P|468:239|394:246,1,118.080001801758,8|0,0:2|0:0,0:0:0:0:
351,301,24786,2,0,P|360:339|369:377,1,78.7200012011719,2|0,1:2|0:0,0:0:0:0:
170,315,25102,2,0,P|209:335|243:325,1,78.7200012011719,2|0,1:2|0:0,0:0:0:0:
309,189,25418,6,0,P|288:195|272:200,1,31.6800009667969,6|0,1:2|0:0,0:0:0:0:
201,225,25734,69,10,0:2:0:0:
187,220,25813,1,8,0:2:0:0:
173,215,25892,1,8,0:2:0:0:
159,210,25971,1,8,0:2:0:0:
144,204,26049,6,0,P|125:162|145:119,1,78.7200012011719,8|2,0:2|0:2,0:0:0:0:
235,52,26365,1,0,1:2:0:0:
309,189,26523,69,8,0:2:0:0:
323,194,26602,1,8,0:2:0:0:
337,199,26681,1,10,0:2:0:0:
351,204,26760,1,8,0:2:0:0:
362,208,26839,2,0,P|381:185|382:151,1,39.3600006005859,8|8,0:2|0:2,0:0:0:0:
433,20,26997,6,0,P|442:61|463:162,1,118.080001801758,8|0,0:2|0:0,0:0:0:0:
512,218,27313,2,0,B|473:202|436:236|436:236|419:285|364:297,1,157.440002402344,2|0,1:2|1:2,0:0:0:0:
373,292,27786,1,0,0:0:0:0:
240,304,27944,2,0,B|222:338|222:338|238:374,1,78.7200012011719,2|0,1:2|0:0,0:0:0:0:
280,212,28260,69,8,0:2:0:0:
275,200,28339,1,8,0:2:0:0:
267,192,28418,1,8,0:2:0:0:
257,185,28497,1,8,0:2:0:0:
247,183,28576,6,0,P|205:187|174:221,1,78.7200012011719,10|0,0:2|0:0,0:0:0:0:
131,319,28892,1,0,1:2:0:0:
49,220,29049,69,8,0:2:0:0:
54,206,29128,1,8,0:2:0:0:
59,192,29207,1,10,0:2:0:0:
64,178,29286,1,8,0:2:0:0:
70,165,29365,2,0,P|79:138|87:111,1,39.3600006005859,8|8,0:2|0:2,0:0:0:0:
124,307,29523,5,2,1:2:0:0:
124,307,30786,37,14,0:2:0:0:
60,356,30944,1,0,1:2:0:0:
137,297,31102,1,0,1:2:0:0:
360,375,31260,5,8,0:2:0:0:
310,324,31418,1,0,1:2:0:0:
360,273,31576,1,0,1:2:0:0:
185,159,31734,70,0,B|222:146|221:99|221:99|223:174|324:193,1,190.079999419922,10|0,0:2|0:0,0:0:0:0:
365,150,32049,5,14,0:2:0:0:
441,103,32207,1,0,1:2:0:0:
506,136,32365,1,2,1:2:0:0:
256,35,32523,69,10,0:2:0:0:
321,67,32681,1,0,1:2:0:0:
383,26,32839,1,2,1:2:0:0:
173,170,32997,5,10,0:2:0:0:
113,136,33155,1,0,1:2:0:0:
17,295,33313,70,0,B|65:263|110:300|110:300|136:359|206:343,1,190.079999419922,12|0,0:2|0:0,0:0:0:0:
230,293,33628,1,0,1:2:0:0:
329,375,33786,2,0,B|298:353|261:326|261:326|305:287|350:240,1,190.079999419922,8|0,0:2|0:0,0:0:0:0:
412,264,34102,1,0,1:2:0:0:
266,152,34260,5,10,0:2:0:0:
200,187,34418,1,2,1:2:0:0:
19,39,34576,69,14,0:2:0:0:
99,75,34734,1,0,1:2:0:0:
32,46,34892,1,0,1:2:0:0:
247,34,35049,5,10,0:2:0:0:
326,37,35207,1,0,1:2:0:0:
373,115,35365,1,0,1:2:0:0:
190,203,35523,69,10,0:2:0:0:
207,124,35681,2,0,B|201:149|201:149|202:155|202:155|192:195,1,63.3599998066406,0|0,1:2|1:2,0:0:0:0:
114,338,35839,6,0,B|93:317|61:315|61:315|221:328,1,190.079999419922,12|0,0:2|0:0,0:0:0:0:
259,373,36155,1,2,1:2:0:0:
479,330,36313,69,8,0:2:0:0:
422,274,36471,1,2,1:2:0:0:
339,306,36628,1,0,1:2:0:0:
504,162,36786,5,10,0:2:0:0:
442,201,36944,1,0,1:2:0:0:
207,124,37102,70,0,B|270:127|307:90|307:90|271:120|283:178,1,190.079999419922,12|0,0:2|0:0,0:0:0:0:
339,206,37418,1,2,1:2:0:0:
163,227,37576,5,8,0:2:0:0:
125,167,37734,1,2,1:2:0:0:
188,136,37892,1,0,1:2:0:0:
228,336,38049,69,10,0:2:0:0:
162,370,38207,1,0,1:2:0:0:
19,184,38365,5,14,0:2:0:0:
57,267,38523,1,0,1:2:0:0:
146,245,38681,1,2,1:2:0:0:
276,22,38839,69,8,0:2:0:0:
182,37,38997,1,2,1:2:0:0:
205,147,39155,1,0,1:2:0:0:
488,61,39313,6,0,B|478:52|476:32|476:32|474:52|459:68,1,61.44,14|0,0:2|1:2,0:0:0:0:
146,245,39786,70,0,B|156:254|158:274|158:274|160:254|175:238,1,61.44,14|0,0:2|1:2,0:0:0:0:
189,159,40181,5,0,1:2:0:0:
205,147,40260,1,10,0:2:0:0:
459,157,40418,69,0,1:2:0:0:
478,177,40497,1,0,1:2:0:0:
483,205,40576,2,0,P|484:223|457:263,1,63.3599998066406,10|0,0:2|1:0,0:0:0:0:
243,358,40734,5,0,1:2:0:0:
268,316,40813,1,0,1:2:0:0:
316,312,40892,70,0,B|362:320|421:331|421:331|376:302|379:246,1,190.079999419922,14|0,0:2|0:0,0:0:0:0:
330,206,41207,1,0,1:2:0:0:
150,336,41365,5,8,0:2:0:0:
86,303,41523,1,0,1:2:0:0:
75,227,41681,1,0,1:2:0:0:
158,48,41839,69,10,0:2:0:0:
199,109,41997,1,2,1:2:0:0:
58,221,42155,5,14,0:2:0:0:
121,149,42313,1,0,1:2:0:0:
189,220,42471,1,2,1:2:0:0:
395,95,42628,69,10,0:2:0:0:
307,135,42786,1,0,1:2:0:0:
411,88,42944,1,2,1:2:0:0:
269,303,43102,6,0,B|331:335|382:287|382:287|335:281|320:227,1,190.079999419922,10|0,0:2|0:0,0:0:0:0:
255,292,43418,70,0,B|207:277|173:315|173:315|156:375|90:379,1,190.079999419922,12|0,0:2|0:0,0:0:0:0:
47,327,43734,1,0,1:2:0:0:
6,236,43892,2,0,B|41:268|47:323|47:323|38:265|70:200,1,190.079999419922,8|0,0:2|0:0,0:0:0:0:
118,185,44207,1,0,1:2:0:0:
7,58,44365,5,10,0:2:0:0:
64,97,44523,1,2,1:2:0:0:
245,24,44681,69,14,0:2:0:0:
322,59,44839,1,0,1:2:0:0:
292,134,44997,1,0,1:2:0:0:
105,193,45155,5,10,0:2:0:0:
169,159,45313,1,0,1:2:0:0:
214,218,45471,1,0,1:2:0:0:
145,334,45628,69,10,0:2:0:0:
67,313,45786,2,0,B|94:317|94:317|97:319|97:319|145:325,1,63.3599998066406,0|0,1:2|1:2,0:0:0:0:
312,373,45944,6,0,B|283:347|253:318|253:318|295:286|353:235,1,190.079999419922,12|0,0:2|0:0,0:0:0:0:
414,242,46260,1,2,1:2:0:0:
280,137,46418,69,8,0:2:0:0:
365,161,46576,1,2,1:2:0:0:
255,127,46734,1,0,1:2:0:0:
444,75,46892,6,0,B|465:61|505:68|505:68|348:36,1,190.079999419922,10|0,0:2|0:0,0:0:0:0:
284,42,47207,70,0,B|233:22|193:67|193:67|179:129|102:132,1,190.079999419922,12|0,0:2|0:0,0:0:0:0:
63,86,47523,1,2,1:2:0:0:
237,229,47681,5,8,0:2:0:0:
150,203,47839,1,2,1:2:0:0:
259,237,47997,1,0,1:2:0:0:
49,296,48155,69,10,0:2:0:0:
3,231,48313,1,0,1:2:0:0:
137,360,48471,6,0,B|187:353|198:295|198:295|184:370|272:409,1,190.079999419922,12|0,0:2|0:0,0:0:0:0:
303,375,48786,1,2,1:2:0:0:
506,257,48944,69,8,0:2:0:0:
443,293,49102,1,2,1:2:0:0:
315,115,49260,5,8,0:2:0:0:
357,98,49339,1,8,0:2:0:0:
400,125,49418,2,0,B|429:132|429:132|435:137|435:137|475:145,1,63.3599998066406,10|8,0:2|0:2,0:0:0:0:
252,233,49576,1,2,1:2:0:0:
151,87,49734,69,10,0:2:0:0:
127,53,49813,1,8,0:2:0:0:
79,49,49892,2,0,B|70:83|70:83|66:85|66:85|56:123,1,63.3599998066406,8|8,0:2|0:2,0:0:0:0:
31,245,50049,1,0,1:2:0:0:
158,220,50207,5,10,3:3:0:0:
207,193,50286,69,8,3:3:0:0:
252,233,50365,5,8,3:3:0:0:
281,206,50444,69,8,3:3:0:0:
289,202,50523,6,0,P|316:213|383:226,1,63.3599998066406,8|8,0:2|0:2,0:0:0:0:
199,344,50681,2,0,P|226:333|293:320,1,63.3599998066406,10|8,0:2|0:2,0:0:0:0:
433,335,50839,2,0,P|465:314|483:273,1,63.3599998066406,10|8,0:2|0:2,0:0:0:0:
446,60,50997,22,0,P|407:94|350:105,1,105.600003222656,6|0,1:2|0:0,0:0:0:0:
95,26,51944,69,2,1:2:0:0:
85,31,52023,1,0,1:2:0:0:
76,25,52102,1,2,1:2:0:0:
67,30,52181,1,0,1:2:0:0:
58,27,52260,6,0,P|38:55|39:88,2,63.3600019335938,10|2|2,1:2|1:2|0:2,0:0:0:0:
225,229,53365,69,0,1:2:0:0:
229,233,53444,1,0,1:2:0:0:
233,238,53523,2,0,L|188:232,1,42.2400012890625,4|0,1:2|0:0,0:0:0:0:
512,363,53997,2,0,L|470:368,1,42.2400012890625,4|0,1:2|0:0,0:0:0:0:
351,186,54471,5,2,1:2:0:0:
344,179,54549,1,0,1:2:0:0:
351,172,54628,1,2,1:2:0:0:
341,162,54707,1,0,1:2:0:0:
346,152,54786,70,0,P|342:135|336:107,1,42.2400012890625,10|0,0:2|1:2,0:0:0:0:
98,243,55260,2,0,P|101:226|108:198,1,42.2400012890625,10|0,0:2|1:2,0:0:0:0:
113,185,55892,5,8,0:2:0:0:
108,180,55971,1,8,0:2:0:0:
104,174,56049,2,0,P|79:169|60:160,1,42.2400012890625,4|2,1:2|0:2,0:0:0:0:
261,246,56523,2,0,P|241:254|220:257,1,42.2400012890625,0|0,1:2|0:0,0:0:0:0:
371,342,56997,69,2,1:2:0:0:
379,336,57076,1,0,1:2:0:0:
386,342,57155,1,0,1:2:0:0:
393,334,57234,1,0,1:2:0:0:
403,342,57313,6,0,P|436:336|494:329,1,84.4800025781251,12|2,0:2|0:2,0:0:0:0:
201,19,58418,69,0,1:2:0:0:
196,22,58497,1,0,1:2:0:0:
191,24,58576,2,0,P|185:52|180:73,1,42.2400012890625,6|2,1:2|0:2,0:0:0:0:
272,178,59049,2,0,P|277:207|283:227,1,42.2400012890625,0|0,1:2|0:0,0:0:0:0:
150,347,59523,5,2,1:2:0:0:
139,342,59602,1,0,1:2:0:0:
131,334,59681,1,0,1:2:0:0:
127,323,59760,1,0,1:2:0:0:
131,312,59839,70,0,L|146:214,1,84.4799997421875,8|8,0:2|0:2,0:0:0:0:
99,79,60049,6,0,L|86:162,1,84.4799997421875,8|0,0:2|1:2,0:0:0:0:
94,170,60471,69,10,0:2:0:0:
159,146,60576,5,8,0:2:0:0:
193,169,60681,69,8,0:2:0:0:
206,161,60786,6,0,P|225:168|239:167,1,31.6800009667969,6|0,0:2|0:0,0:0:0:0:
422,160,61102,70,0,P|380:157|356:98,1,105.600003222656,6|0,1:2|0:0,0:0:0:0:
509,315,62049,5,2,1:2:0:0:
503,322,62128,1,0,1:2:0:0:
511,331,62207,1,2,1:2:0:0:
504,339,62286,1,0,1:2:0:0:
508,347,62365,70,0,P|477:355|445:366,2,63.3600019335938,10|2|2,0:2|1:2|0:2,0:0:0:0:
182,267,63471,5,0,1:2:0:0:
176,263,63549,1,0,1:2:0:0:
169,260,63628,2,0,P|141:266|121:271,1,42.2400012890625,4|0,1:2|0:0,0:0:0:0:
66,31,64102,2,0,P|38:25|18:20,1,42.2400012890625,4|0,1:2|0:0,0:0:0:0:
231,130,64576,69,2,1:2:0:0:
238,136,64655,1,0,1:2:0:0:
247,130,64734,1,2,1:2:0:0:
256,136,64813,1,0,1:2:0:0:
266,133,64892,6,0,P|296:127|331:121,1,63.3600019335938,10|10,0:2|0:2,0:0:0:0:
354,116,65523,69,4,1:2:0:0:
403,168,65628,5,8,0:2:0:0:
360,227,65734,69,8,0:2:0:0:
378,257,65839,5,10,0:2:0:0:
369,273,65944,69,8,0:2:0:0:
375,284,66049,5,8,0:2:0:0:
371,295,66155,70,0,P|348:306|326:309,1,42.2400012890625,4|2,1:2|0:2,0:0:0:0:
231,231,66628,2,0,P|212:221|191:217,1,42.2400012890625,0|0,1:2|0:0,0:0:0:0:
53,112,67102,5,2,1:2:0:0:
49,123,67181,1,0,1:2:0:0:
56,133,67260,1,0,1:2:0:0:
51,145,67339,1,0,1:2:0:0:
56,157,67418,70,0,P|66:192|71:225,2,63.3600019335938,12|0|2,0:2|1:2|0:2,0:0:0:0:
396,45,68523,5,0,1:2:0:0:
402,42,68602,1,0,1:2:0:0:
408,39,68681,2,0,B|356:31|326:78|326:78|319:129|253:148,1,176.639994070313,12|2,0:2|1:2,0:0:0:0:
132,87,69155,1,8,0:2:0:0:
176,276,69313,69,10,3:3:0:0:
222,258,69391,5,8,3:3:0:0:
266,294,69470,69,8,3:3:0:0:
292,275,69549,5,8,3:3:0:0:
336,299,69628,69,2,3:2:0:0:
340,281,69707,6,0,P|321:242|310:219,1,44.1599985175782,8|2,0:2|1:2,0:0:0:0:
132,87,69865,1,0,1:2:0:0:
120,88,69944,70,0,P|106:136|98:167,1,80.6400019687501,10|2,0:2|0:2,0:0:0:0:
290,317,71207,70,0,B|176:235|178:384|71:252|71:252|188:268|200:104,1,387.839992306641,6|2,1:2|0:2,0:0:0:0:
294,121,71681,2,0,B|335:115|335:115|341:79|384:57|384:57|340:79|302:62|302:62|196:138|362:285,1,387.839992306641,2|2,1:2|0:2,0:0:0:0:
442,355,72155,69,2,1:2:0:0:
487,325,72234,1,0,1:2:0:0:
512,277,72313,1,2,1:2:0:0:
509,223,72392,1,0,1:2:0:0:
476,189,72471,6,0,B|429:178|413:132|413:132|420:160|402:182,1,136.319993135743,8|2,0:2|0:2,0:0:0:0:
181,384,72786,70,0,B|199:375|199:375|206:377|206:377|227:369,1,46.080001125,2|0,0:2|0:0,0:0:0:0:
311,231,73576,5,0,1:2:0:0:
302,226,73655,1,0,1:2:0:0:
296,220,73734,2,0,B|252:189|258:129|258:129|353:103|308:-13,1,234.23999034961,6|2,1:2|0:2,0:0:0:0:
93,271,74207,2,0,P|119:232|125:151,1,119.039995277344,2|2,1:2|0:2,0:0:0:0:
12,26,74681,69,2,1:2:0:0:
22,35,74760,1,0,1:2:0:0:
40,26,74839,1,2,1:2:0:0:
52,37,74918,1,0,1:2:0:0:
63,28,74997,1,10,0:2:0:0:
418,211,75155,6,0,B|378:245|298:225|298:225|372:246|372:297,1,222.720006796875,6|0,1:2|0:0,0:0:0:0:
103,383,75471,70,0,B|176:372|176:372|207:332|207:332|282:320,1,190.079999419922,14|0,0:2|0:0,0:0:0:0:
397,355,75786,6,0,P|375:324|370:278,1,80.6399975390626,2|0,1:2|1:2,0:0:0:0:
370,83,76260,70,0,B|398:46|444:47|444:47|375:46|370:10|368:47|314:62|314:62|296:169|188:162,1,387.839992306641,6|0,1:2|0:0,0:0:0:0:
21,21,76734,6,0,P|43:32|62:38,1,42.2400012890625,2|2,1:2|0:2,0:0:0:0:
311,225,77207,69,2,1:2:0:0:
320,233,77286,1,0,1:2:0:0:
311,244,77365,1,2,1:2:0:0:
322,258,77444,1,0,1:2:0:0:
320,271,77523,6,0,P|323:296|336:272,1,69.1200016875001,10|0,0:2|0:0,0:0:0:0:
61,158,78628,69,0,1:2:0:0:
53,162,78707,1,0,1:2:0:0:
46,170,78786,6,0,B|74:227|38:269|38:269|86:321|139:332|129:266|216:317|216:317|129:266|186:173,1,445.44001359375,6|2,1:2|0:2,0:0:0:0:
298,75,79260,2,0,B|349:31|407:68|421:112|401:178|299:202|231:125|231:125|298:207|226:266,1,445.44001359375,2|2,1:2|0:2,0:0:0:0:
361,342,79734,69,2,1:2:0:0:
371,348,79813,1,0,1:2:0:0:
384,348,79892,1,2,1:2:0:0:
394,345,79971,1,0,1:2:0:0:
404,340,80049,5,14,0:2:0:0:
298,75,80207,1,2,1:2:0:0:
289,54,80523,69,0,1:2:0:0:
173,196,80681,1,8,0:2:0:0:
323,284,80839,1,4,1:2:0:0:
323,284,81313,6,0,B|420:237|394:128|358:96|329:74|268:66|212:84|175:119|169:164|173:195|173:195|170:146|192:97|281:113|307:174|254:228|254:228|227:264|224:321|255:364|298:375|339:370,1,887.040010828125,4|0,1:2|0:0,0:0:0:0:
