osu file format v14

[General]
AudioFilename: audio.mp3
AudioLeadIn: 0
PreviewTime: 30707
Countdown: 0
SampleSet: Soft
StackLeniency: 0.7
Mode: 0
LetterboxInBreaks: 0
WidescreenStoryboard: 1

[Editor]
Bookmarks: 64746
DistanceSpacing: 1.4
BeatDivisor: 4
GridSize: 16
TimelineZoom: 1

[Metadata]
Title:MUKANJYO (TV Size)
TitleUnicode:MUKANJYO (TV Size)
Artist:Survive Said The Prophet
ArtistUnicode:Survive Said The Prophet
Creator:Sajinn
Version:HARD
Source:ヴィンランド・サガ
Tags:nymphe kiyoshi guarden hakashii vinland saga anime op japanese opening rock jrock yosh morita Tatsuya Ivan Yudai viking
BeatmapID:3100679
BeatmapSetID:1513391

[Difficulty]
HPDrainRate:4.2
CircleSize:3.6
OverallDifficulty:6.5
ApproachRate:8
SliderMultiplier:1.42
SliderTickRate:1

[Events]
//Background and Video events
0,0,"1037601.jpg",0,0
//Break Periods
//Storyboard Layer 0 (Background)
//Storyboard Layer 1 (Fail)
//Storyboard Layer 2 (Pass)
//Storyboard Layer 3 (Foreground)
//Storyboard Layer 4 (Overlay)
//Storyboard Sound Samples

[TimingPoints]
471,315.789473684211,4,2,22,42,1,0
471,-138.888888888889,4,2,22,42,0,0
10576,-121.951219512195,4,2,22,42,0,0
10892,-121.951219512195,4,2,22,52,0,0
30786,-98.0392156862744,4,2,22,72,0,1
50997,-121.951219512195,4,2,22,52,0,0
68681,-108.695652173913,4,2,22,62,0,0
86523,-108.695652173913,4,2,22,62,0,0

[Colours]
Combo1 : 109,106,106
Combo2 : 154,153,153
Combo3 : 227,3,3
Combo4 : 154,7,7
Combo5 : 145,82,6
Combo6 : 191,111,15

[HitObjects]
73,31,471,86,0,P|66:71|62:105,1,51.1200012480469,0|2,0:0|0:2,0:0:0:0:
122,131,786,2,0,P|129:171|133:205,1,51.1200012480469,2|2,0:2|0:2,0:0:0:0:
88,246,1102,2,0,P|119:218|182:228,1,102.240002496094,2|0,0:2|0:0,0:0:0:0:
289,327,1734,2,0,P|324:323|349:318,1,51.1200012480469,2|2,0:2|0:2,0:0:0:0:
358,245,2049,2,0,P|383:249|408:251,1,51.1200012480469,2|2,0:2|0:2,0:0:0:0:
463,197,2365,2,0,P|481:167|476:142,2,51.1200012480469,2|2|2,0:2|0:2|0:2,0:0:0:0:
381,42,2997,6,0,P|391:102|400:150,1,102.240002496094,2|2,0:2|0:2,0:0:0:0:
246,119,3628,2,0,P|236:179|227:227,1,102.240002496094,2|2,0:2|0:2,0:0:0:0:
178,279,4102,1,2,0:2:0:0:
178,279,4260,2,0,P|149:285|122:292,1,51.1200012480469,2|2,0:2|0:2,0:0:0:0:
61,329,4576,2,0,P|88:305|72:225,1,102.240002496094,2|2,0:2|0:2,0:0:0:0:
42,180,5049,1,2,0:2:0:0:
42,180,5207,2,0,P|36:144|28:117,1,51.1200012480469,2|0,0:2|0:0,0:0:0:0:
63,59,5523,70,0,P|104:48|173:22,1,102.240002496094,2|0,0:2|0:0,0:0:0:0:
184,100,5997,2,0,P|233:113|281:131,1,102.240002496094,2|0,0:2|0:0,0:0:0:0:
289,208,6471,2,0,P|330:197|399:171,1,102.240002496094,2|0,0:2|0:0,0:0:0:0:
441,123,6944,2,0,P|456:98|461:68,2,51.1200012480469
460,197,7418,2,0,P|466:221|479:243,2,51.1200012480469
397,336,8049,6,0,P|358:293|311:299,1,102.240002496094,2|0,0:2|0:0,0:0:0:0:
259,245,8523,2,0,P|229:284|178:285,1,102.240002496094,2|0,0:2|0:0,0:0:0:0:
148,214,8997,2,0,P|146:263|103:293,1,102.240002496094,2|0,0:2|0:0,0:0:0:0:
62,231,9470,2,0,P|47:206|42:176,2,51.1200012480469
27,299,9944,2,0,P|20:323|7:345,2,51.1200012480469
79,131,10576,54,0,L|41:142,3,29.1100004441834,8|8|10|8,0:2|0:2|0:2|0:2,0:0:0:0:
106,90,10892,2,0,P|138:98|181:103,1,58.2200008883667,10|2,0:2|0:2,0:0:0:0:
207,33,11207,2,0,P|235:28|263:21,1,58.2200008883667,2|2,1:2|0:2,0:0:0:0:
337,57,11523,2,0,P|360:87|358:126,1,58.2200008883667,2|2,1:2|0:2,0:0:0:0:
298,158,11839,70,0,P|286:205|278:236,1,58.2200008883667,2|2,1:2|0:2,0:0:0:0:
204,234,12155,2,0,P|216:281|224:312,1,58.2200008883667,2|2,1:2|0:2,0:0:0:0:
280,344,12471,2,0,P|335:331|405:317,1,116.440001776733,2|2,1:2|1:2,0:0:0:0:
472,176,13102,6,0,L|502:167,3,29.1100004441834,8|8|10|8,0:2|0:2|0:2|0:2,0:0:0:0:
435,154,13418,2,0,P|401:149|372:143,1,58.2200008883667,2|2,1:2|0:2,0:0:0:0:
328,209,13734,2,0,P|299:214|270:218,1,58.2200008883667,2|0,1:2|0:0,0:0:0:0:
207,167,14049,1,2,1:2:0:0:
207,167,14207,1,2,0:2:0:0:
151,107,14365,70,0,P|137:73|150:43,1,58.2200008883667,2|2,1:2|0:2,0:0:0:0:
213,12,14681,1,2,1:2:0:0:
213,12,14839,2,0,P|241:17|270:21,1,58.2200008883667,2|0,0:2|1:2,0:0:0:0:
304,101,15155,2,0,P|332:95|361:91,2,58.2200008883667,2|2|2,0:2|1:2|3:2,0:0:0:0:
259,177,15628,6,0,L|249:209,3,29.1100004441834,10|8|8|8,0:2|0:2|0:2|0:2,0:0:0:0:
277,241,15944,2,0,P|315:249|348:255,1,58.2200008883667,8|2,0:2|0:2,0:0:0:0:
388,319,16260,2,0,P|380:352|352:374,1,58.2200008883667,0|0,1:2|0:0,0:0:0:0:
281,348,16576,2,0,P|225:355|183:317,1,116.440001776733,2|0,1:2|1:2,0:0:0:0:
151,243,17049,1,2,0:2:0:0:
151,243,17207,2,0,P|101:235|74:227,1,58.2200008883667,0|0,1:2|0:0,0:0:0:0:
20,269,17523,2,0,P|65:238|66:175,1,116.440001776733,0|0,1:2|1:2,0:0:0:0:
170,51,18155,70,0,L|137:46,3,29.1100004441834,10|8|8|8,0:2|0:2|0:2|0:2,0:0:0:0:
196,83,18471,2,0,P|228:77|266:69,1,58.2200008883667,8|2,0:2|0:2,0:0:0:0:
307,10,18786,2,0,P|335:15|364:21,1,58.2200008883667,0|0,1:2|0:0,0:0:0:0:
433,65,19102,2,0,P|467:107|442:178,1,116.440001776733,2|0,1:2|1:2,0:0:0:0:
386,209,19576,1,2,0:2:0:0:
386,209,19734,2,0,P|333:202|312:199,1,58.2200008883667,0|0,1:2|0:0,0:0:0:0:
283,269,20049,2,0,P|254:272|225:276,1,58.2200008883667,0|0,1:2|0:0,0:0:0:0:
188,350,20365,1,6,1:2:0:0:
44,271,20681,6,0,L|53:311,3,29.1100004441834,10|8|8|8,0:2|0:2|0:2|0:2,0:0:0:0:
19,233,20997,2,0,P|26:190|39:110,1,116.440001776733,8|0,0:2|1:2,0:0:0:0:
100,65,21471,1,8,0:2:0:0:
100,65,21549,1,8,0:2:0:0:
100,65,21628,2,0,L|149:53,3,29.1100004441834,10|8|8|8,0:2|0:2|0:2|0:2,0:0:0:0:
171,95,21944,70,0,P|204:102|240:108,1,58.2200008883667,8|0,0:2|0:0,0:0:0:0:
268,34,22260,2,0,P|296:28|325:22,1,58.2200008883667,0|0,1:2|0:0,0:0:0:0:
407,22,22576,2,0,P|363:43|367:113,1,116.440001776733,0|2,1:2|1:2,0:0:0:0:
414,165,23049,1,0,0:0:0:0:
367,232,23207,6,0,L|356:272,3,29.1100004441834,10|8|8|8,0:2|0:2|0:2|0:2,0:0:0:0:
335,298,23523,2,0,B|290:314|290:314|273:337|273:337|223:356,1,116.440001776733,8|0,0:2|1:2,0:0:0:0:
156,311,23997,1,8,0:2:0:0:
156,311,24076,1,8,0:2:0:0:
156,311,24155,2,0,L|148:282,3,29.1100004441834,10|8|8|8,0:2|0:2|0:2|0:2,0:0:0:0:
134,242,24471,69,8,0:2:0:0:
256,135,24786,2,0,P|248:95|242:65,1,58.2200008883667,2|0,1:2|0:0,0:0:0:0:
179,29,25102,2,0,P|133:13|74:61,1,116.440001776733,2|6,1:2|1:2,0:0:0:0:
45,122,25576,1,0,0:0:0:0:
62,201,25734,6,0,L|51:253,3,29.1100004441834,10|8|8|8,0:2|0:2|0:2|0:2,0:0:0:0:
108,184,26049,2,0,P|147:175|245:158,1,116.440001776733,8|0,0:2|1:2,0:0:0:0:
300,209,26523,1,8,0:2:0:0:
300,209,26602,1,8,0:2:0:0:
300,209,26681,2,0,L|343:218,3,29.1100004441834,10|8|8|8,0:2|0:2|0:2|0:2,0:0:0:0:
368,206,26997,70,0,P|405:178|399:104,1,116.440001776733,8|2,0:2|1:2,0:0:0:0:
352,49,27471,1,0,0:0:0:0:
352,49,27628,2,0,P|312:59|281:65,1,58.2200008883667,0|0,1:2|0:0,0:0:0:0:
225,19,27944,2,0,P|196:12|168:5,1,58.2200008883667,2|0,1:2|0:0,0:0:0:0:
101,52,28260,6,0,L|88:88,3,29.1100004441834,8|8|8|8,0:2|0:2|0:2|0:2,0:0:0:0:
69,114,28576,2,0,P|81:166|96:238,1,116.440001776733,10|0,0:2|1:2,0:0:0:0:
69,305,29049,1,8,0:2:0:0:
69,305,29128,1,8,0:2:0:0:
69,305,29207,2,0,L|56:341,4,29.1100004441834,10|8|8|8|2,0:2|0:2|0:2|0:2|1:2,0:0:0:0:
469,218,30786,37,14,0:2:0:0:
415,304,30944,2,0,P|373:294|322:286,1,72.4200004420166,0|0,1:2|1:2,0:0:0:0:
278,211,31260,2,0,B|198:211|226:271|142:273,1,144.840000884033,8|0,0:2|1:2,0:0:0:0:
65,219,31734,2,0,P|77:178|86:131,1,72.4200004420166,10|2,0:2|1:2,0:0:0:0:
41,56,32049,6,0,P|76:48|109:35,1,72.4200004420166,14|0,0:2|1:2,0:0:0:0:
209,55,32365,1,2,1:2:0:0:
304,18,32523,2,0,P|255:43|263:140,1,144.840000884033,10|2,0:2|1:2,0:0:0:0:
334,183,32997,1,10,0:2:0:0:
334,183,33155,1,0,1:2:0:0:
271,262,33313,70,0,P|231:259|124:238,1,144.840000884033,12|0,0:2|1:2,0:0:0:0:
49,303,33786,1,8,0:2:0:0:
129,365,33944,2,0,P|171:374|226:379,1,72.4200004420166,0|0,1:2|1:2,0:0:0:0:
257,292,34260,2,0,P|292:287|328:279,1,72.4200004420166,10|2,0:2|1:2,0:0:0:0:
406,344,34576,6,0,P|367:312|396:217,1,144.840000884033,14|0,0:2|1:2,0:0:0:0:
469,176,35049,1,10,0:2:0:0:
388,113,35207,2,0,P|374:75|368:38,1,72.4200004420166,0|0,1:2|1:2,0:0:0:0:
275,2,35523,1,10,0:2:0:0:
201,72,35681,1,0,1:2:0:0:
201,72,35760,1,0,1:2:0:0:
201,72,35839,70,0,B|126:69|148:133|64:137,1,144.840000884033,12|2,0:2|1:2,0:0:0:0:
27,225,36313,1,8,0:2:0:0:
74,314,36471,2,0,P|113:308|155:298,1,72.4200004420166,2|0,1:2|1:2,0:0:0:0:
177,204,36786,2,0,P|212:211|248:217,1,72.4200004420166,10|0,0:2|1:2,0:0:0:0:
306,301,37102,5,12,0:2:0:0:
384,236,37260,2,0,P|371:193|365:157,1,72.4200004420166,0|2,1:2|1:2,0:0:0:0:
399,69,37576,2,0,P|350:120|273:85,1,144.840000884033,8|0,0:2|1:2,0:0:0:0:
221,23,38049,1,10,0:2:0:0:
418,68,38365,70,0,P|459:99|427:191,1,144.840000884033,14|2,0:2|1:2,0:0:0:0:
367,251,38839,1,8,0:2:0:0:
279,199,38997,2,0,P|226:196|194:192,1,72.4200004420166,2|0,1:2|1:2,0:0:0:0:
133,123,39313,6,0,B|107:109|98:88|98:88|100:145|66:195,1,144.840000884033,14|0,0:2|1:2,0:0:0:0:
28,268,39786,2,0,B|83:284|83:284|104:311|104:311|165:335,1,144.840000884033,14|0,0:2|1:2,0:0:0:0:
191,326,40181,1,0,1:2:0:0:
191,326,40260,2,0,P|232:313|272:309,1,72.4200004420166,10|0,0:2|1:2,0:0:0:0:
349,373,40576,2,0,P|353:355|359:337,3,36.2100002210083,10|0|0|0,0:2|1:0|1:2|1:2,0:0:0:0:
391,310,40892,70,0,P|376:258|358:165,1,144.840000884033,14|0,0:2|1:2,0:0:0:0:
400,76,41365,1,8,0:2:0:0:
317,16,41523,2,0,P|269:32|222:40,1,72.4200004420166,0|0,1:2|1:2,0:0:0:0:
189,120,41839,2,0,P|136:108|106:104,1,72.4200004420166,10|2,0:2|1:2,0:0:0:0:
27,152,42155,6,0,P|1:190|65:265,1,144.840000884033,14|2,0:2|1:2,0:0:0:0:
144,297,42628,2,0,P|179:287|213:277,1,72.4200004420166,10|0,0:2|1:2,0:0:0:0:
288,208,42944,1,2,1:2:0:0:
358,135,43102,1,10,0:2:0:0:
358,135,43260,1,0,1:2:0:0:
444,187,43418,70,0,P|426:242|410:336,1,144.840000884033,12|0,0:2|1:2,0:0:0:0:
320,375,43892,1,8,0:2:0:0:
239,314,44049,2,0,P|195:323|146:328,1,72.4200004420166,0|0,1:2|1:2,0:0:0:0:
74,284,44365,1,10,0:2:0:0:
74,284,44523,1,2,1:2:0:0:
14,201,44681,6,0,B|-2:125|74:138|51:60,1,144.840000884033,14|0,0:2|1:2,0:0:0:0:
137,11,45155,2,0,P|176:59|260:37,1,144.840000884033,10|0,0:2|1:2,0:0:0:0:
342,1,45628,1,10,0:2:0:0:
422,62,45786,1,0,1:2:0:0:
422,62,45865,1,0,1:2:0:0:
422,62,45944,70,0,B|407:88|382:102|382:102|436:202,1,144.840000884033,12|2,0:2|1:2,0:0:0:0:
506,238,46418,1,8,0:2:0:0:
456,326,46576,2,0,P|408:330|369:342,1,72.4200004420166,2|0,1:2|1:2,0:0:0:0:
325,252,46892,2,0,P|288:250|253:241,1,72.4200004420166,10|0,0:2|1:2,0:0:0:0:
166,190,47207,6,0,P|219:234|191:320,1,144.840000884033,12|2,0:2|1:2,0:0:0:0:
111,331,47681,1,8,0:2:0:0:
24,277,47839,2,0,P|21:230|10:193,1,72.4200004420166,2|0,1:2|1:2,0:0:0:0:
82,129,48155,1,10,0:2:0:0:
82,129,48313,1,0,1:2:0:0:
166,190,48471,70,0,P|224:198|325:221,1,144.840000884033,12|2,0:2|1:2,0:0:0:0:
383,284,48944,1,8,0:2:0:0:
471,233,49102,2,0,P|475:182|487:143,1,72.4200004420166,2|8,1:2|0:2,0:0:0:0:
453,127,49339,1,8,0:2:0:0:
453,127,49418,2,0,L|439:80,2,36.2100002210083,10|8|2,0:2|0:2|1:2,0:0:0:0:
351,75,49734,6,0,L|365:28,4,36.2100002210083,10|8|8|8|0,0:2|0:2|0:2|0:2|1:2,0:0:0:0:
261,121,50207,1,10,3:3:0:0:
261,121,50286,1,8,3:3:0:0:
261,121,50365,2,0,L|212:132,3,36.2100002210083,8|8|8|8,3:3|3:3|0:2|0:2,0:0:0:0:
182,101,50681,2,0,L|146:93,3,36.2100002210083,10|8|10|8,0:2|0:2|0:2|0:2,0:0:0:0:
110,112,50997,22,0,P|68:152|152:270,1,232.880003553467,6|0,1:2|0:0,0:0:0:0:
300,329,51944,2,0,L|328:322,3,29.1100004441834,2|0|2|0,1:2|1:2|1:2|1:2,0:0:0:0:
358,294,52260,2,0,P|360:205|413:113,2,174.6600026651,10|2|2,1:2|1:2|0:2,0:0:0:0:
298,349,53365,1,0,1:2:0:0:
298,349,53444,1,0,1:2:0:0:
298,349,53523,70,0,P|246:346|160:321,1,116.440001776733,4|0,1:2|0:0,0:0:0:0:
195,249,53997,2,0,P|138:263|80:267,1,116.440001776733,4|0,1:2|0:0,0:0:0:0:
25,206,54471,2,0,L|36:167,3,29.1100004441834,2|0|2|0,1:2|1:2|1:2|1:2,0:0:0:0:
54,143,54786,2,0,P|48:98|25:25,1,116.440001776733,10|0,0:2|1:2,0:0:0:0:
106,10,55260,2,0,P|130:41|218:34,1,116.440001776733,10|0,0:2|1:2,0:0:0:0:
363,15,55892,1,8,0:2:0:0:
363,15,55971,1,8,0:2:0:0:
363,15,56049,6,0,B|341:45|311:55|311:55|339:109|362:169,1,174.6600026651,4|0,1:2|1:2,0:0:0:0:
490,357,56997,2,0,L|445:349,3,29.1100004441834,2|0|0|0,1:2|1:2|1:2|1:2,0:0:0:0:
430,324,57313,2,0,P|379:269|243:326,1,232.880003553467,12|2,0:2|0:2,0:0:0:0:
3,287,58418,1,0,1:2:0:0:
3,287,58497,1,0,1:2:0:0:
3,287,58576,70,0,B|60:306|60:306|79:337|79:337|158:367,1,174.6600026651,6|0,1:2|1:2,0:0:0:0:
172,120,59523,2,0,L|158:86,3,29.1100004441834,2|0|0|0,1:2|1:2|1:2|1:2,0:0:0:0:
131,64,59839,2,0,L|144:26,3,38.8133339255778,8|8|8|0,0:2|0:2|0:2|1:2,0:0:0:0:
283,112,60471,2,0,L|270:74,3,38.8133339255778,10|8|8|6,0:2|0:2|0:2|0:2,0:0:0:0:
412,155,61102,6,0,P|359:125|279:253,1,232.880003553467,6|0,1:2|0:0,0:0:0:0:
407,323,62049,2,0,L|366:312,3,29.1100004441834,2|0|2|0,1:2|1:2|1:2|1:2,0:0:0:0:
344,291,62365,2,0,P|265:307|174:351,2,174.6600026651,10|2|2,0:2|1:2|0:2,0:0:0:0:
388,225,63471,1,0,1:2:0:0:
388,225,63549,1,0,1:2:0:0:
388,225,63628,70,0,P|364:188|356:116,1,116.440001776733,4|0,1:2|0:0,0:0:0:0:
274,106,64102,2,0,P|298:69|306:-3,1,116.440001776733,4|0,1:2|0:0,0:0:0:0:
224,8,64576,2,0,L|183:14,3,29.1100004441834,2|0|2|0,1:2|1:2|1:2|1:2,0:0:0:0:
160,34,64892,2,0,P|184:86|100:161,1,174.6600026651,10|10,0:2|0:2,0:0:0:0:
38,197,65523,2,0,L|24:245,2,38.8133339255778,4|8|8,1:2|0:2|0:2,0:0:0:0:
52,267,65839,2,0,L|66:315,2,38.8133339255778,10|8|8,0:2|0:2|0:2,0:0:0:0:
89,337,66155,6,0,B|149:318|149:318|171:284|171:284|247:257,1,174.6600026651,4|0,1:2|1:2,0:0:0:0:
453,375,67102,2,0,L|462:335,3,29.1100004441834,2|0|0|0,1:2|1:2|1:2|1:2,0:0:0:0:
440,309,67418,2,0,P|391:248|383:153,2,174.6600026651,12|0|2,0:2|1:2|0:2,0:0:0:0:
380,364,68523,1,0,1:2:0:0:
380,364,68602,1,0,1:2:0:0:
380,364,68681,70,0,P|321:355|240:346,1,130.639995614502,12|2,0:2|1:2,0:0:0:0:
161,369,69155,1,8,0:2:0:0:
96,303,69313,2,0,L|105:263,3,32.6599989036255,10|8|8|8,3:3|3:3|3:3|3:3,0:0:0:0:
75,234,69628,2,0,L|66:194,3,32.6599989036255,2|8|2|0,3:2|0:2|1:2|1:2,0:0:0:0:
88,160,69944,5,10,0:2:0:0:
427,157,71207,54,0,P|369:156|299:128,1,130.639995614502,6|2,1:2|0:2,0:0:0:0:
247,55,71681,2,0,B|176:52|198:113|117:115,1,130.639995614502,2|2,1:2|0:2,0:0:0:0:
70,178,72155,2,0,L|61:226,3,32.6599989036255,2|0|2|0,1:2|1:2|1:2|1:2,0:0:0:0:
57,255,72471,2,0,B|104:252|171:334|171:334|119:283|158:206,1,261.279991229004,8|0,0:2|0:0,0:0:0:0:
383,368,73576,1,0,1:2:0:0:
383,368,73655,1,0,1:2:0:0:
383,368,73734,70,0,P|392:312|421:239,1,130.639995614502,6|2,1:2|0:2,0:0:0:0:
328,228,74207,2,0,P|319:172|290:99,1,130.639995614502,2|2,1:2|0:2,0:0:0:0:
226,38,74681,2,0,L|187:32,3,32.6599989036255,2|0|2|0,1:2|1:2|1:2|1:2,0:0:0:0:
148,25,74997,1,10,0:2:0:0:
89,95,75155,2,0,P|106:135|115:173,1,65.319997807251,6|0,1:2|0:0,0:0:0:0:
171,226,75471,2,0,P|119:191|56:220,2,130.639995614502,14|2|0,0:2|1:2|1:2,0:0:0:0:
217,304,76260,6,0,B|265:314|265:314|288:340|288:340|355:357,1,130.639995614502,6|0,1:2|0:0,0:0:0:0:
345,260,76734,2,0,B|390:248|390:248|413:222|413:222|461:212,1,130.639995614502,2|2,1:2|0:2,0:0:0:0:
494,127,77207,2,0,L|500:89,3,32.6599989036255,2|0|2|0,1:2|1:2|1:2|1:2,0:0:0:0:
474,55,77523,70,0,B|483:41|509:32|509:32|444:18|405:56|405:56|395:122|321:134,1,261.279991229004,10|0,0:2|0:0,0:0:0:0:
74,50,78628,1,0,1:2:0:0:
74,50,78707,1,0,1:2:0:0:
74,50,78786,2,0,P|101:104|116:178,1,130.639995614502,6|2,1:2|0:2,0:0:0:0:
207,169,79260,2,0,P|180:223|165:297,1,130.639995614502,2|2,1:2|0:2,0:0:0:0:
226,360,79734,2,0,L|271:342,3,32.6599989036255,2|0|2|0,1:2|1:2|1:2|1:2,0:0:0:0:
296,324,80049,5,14,0:2:0:0:
351,251,80207,2,0,P|389:264|425:266,1,65.319997807251,2|2,1:2|0:2,0:0:0:0:
482,205,80523,1,0,1:2:0:0:
482,205,80681,1,8,0:2:0:0:
410,148,80839,1,4,1:2:0:0:
165,291,81313,69,4,1:2:0:0:
