osu file format v14

[General]
AudioFilename: audio.mp3
AudioLeadIn: 0
PreviewTime: 31223
Countdown: 0
SampleSet: Soft
StackLeniency: 0.7
Mode: 3
LetterboxInBreaks: 0
SpecialStyle: 0
WidescreenStoryboard: 1

[Editor]
DistanceSpacing: 1.7
BeatDivisor: 4
GridSize: 32
TimelineZoom: 1.4

[Metadata]
Title:MUKANJYO (TV Size)
TitleUnicode:MUKANJYO (TV Size)
Artist:Survive Said The Prophet
ArtistUnicode:Survive Said The Prophet
Creator:A r M i N
Version:Easy
Source:ヴィンランド・サガ
Tags:vinland saga anime op japanese opening rock jrock Armin A_r_M_i_N AncuL Leniane yosh morita ivan kwong tatsuya yudai kato sho okada male vocalist sstp sabapuro サバプロ
BeatmapID:2292091
BeatmapSetID:1075509

[Difficulty]
HPDrainRate:7
CircleSize:4
OverallDifficulty:7
ApproachRate:5
SliderMultiplier:1.4
SliderTickRate:1

[Events]
//Background and Video events
0,0,"stretched-1920-1080-1023171.jpg",0,0
//Break Periods
//Storyboard Layer 0 (Background)
//Storyboard Layer 1 (Fail)
//Storyboard Layer 2 (Pass)
//Storyboard Layer 3 (Foreground)
//Storyboard Layer 4 (Overlay)
//Storyboard Sound Samples

[TimingPoints]
987,315.789473684211,4,2,1,40,1,0
11092,-100,4,2,1,60,0,0
31302,-100,4,2,1,80,0,1
51513,-100,4,2,1,60,0,0

[HitObjects]
448,192,987,5,0,0:0:0:0:
192,192,1460,1,0,0:0:0:0:
320,192,1934,1,0,0:0:0:0:
64,192,2408,1,0,0:0:0:0:
320,192,2881,1,0,0:0:0:0:
192,192,3197,1,0,0:0:0:0:
448,192,3513,1,0,0:0:0:0:
192,192,3987,1,0,0:0:0:0:
320,192,4460,1,0,0:0:0:0:
64,192,4934,1,0,0:0:0:0:
320,192,5408,1,0,0:0:0:0:
192,192,5723,1,0,0:0:0:0:
448,192,6039,128,0,6513:0:0:0:0:
64,192,6513,128,0,6987:0:0:0:0:
320,192,6987,128,0,7460:0:0:0:0:
192,192,7460,128,0,8250:0:0:0:0:
448,192,8565,128,0,9039:0:0:0:0:
64,192,9039,128,0,9513:0:0:0:0:
320,192,9513,128,0,9987:0:0:0:0:
192,192,9987,128,0,10776:0:0:0:0:
448,192,11092,1,8,0:0:0:0:
320,192,11250,1,8,0:0:0:0:
192,192,11408,1,8,0:0:0:0:
320,192,11723,1,2,0:0:0:0:
64,192,12039,1,2,0:0:0:0:
448,192,12355,1,2,0:0:0:0:
320,192,12671,1,2,0:0:0:0:
192,192,12987,1,2,0:0:0:0:
64,192,13302,1,2,0:0:0:0:
320,192,13618,1,8,0:0:0:0:
192,192,13776,1,8,0:0:0:0:
64,192,13934,1,8,0:0:0:0:
448,192,14250,1,2,0:0:0:0:
192,192,14565,1,2,0:0:0:0:
320,192,14881,1,2,0:0:0:0:
448,192,15197,1,2,0:0:0:0:
192,192,15513,1,2,0:0:0:0:
64,192,15829,1,2,0:0:0:0:
448,192,16144,1,8,0:0:0:0:
320,192,16302,1,8,0:0:0:0:
192,192,16460,1,8,0:0:0:0:
448,192,16776,1,2,0:0:0:0:
64,192,17092,1,2,0:0:0:0:
320,192,17408,1,2,0:0:0:0:
192,192,17723,1,2,0:0:0:0:
448,192,18039,1,2,0:0:0:0:
64,192,18355,1,2,0:0:0:0:
320,192,18671,1,8,0:0:0:0:
192,192,18829,1,8,0:0:0:0:
64,192,18987,1,8,0:0:0:0:
320,192,19302,1,2,0:0:0:0:
192,192,19618,1,2,0:0:0:0:
448,192,19934,1,2,0:0:0:0:
64,192,20250,1,2,0:0:0:0:
320,192,20565,1,2,0:0:0:0:
192,192,20881,1,12,0:0:0:0:
448,192,21197,1,8,0:0:0:0:
320,192,21355,1,8,0:0:0:0:
192,192,21513,1,8,0:0:0:0:
320,192,21829,1,2,0:0:0:0:
64,192,21987,1,8,0:0:0:0:
192,192,22144,1,8,0:0:0:0:
320,192,22302,1,8,0:0:0:0:
448,192,22460,1,8,0:0:0:0:
64,192,22776,1,2,0:0:0:0:
320,192,23092,1,2,0:0:0:0:
192,192,23408,1,2,0:0:0:0:
64,192,23723,1,8,0:0:0:0:
192,192,23881,1,8,0:0:0:0:
320,192,24039,1,8,0:0:0:0:
192,192,24355,1,2,0:0:0:0:
448,192,24513,1,8,0:0:0:0:
320,192,24671,1,8,0:0:0:0:
192,192,24829,1,8,0:0:0:0:
64,192,24987,1,8,0:0:0:0:
320,192,25302,1,2,0:0:0:0:
192,192,25618,1,2,0:0:0:0:
448,192,25934,1,12,0:0:0:0:
192,192,26250,1,8,0:0:0:0:
320,192,26408,1,8,0:0:0:0:
448,192,26565,1,8,0:0:0:0:
64,192,26881,1,2,0:0:0:0:
448,192,27039,1,8,0:0:0:0:
320,192,27197,1,8,0:0:0:0:
192,192,27355,1,8,0:0:0:0:
64,192,27513,1,8,0:0:0:0:
192,192,27829,1,2,0:0:0:0:
320,192,28144,1,2,0:0:0:0:
448,192,28460,1,2,0:0:0:0:
320,192,28776,1,8,0:0:0:0:
192,192,28934,1,8,0:0:0:0:
64,192,29092,1,8,0:0:0:0:
448,192,29408,1,2,0:0:0:0:
64,192,29565,1,8,0:0:0:0:
192,192,29723,1,8,0:0:0:0:
320,192,29881,1,8,0:0:0:0:
448,192,30039,1,8,0:0:0:0:
192,192,31302,1,8,0:0:0:0:
448,192,31302,1,0,0:0:0:0:
192,192,31776,1,8,0:0:0:0:
448,192,31776,1,0,0:0:0:0:
192,192,32250,1,8,0:0:0:0:
448,192,32250,1,0,0:0:0:0:
64,192,32565,1,8,0:0:0:0:
320,192,32565,1,0,0:0:0:0:
64,192,33039,1,8,0:0:0:0:
320,192,33039,1,0,0:0:0:0:
64,192,33513,1,8,0:0:0:0:
320,192,33513,1,0,0:0:0:0:
192,192,33829,1,8,0:0:0:0:
320,192,33829,1,0,0:0:0:0:
192,192,34302,1,8,0:0:0:0:
320,192,34302,1,0,0:0:0:0:
192,192,34776,1,8,0:0:0:0:
320,192,34776,1,0,0:0:0:0:
64,192,35092,1,8,0:0:0:0:
448,192,35092,1,0,0:0:0:0:
64,192,35565,1,8,0:0:0:0:
448,192,35565,1,0,0:0:0:0:
64,192,36039,1,8,0:0:0:0:
448,192,36039,1,0,0:0:0:0:
320,192,36355,1,8,0:0:0:0:
448,192,36355,1,0,0:0:0:0:
320,192,36829,1,8,0:0:0:0:
448,192,36829,1,0,0:0:0:0:
320,192,37302,1,8,0:0:0:0:
448,192,37302,1,0,0:0:0:0:
64,192,37618,1,8,0:0:0:0:
192,192,37618,1,0,0:0:0:0:
64,192,38092,1,8,0:0:0:0:
192,192,38092,1,0,0:0:0:0:
64,192,38565,1,8,0:0:0:0:
192,192,38565,1,0,0:0:0:0:
320,192,38881,128,8,39197:0:0:0:0:
64,192,39197,128,2,39513:0:0:0:0:
448,192,39513,128,2,39829:0:0:0:0:
192,192,39829,128,8,40302:0:0:0:0:
320,192,40302,128,8,40776:0:0:0:0:
64,192,40776,128,8,41092:0:0:0:0:
448,192,41092,128,8,41408:0:0:0:0:
64,192,41408,1,8,0:0:0:0:
192,192,41408,1,0,0:0:0:0:
64,192,41881,1,8,0:0:0:0:
192,192,41881,1,0,0:0:0:0:
64,192,42355,1,8,0:0:0:0:
192,192,42355,1,0,0:0:0:0:
320,192,42671,1,8,0:0:0:0:
448,192,42671,1,0,0:0:0:0:
320,192,43144,1,8,0:0:0:0:
448,192,43144,1,0,0:0:0:0:
320,192,43618,1,8,0:0:0:0:
448,192,43618,1,0,0:0:0:0:
64,192,43934,1,8,0:0:0:0:
448,192,43934,1,0,0:0:0:0:
64,192,44408,1,8,0:0:0:0:
448,192,44408,1,0,0:0:0:0:
64,192,44881,1,8,0:0:0:0:
448,192,44881,1,0,0:0:0:0:
192,192,45197,1,8,0:0:0:0:
320,192,45197,1,0,0:0:0:0:
192,192,45671,1,8,0:0:0:0:
320,192,45671,1,0,0:0:0:0:
192,192,46144,1,8,0:0:0:0:
320,192,46144,1,0,0:0:0:0:
64,192,46460,1,8,0:0:0:0:
320,192,46460,1,0,0:0:0:0:
64,192,46934,1,8,0:0:0:0:
320,192,46934,1,0,0:0:0:0:
64,192,47408,1,8,0:0:0:0:
320,192,47408,1,0,0:0:0:0:
192,192,47723,1,8,0:0:0:0:
448,192,47723,1,0,0:0:0:0:
192,192,48197,1,8,0:0:0:0:
448,192,48197,1,0,0:0:0:0:
192,192,48671,1,8,0:0:0:0:
448,192,48671,1,0,0:0:0:0:
64,192,48987,1,8,0:0:0:0:
192,192,48987,1,0,0:0:0:0:
320,192,49460,1,8,0:0:0:0:
448,192,49460,1,0,0:0:0:0:
64,192,49934,1,8,0:0:0:0:
192,192,49934,1,0,0:0:0:0:
320,192,50250,128,8,50723:0:0:0:0:
448,192,50250,1,0,0:0:0:0:
64,192,50723,1,2,0:0:0:0:
448,192,51039,1,8,0:0:0:0:
320,192,51197,1,8,0:0:0:0:
192,192,51355,1,8,0:0:0:0:
64,192,51513,128,2,52460:0:0:0:0:
320,192,52460,1,2,0:0:0:0:
192,192,52618,1,2,0:0:0:0:
64,192,52776,128,8,53250:0:0:0:0:
448,192,53250,128,2,53723:0:0:0:0:
192,192,53723,1,0,0:0:0:0:
320,192,54039,1,6,0:0:0:0:
320,192,54513,1,2,0:0:0:0:
64,192,54987,1,2,0:0:0:0:
192,192,55144,1,2,0:0:0:0:
320,192,55302,128,8,55618:0:0:0:0:
192,192,55618,1,2,0:0:0:0:
448,192,55776,128,8,56092:0:0:0:0:
64,192,56092,1,2,0:0:0:0:
320,192,56408,1,8,0:0:0:0:
192,192,56565,1,2,0:0:0:0:
192,192,57039,1,2,0:0:0:0:
320,192,57513,1,2,0:0:0:0:
192,192,57671,1,2,0:0:0:0:
64,192,57829,1,8,0:0:0:0:
192,192,58144,1,0,0:0:0:0:
320,192,58460,1,4,0:0:0:0:
448,192,58776,1,0,0:0:0:0:
192,192,59092,1,6,0:0:0:0:
320,192,59408,1,0,0:0:0:0:
64,192,59723,1,4,0:0:0:0:
448,192,60039,1,2,0:0:0:0:
320,192,60197,1,2,0:0:0:0:
192,192,60355,1,8,0:0:0:0:
448,192,60671,1,12,0:0:0:0:
64,192,60987,1,8,0:0:0:0:
320,192,61302,1,12,0:0:0:0:
192,192,61618,128,6,62565:0:0:0:0:
448,192,62565,1,2,0:0:0:0:
320,192,62723,1,2,0:0:0:0:
64,192,62881,128,8,63355:0:0:0:0:
320,192,63355,128,2,63829:0:0:0:0:
192,192,63829,1,0,0:0:0:0:
448,192,64144,1,2,0:0:0:0:
448,192,64618,1,2,0:0:0:0:
64,192,65092,1,2,0:0:0:0:
192,192,65250,1,2,0:0:0:0:
320,192,65408,128,8,65881:0:0:0:0:
64,192,65881,128,8,66355:0:0:0:0:
448,192,66355,1,8,0:0:0:0:
192,192,66671,1,2,0:0:0:0:
320,192,66987,1,0,0:0:0:0:
448,192,67302,1,4,0:0:0:0:
192,192,67618,1,2,0:0:0:0:
320,192,67776,1,2,0:0:0:0:
448,192,67934,1,12,0:0:0:0:
192,192,68250,1,0,0:0:0:0:
64,192,68565,1,4,0:0:0:0:
448,192,68881,1,0,0:0:0:0:
320,192,69039,1,2,0:0:0:0:
192,192,69197,1,12,0:0:0:0:
448,192,69513,1,2,0:0:0:0:
192,192,69829,1,2,0:0:0:0:
320,192,70144,1,8,0:0:0:0:
192,192,70302,1,2,0:0:0:0:
64,192,70460,128,8,71723:0:0:0:0:
320,192,71723,1,6,0:0:0:0:
320,192,72197,1,2,0:0:0:0:
320,192,72671,1,2,0:0:0:0:
192,192,72829,1,2,0:0:0:0:
64,192,72987,1,12,0:0:0:0:
448,192,73302,128,0,74250:0:0:0:0:
192,192,74250,1,6,0:0:0:0:
192,192,74723,1,2,0:0:0:0:
192,192,75197,1,2,0:0:0:0:
320,192,75355,1,2,0:0:0:0:
448,192,75513,1,12,0:0:0:0:
64,192,75671,1,0,0:0:0:0:
320,192,75987,1,8,0:0:0:0:
192,192,76302,1,2,0:0:0:0:
448,192,76618,1,2,0:0:0:0:
64,192,76776,128,6,77250:0:0:0:0:
320,192,77250,128,2,77723:0:0:0:0:
64,192,77723,1,2,0:0:0:0:
192,192,77881,1,2,0:0:0:0:
448,192,78039,1,12,0:0:0:0:
192,192,78355,128,0,79302:0:0:0:0:
448,192,79302,1,6,0:0:0:0:
448,192,79776,1,2,0:0:0:0:
448,192,80250,1,2,0:0:0:0:
192,192,80408,1,2,0:0:0:0:
64,192,80565,1,8,0:0:0:0:
320,192,80723,1,6,0:0:0:0:
320,192,81039,1,2,0:0:0:0:
192,192,81197,1,8,0:0:0:0:
448,192,81355,1,2,0:0:0:0:
64,192,81829,128,2,87039:0:0:0:0:
320,192,81829,128,4,89408:0:0:0:0:
