osu file format v14

[General]
AudioFilename: audio.mp3
AudioLeadIn: 0
PreviewTime: 31223
Countdown: 0
SampleSet: Soft
StackLeniency: 0.7
Mode: 3
LetterboxInBreaks: 0
SpecialStyle: 0
WidescreenStoryboard: 1

[Editor]
DistanceSpacing: 1.7
BeatDivisor: 4
GridSize: 32
TimelineZoom: 2.6

[Metadata]
Title:MUKANJYO (TV Size)
TitleUnicode:MUKANJYO (TV Size)
Artist:Survive Said The Prophet
ArtistUnicode:Survive Said The Prophet
Creator:A r M i N
Version:AncuL's Insane
Source:ヴィンランド・サガ
Tags:vinland saga anime op japanese opening rock jrock Armin A_r_M_i_N AncuL Leniane yosh morita ivan kwong tatsuya yudai kato sho okada male vocalist sstp sabapuro サバプロ
BeatmapID:2251877
BeatmapSetID:1075509

[Difficulty]
HPDrainRate:8.5
CircleSize:4
OverallDifficulty:8.5
ApproachRate:5
SliderMultiplier:1.4
SliderTickRate:1

[Events]
//Background and Video events
0,0,"stretched-1920-1080-1023171.jpg",0,0
//Break Periods
//Storyboard Layer 0 (Background)
//Storyboard Layer 1 (Fail)
//Storyboard Layer 2 (Pass)
//Storyboard Layer 3 (Foreground)
//Storyboard Layer 4 (Overlay)
//Storyboard Sound Samples

[TimingPoints]
987,315.789473684211,4,2,1,40,1,0
11092,-100,4,2,1,60,0,0
30039,-100,4,2,2,60,0,0
31302,-100,4,2,1,80,0,1
51513,-100,4,2,1,60,0,0

[HitObjects]
320,192,987,5,0,0:0:0:0:
64,192,1144,1,0,0:0:0:0:
192,192,1302,1,0,0:0:0:0:
448,192,1460,128,0,1539:0:0:0:0:
320,192,1618,128,0,1697:0:0:0:0:
64,192,1776,1,0,0:0:0:0:
192,192,1934,1,0,0:0:0:0:
320,192,2092,128,0,2171:0:0:0:0:
448,192,2408,128,0,2487:0:0:0:0:
320,192,2565,128,0,2644:0:0:0:0:
448,192,2723,128,0,2802:0:0:0:0:
320,192,2881,128,0,2960:0:0:0:0:
192,192,3039,1,0,0:0:0:0:
192,192,3197,128,0,3513:0:0:0:0:
448,192,3513,1,0,0:0:0:0:
64,192,3671,1,0,0:0:0:0:
192,192,3829,1,0,0:0:0:0:
448,192,3987,128,0,4065:0:0:0:0:
320,192,4144,128,0,4223:0:0:0:0:
64,192,4302,1,0,0:0:0:0:
192,192,4460,1,0,0:0:0:0:
320,192,4618,128,0,4697:0:0:0:0:
448,192,4934,128,0,5013:0:0:0:0:
320,192,5092,128,0,5171:0:0:0:0:
448,192,5250,128,0,5329:0:0:0:0:
320,192,5408,128,0,5487:0:0:0:0:
448,192,5565,128,0,5723:0:0:0:0:
64,192,5723,128,0,6039:0:0:0:0:
320,192,6039,1,0,0:0:0:0:
64,192,6197,1,0,0:0:0:0:
192,192,6355,1,0,0:0:0:0:
448,192,6513,128,0,6592:0:0:0:0:
320,192,6671,128,0,6750:0:0:0:0:
192,192,6829,1,0,0:0:0:0:
448,192,6987,1,0,0:0:0:0:
192,192,7144,128,0,7223:0:0:0:0:
448,192,7460,128,0,7539:0:0:0:0:
320,192,7618,128,0,7697:0:0:0:0:
448,192,7776,128,0,7855:0:0:0:0:
320,192,7934,128,0,8013:0:0:0:0:
192,192,8092,1,0,0:0:0:0:
192,192,8250,128,0,8565:0:0:0:0:
320,192,8565,1,0,0:0:0:0:
64,192,8723,1,0,0:0:0:0:
192,192,8881,1,0,0:0:0:0:
448,192,9039,128,0,9118:0:0:0:0:
320,192,9197,128,0,9276:0:0:0:0:
64,192,9355,1,0,0:0:0:0:
448,192,9513,1,0,0:0:0:0:
192,192,9671,128,0,9750:0:0:0:0:
448,192,9987,128,0,10065:0:0:0:0:
320,192,10144,128,0,10223:0:0:0:0:
448,192,10302,128,0,10381:0:0:0:0:
320,192,10460,128,0,10539:0:0:0:0:
448,192,10618,128,0,10776:0:0:0:0:
64,192,10776,128,0,11092:0:0:0:0:
320,192,11092,1,8,0:0:0:0:
448,192,11092,1,0,0:0:0:0:
64,192,11171,1,8,0:0:0:0:
192,192,11171,1,0,0:0:0:0:
320,192,11250,1,8,0:0:0:0:
448,192,11250,1,0,0:0:0:0:
192,192,11329,1,8,0:0:0:0:
64,192,11408,1,8,0:0:0:0:
448,192,11408,1,0,0:0:0:0:
64,192,11723,1,2,0:0:0:0:
448,192,11881,1,0,0:0:0:0:
64,192,12039,1,2,0:0:0:0:
448,192,12039,1,0,0:0:0:0:
448,192,12197,128,0,12355:0:0:0:0:
64,192,12355,1,2,0:0:0:0:
320,192,12513,1,0,0:0:0:0:
64,192,12671,1,2,0:0:0:0:
320,192,12671,128,0,12829:0:0:0:0:
64,192,12987,1,2,0:0:0:0:
320,192,12987,1,0,0:0:0:0:
448,192,13144,1,0,0:0:0:0:
64,192,13302,1,2,0:0:0:0:
448,192,13302,128,0,13460:0:0:0:0:
64,192,13618,1,8,0:0:0:0:
192,192,13618,1,0,0:0:0:0:
320,192,13697,1,8,0:0:0:0:
448,192,13697,1,0,0:0:0:0:
64,192,13776,1,8,0:0:0:0:
192,192,13776,1,0,0:0:0:0:
320,192,13855,1,8,0:0:0:0:
64,192,13934,128,8,14092:0:0:0:0:
448,192,13934,1,0,0:0:0:0:
448,192,14250,1,2,0:0:0:0:
192,192,14408,1,0,0:0:0:0:
192,192,14565,1,0,0:0:0:0:
448,192,14565,1,2,0:0:0:0:
192,192,14723,128,0,14881:0:0:0:0:
448,192,14881,1,2,0:0:0:0:
64,192,15039,1,0,0:0:0:0:
64,192,15197,128,0,15355:0:0:0:0:
448,192,15197,1,2,0:0:0:0:
64,192,15513,1,0,0:0:0:0:
448,192,15513,1,2,0:0:0:0:
192,192,15671,1,0,0:0:0:0:
192,192,15829,128,0,15987:0:0:0:0:
448,192,15829,1,2,0:0:0:0:
320,192,15987,1,2,0:0:0:0:
192,192,16065,1,2,0:0:0:0:
64,192,16144,1,8,0:0:0:0:
448,192,16144,1,0,0:0:0:0:
192,192,16223,1,8,0:0:0:0:
320,192,16223,1,0,0:0:0:0:
64,192,16302,1,8,0:0:0:0:
448,192,16302,1,0,0:0:0:0:
320,192,16381,1,8,0:0:0:0:
64,192,16460,1,8,0:0:0:0:
192,192,16460,1,0,0:0:0:0:
448,192,16776,1,2,0:0:0:0:
192,192,16934,1,0,0:0:0:0:
192,192,17092,1,0,0:0:0:0:
448,192,17092,1,2,0:0:0:0:
192,192,17250,128,0,17408:0:0:0:0:
448,192,17408,1,2,0:0:0:0:
64,192,17565,1,0,0:0:0:0:
64,192,17723,128,0,17881:0:0:0:0:
448,192,17723,1,2,0:0:0:0:
64,192,18039,1,0,0:0:0:0:
448,192,18039,1,2,0:0:0:0:
192,192,18197,1,0,0:0:0:0:
192,192,18355,128,0,18513:0:0:0:0:
448,192,18355,1,2,0:0:0:0:
64,192,18671,1,8,0:0:0:0:
448,192,18671,1,0,0:0:0:0:
192,192,18750,1,8,0:0:0:0:
320,192,18750,1,0,0:0:0:0:
64,192,18829,1,8,0:0:0:0:
448,192,18829,1,0,0:0:0:0:
192,192,18908,1,8,0:0:0:0:
320,192,18987,1,8,0:0:0:0:
448,192,18987,1,0,0:0:0:0:
64,192,19302,1,2,0:0:0:0:
320,192,19460,1,0,0:0:0:0:
64,192,19618,1,2,0:0:0:0:
320,192,19618,1,0,0:0:0:0:
320,192,19776,128,0,19934:0:0:0:0:
64,192,19934,1,2,0:0:0:0:
448,192,20092,1,0,0:0:0:0:
64,192,20250,1,2,0:0:0:0:
448,192,20250,128,0,20408:0:0:0:0:
64,192,20565,1,2,0:0:0:0:
448,192,20565,1,0,0:0:0:0:
320,192,20723,1,0,0:0:0:0:
64,192,20881,1,4,0:0:0:0:
320,192,20881,1,2,0:0:0:0:
64,192,21197,1,8,0:0:0:0:
192,192,21197,1,0,0:0:0:0:
320,192,21276,1,8,0:0:0:0:
448,192,21276,1,0,0:0:0:0:
64,192,21355,1,8,0:0:0:0:
192,192,21355,1,0,0:0:0:0:
320,192,21434,1,8,0:0:0:0:
64,192,21513,128,8,21671:0:0:0:0:
448,192,21513,128,0,21671:0:0:0:0:
448,192,21829,1,2,0:0:0:0:
192,192,21987,1,8,0:0:0:0:
320,192,21987,1,0,0:0:0:0:
64,192,22065,1,8,0:0:0:0:
448,192,22065,1,0,0:0:0:0:
192,192,22144,1,8,0:0:0:0:
320,192,22144,1,0,0:0:0:0:
64,192,22223,1,8,0:0:0:0:
192,192,22302,1,8,0:0:0:0:
320,192,22381,1,8,0:0:0:0:
448,192,22381,1,0,0:0:0:0:
64,192,22460,1,8,0:0:0:0:
192,192,22460,1,0,0:0:0:0:
64,192,22618,1,0,0:0:0:0:
64,192,22776,128,2,22934:0:0:0:0:
320,192,22776,1,0,0:0:0:0:
64,192,23092,1,2,0:0:0:0:
320,192,23092,1,0,0:0:0:0:
448,192,23250,1,0,0:0:0:0:
64,192,23408,1,2,0:0:0:0:
448,192,23408,128,0,23565:0:0:0:0:
192,192,23723,1,8,0:0:0:0:
320,192,23723,1,0,0:0:0:0:
64,192,23802,1,8,0:0:0:0:
448,192,23802,1,0,0:0:0:0:
192,192,23881,1,8,0:0:0:0:
320,192,23881,1,0,0:0:0:0:
64,192,23960,1,8,0:0:0:0:
320,192,24039,128,8,24197:0:0:0:0:
448,192,24039,128,0,24197:0:0:0:0:
448,192,24355,1,2,0:0:0:0:
64,192,24513,1,8,0:0:0:0:
320,192,24513,1,0,0:0:0:0:
192,192,24592,1,8,0:0:0:0:
448,192,24592,1,0,0:0:0:0:
64,192,24671,1,8,0:0:0:0:
320,192,24671,1,0,0:0:0:0:
192,192,24750,1,8,0:0:0:0:
448,192,24829,1,8,0:0:0:0:
192,192,24908,1,8,0:0:0:0:
320,192,24908,1,0,0:0:0:0:
64,192,24987,1,8,0:0:0:0:
448,192,24987,1,0,0:0:0:0:
192,192,25144,1,0,0:0:0:0:
192,192,25302,128,0,25460:0:0:0:0:
448,192,25302,1,2,0:0:0:0:
192,192,25618,1,0,0:0:0:0:
448,192,25618,1,2,0:0:0:0:
64,192,25776,1,0,0:0:0:0:
64,192,25934,1,2,0:0:0:0:
448,192,25934,1,4,0:0:0:0:
64,192,26250,1,8,0:0:0:0:
448,192,26250,1,0,0:0:0:0:
192,192,26329,1,8,0:0:0:0:
320,192,26329,1,0,0:0:0:0:
64,192,26408,1,8,0:0:0:0:
448,192,26408,1,0,0:0:0:0:
192,192,26487,1,8,0:0:0:0:
64,192,26565,128,8,26723:0:0:0:0:
320,192,26565,128,0,26723:0:0:0:0:
320,192,26881,1,2,0:0:0:0:
64,192,27039,1,8,0:0:0:0:
192,192,27039,1,0,0:0:0:0:
320,192,27118,1,8,0:0:0:0:
448,192,27118,1,0,0:0:0:0:
64,192,27197,1,8,0:0:0:0:
192,192,27197,1,0,0:0:0:0:
448,192,27276,1,8,0:0:0:0:
192,192,27355,1,8,0:0:0:0:
64,192,27434,1,8,0:0:0:0:
320,192,27434,1,0,0:0:0:0:
192,192,27513,1,8,0:0:0:0:
448,192,27513,1,0,0:0:0:0:
320,192,27671,1,0,0:0:0:0:
64,192,27829,1,2,0:0:0:0:
320,192,27829,128,0,27987:0:0:0:0:
64,192,28144,1,2,0:0:0:0:
320,192,28144,1,0,0:0:0:0:
192,192,28302,1,0,0:0:0:0:
192,192,28460,128,0,28618:0:0:0:0:
448,192,28460,1,2,0:0:0:0:
320,192,28776,1,8,0:0:0:0:
448,192,28776,1,0,0:0:0:0:
64,192,28855,1,8,0:0:0:0:
192,192,28855,1,0,0:0:0:0:
320,192,28934,1,8,0:0:0:0:
448,192,28934,1,0,0:0:0:0:
64,192,29013,1,8,0:0:0:0:
192,192,29092,128,8,29250:0:0:0:0:
320,192,29092,128,0,29250:0:0:0:0:
192,192,29408,1,2,0:0:0:0:
320,192,29565,1,8,0:0:0:0:
448,192,29565,1,0,0:0:0:0:
64,192,29644,1,8,0:0:0:0:
320,192,29723,1,8,0:0:0:0:
448,192,29723,1,0,0:0:0:0:
64,192,29802,1,8,0:0:0:0:
192,192,29802,1,0,0:0:0:0:
320,192,29881,1,8,0:0:0:0:
448,192,29960,1,8,0:0:0:0:
64,192,30039,1,4,3:0:0:0:
192,192,30039,1,4,3:0:0:0:
320,192,30039,1,4,3:0:0:0:
64,192,31302,1,8,0:0:0:0:
192,192,31302,1,0,0:0:0:0:
448,192,31302,1,0,0:0:0:0:
320,192,31460,1,2,0:0:0:0:
448,192,31460,1,0,0:0:0:0:
192,192,31618,1,2,0:0:0:0:
64,192,31776,1,8,0:0:0:0:
192,192,31776,1,0,0:0:0:0:
448,192,31776,1,0,0:0:0:0:
320,192,31934,1,2,0:0:0:0:
448,192,31934,1,0,0:0:0:0:
64,192,32092,1,2,0:0:0:0:
64,192,32250,1,8,0:0:0:0:
192,192,32250,1,0,0:0:0:0:
320,192,32250,1,0,0:0:0:0:
192,192,32408,1,2,0:0:0:0:
448,192,32408,1,0,0:0:0:0:
64,192,32565,1,8,0:0:0:0:
320,192,32565,1,0,0:0:0:0:
448,192,32565,1,0,0:0:0:0:
192,192,32723,1,2,0:0:0:0:
320,192,32881,1,2,0:0:0:0:
448,192,32881,1,0,0:0:0:0:
64,192,33039,1,8,0:0:0:0:
320,192,33039,1,0,0:0:0:0:
448,192,33039,1,0,0:0:0:0:
192,192,33197,1,2,0:0:0:0:
64,192,33355,1,2,0:0:0:0:
320,192,33355,1,0,0:0:0:0:
64,192,33513,1,8,0:0:0:0:
192,192,33513,1,0,0:0:0:0:
320,192,33513,1,0,0:0:0:0:
192,192,33671,1,2,0:0:0:0:
448,192,33671,1,0,0:0:0:0:
64,192,33829,1,8,0:0:0:0:
320,192,33829,1,0,0:0:0:0:
448,192,33829,1,0,0:0:0:0:
64,192,33987,1,2,0:0:0:0:
192,192,33987,1,0,0:0:0:0:
448,192,34144,1,2,0:0:0:0:
64,192,34302,1,8,0:0:0:0:
320,192,34302,1,0,0:0:0:0:
448,192,34302,1,0,0:0:0:0:
64,192,34460,1,2,0:0:0:0:
192,192,34460,1,0,0:0:0:0:
448,192,34618,1,2,0:0:0:0:
64,192,34776,1,8,0:0:0:0:
320,192,34776,1,0,0:0:0:0:
448,192,34776,1,0,0:0:0:0:
192,192,34934,1,2,0:0:0:0:
320,192,34934,1,0,0:0:0:0:
64,192,35092,1,8,0:0:0:0:
192,192,35092,1,0,0:0:0:0:
448,192,35092,1,0,0:0:0:0:
64,192,35250,1,2,0:0:0:0:
320,192,35250,1,0,0:0:0:0:
64,192,35408,1,2,0:0:0:0:
192,192,35565,1,8,0:0:0:0:
320,192,35565,1,0,0:0:0:0:
448,192,35565,1,0,0:0:0:0:
64,192,35723,1,2,0:0:0:0:
320,192,35723,1,0,0:0:0:0:
320,192,35881,1,2,0:0:0:0:
64,192,36039,1,8,0:0:0:0:
192,192,36039,1,0,0:0:0:0:
448,192,36039,1,0,0:0:0:0:
320,192,36197,1,2,0:0:0:0:
192,192,36276,1,2,0:0:0:0:
64,192,36355,1,8,0:0:0:0:
320,192,36355,1,0,0:0:0:0:
448,192,36355,1,0,0:0:0:0:
64,192,36513,1,2,0:0:0:0:
192,192,36671,1,2,0:0:0:0:
320,192,36671,1,0,0:0:0:0:
64,192,36829,1,8,0:0:0:0:
320,192,36829,1,0,0:0:0:0:
448,192,36829,1,0,0:0:0:0:
192,192,36987,1,2,0:0:0:0:
320,192,36987,1,0,0:0:0:0:
192,192,37144,1,2,0:0:0:0:
64,192,37302,1,8,0:0:0:0:
320,192,37302,1,0,0:0:0:0:
448,192,37302,1,0,0:0:0:0:
192,192,37460,1,2,0:0:0:0:
448,192,37460,1,0,0:0:0:0:
64,192,37618,1,8,0:0:0:0:
192,192,37618,1,0,0:0:0:0:
320,192,37618,1,0,0:0:0:0:
448,192,37776,1,2,0:0:0:0:
64,192,37934,1,2,0:0:0:0:
320,192,37934,1,0,0:0:0:0:
192,192,38092,1,8,0:0:0:0:
320,192,38092,1,0,0:0:0:0:
448,192,38092,1,0,0:0:0:0:
64,192,38250,1,2,0:0:0:0:
320,192,38250,1,0,0:0:0:0:
64,192,38408,1,2,0:0:0:0:
192,192,38565,1,8,0:0:0:0:
320,192,38565,1,0,0:0:0:0:
448,192,38565,1,0,0:0:0:0:
64,192,38723,1,2,0:0:0:0:
192,192,38723,1,0,0:0:0:0:
64,192,38881,1,8,0:0:0:0:
320,192,38881,1,0,0:0:0:0:
448,192,38881,1,0,0:0:0:0:
192,192,39039,1,2,0:0:0:0:
320,192,39197,1,2,0:0:0:0:
448,192,39197,1,0,0:0:0:0:
64,192,39355,1,8,0:0:0:0:
192,192,39355,1,0,0:0:0:0:
448,192,39355,1,0,0:0:0:0:
320,192,39513,1,2,0:0:0:0:
448,192,39513,1,0,0:0:0:0:
192,192,39671,1,2,0:0:0:0:
64,192,39829,1,8,0:0:0:0:
192,192,39829,1,0,0:0:0:0:
448,192,39829,1,0,0:0:0:0:
320,192,39987,1,2,0:0:0:0:
320,192,40144,1,2,0:0:0:0:
64,192,40302,1,8,0:0:0:0:
192,192,40302,1,0,0:0:0:0:
448,192,40302,1,0,0:0:0:0:
192,192,40460,128,4,40539:0:0:0:0:
320,192,40618,1,2,0:0:0:0:
64,192,40697,1,2,0:0:0:0:
192,192,40776,1,8,0:0:0:0:
448,192,40776,1,0,0:0:0:0:
64,192,40934,1,2,0:0:0:0:
320,192,40934,1,0,0:0:0:0:
64,192,41092,1,8,0:0:0:0:
192,192,41092,1,0,0:0:0:0:
448,192,41092,1,0,0:0:0:0:
320,192,41171,1,8,0:0:0:0:
192,192,41250,1,2,0:0:0:0:
64,192,41329,1,2,0:0:0:0:
192,192,41408,1,8,0:0:0:0:
320,192,41408,1,0,0:0:0:0:
448,192,41408,1,0,0:0:0:0:
64,192,41565,1,2,0:0:0:0:
320,192,41565,1,0,0:0:0:0:
192,192,41723,1,2,0:0:0:0:
192,192,41881,1,8,0:0:0:0:
320,192,41881,1,0,0:0:0:0:
448,192,41881,1,0,0:0:0:0:
64,192,42039,1,2,0:0:0:0:
320,192,42039,1,0,0:0:0:0:
448,192,42197,1,2,0:0:0:0:
64,192,42355,1,8,0:0:0:0:
320,192,42355,1,0,0:0:0:0:
448,192,42355,1,0,0:0:0:0:
64,192,42513,1,2,0:0:0:0:
192,192,42513,1,0,0:0:0:0:
192,192,42671,1,8,0:0:0:0:
320,192,42671,1,0,0:0:0:0:
448,192,42671,1,0,0:0:0:0:
64,192,42829,1,2,0:0:0:0:
320,192,42829,1,0,0:0:0:0:
64,192,42987,1,2,0:0:0:0:
192,192,42987,1,0,0:0:0:0:
192,192,43144,1,8,0:0:0:0:
320,192,43144,1,0,0:0:0:0:
448,192,43144,1,0,0:0:0:0:
64,192,43302,1,2,0:0:0:0:
320,192,43460,1,2,0:0:0:0:
448,192,43460,1,0,0:0:0:0:
64,192,43618,1,8,0:0:0:0:
192,192,43618,1,0,0:0:0:0:
448,192,43618,1,0,0:0:0:0:
192,192,43776,1,2,0:0:0:0:
320,192,43776,1,0,0:0:0:0:
64,192,43934,1,8,0:0:0:0:
320,192,43934,1,0,0:0:0:0:
448,192,43934,1,0,0:0:0:0:
192,192,44092,1,2,0:0:0:0:
448,192,44092,1,0,0:0:0:0:
320,192,44250,1,2,0:0:0:0:
64,192,44408,1,8,0:0:0:0:
320,192,44408,1,0,0:0:0:0:
448,192,44408,1,0,0:0:0:0:
192,192,44565,1,2,0:0:0:0:
448,192,44565,1,0,0:0:0:0:
64,192,44723,1,2,0:0:0:0:
64,192,44881,1,8,0:0:0:0:
320,192,44881,1,0,0:0:0:0:
448,192,44881,1,0,0:0:0:0:
192,192,45039,1,2,0:0:0:0:
320,192,45039,1,0,0:0:0:0:
64,192,45197,1,8,0:0:0:0:
192,192,45197,1,0,0:0:0:0:
448,192,45197,1,0,0:0:0:0:
64,192,45355,1,2,0:0:0:0:
320,192,45355,1,0,0:0:0:0:
64,192,45513,1,2,0:0:0:0:
192,192,45671,1,8,0:0:0:0:
320,192,45671,1,0,0:0:0:0:
448,192,45671,1,0,0:0:0:0:
64,192,45829,1,2,0:0:0:0:
448,192,45829,1,0,0:0:0:0:
448,192,45987,1,2,0:0:0:0:
64,192,46144,1,8,0:0:0:0:
192,192,46144,1,0,0:0:0:0:
320,192,46144,1,0,0:0:0:0:
448,192,46302,1,2,0:0:0:0:
320,192,46381,1,2,0:0:0:0:
64,192,46460,1,8,0:0:0:0:
192,192,46460,1,0,0:0:0:0:
448,192,46460,1,0,0:0:0:0:
320,192,46618,1,2,0:0:0:0:
64,192,46776,1,2,0:0:0:0:
192,192,46776,1,0,0:0:0:0:
64,192,46934,1,8,0:0:0:0:
320,192,46934,1,0,0:0:0:0:
448,192,46934,1,0,0:0:0:0:
192,192,47092,1,2,0:0:0:0:
320,192,47092,1,0,0:0:0:0:
192,192,47250,1,2,0:0:0:0:
64,192,47408,1,8,0:0:0:0:
320,192,47408,1,0,0:0:0:0:
448,192,47408,1,0,0:0:0:0:
192,192,47565,1,2,0:0:0:0:
448,192,47565,1,0,0:0:0:0:
64,192,47723,1,8,0:0:0:0:
192,192,47723,1,0,0:0:0:0:
320,192,47723,1,0,0:0:0:0:
448,192,47881,1,2,0:0:0:0:
192,192,48039,1,2,0:0:0:0:
320,192,48039,1,0,0:0:0:0:
64,192,48197,1,8,0:0:0:0:
192,192,48197,1,0,0:0:0:0:
448,192,48197,1,0,0:0:0:0:
320,192,48355,1,2,0:0:0:0:
448,192,48355,1,0,0:0:0:0:
320,192,48513,1,2,0:0:0:0:
64,192,48671,1,8,0:0:0:0:
192,192,48671,1,0,0:0:0:0:
448,192,48671,1,0,0:0:0:0:
64,192,48829,1,2,0:0:0:0:
320,192,48829,1,0,0:0:0:0:
192,192,48987,1,8,0:0:0:0:
320,192,48987,1,0,0:0:0:0:
448,192,48987,1,0,0:0:0:0:
64,192,49144,1,2,0:0:0:0:
192,192,49302,1,2,0:0:0:0:
448,192,49302,1,0,0:0:0:0:
64,192,49460,1,8,0:0:0:0:
192,192,49460,1,0,0:0:0:0:
320,192,49460,1,0,0:0:0:0:
320,192,49618,1,2,0:0:0:0:
448,192,49618,1,0,0:0:0:0:
64,192,49776,1,8,0:0:0:0:
192,192,49776,1,0,0:0:0:0:
320,192,49855,1,8,0:0:0:0:
448,192,49855,1,0,0:0:0:0:
64,192,49934,1,8,0:0:0:0:
192,192,49934,1,0,0:0:0:0:
448,192,50013,1,8,0:0:0:0:
192,192,50092,1,2,0:0:0:0:
320,192,50092,1,0,0:0:0:0:
64,192,50250,1,8,0:0:0:0:
448,192,50250,1,0,0:0:0:0:
192,192,50329,1,8,0:0:0:0:
320,192,50329,1,0,0:0:0:0:
64,192,50408,1,8,0:0:0:0:
448,192,50408,1,0,0:0:0:0:
192,192,50487,1,8,0:0:0:0:
320,192,50565,1,2,0:0:0:0:
448,192,50565,1,0,0:0:0:0:
192,192,50723,1,2,0:0:0:0:
448,192,50802,1,2,0:0:0:0:
64,192,50881,1,2,0:0:0:0:
320,192,50960,1,2,0:0:0:0:
64,192,51039,1,8,0:0:0:0:
192,192,51039,1,0,0:0:0:0:
320,192,51118,1,8,0:0:0:0:
448,192,51118,1,0,0:0:0:0:
64,192,51197,1,8,0:0:0:0:
192,192,51197,1,0,0:0:0:0:
320,192,51276,1,8,0:0:0:0:
448,192,51276,1,0,0:0:0:0:
64,192,51355,1,8,0:0:0:0:
192,192,51355,1,0,0:0:0:0:
448,192,51434,1,8,0:0:0:0:
64,192,51513,128,2,52460:0:0:0:0:
320,192,51513,128,0,51671:0:0:0:0:
448,192,51671,128,0,51829:0:0:0:0:
320,192,51829,128,0,51987:0:0:0:0:
192,192,51987,128,0,52144:0:0:0:0:
448,192,52144,1,4,0:0:0:0:
192,192,52302,128,0,52460:0:0:0:0:
320,192,52460,1,2,0:0:0:0:
192,192,52539,1,2,0:0:0:0:
320,192,52618,1,2,0:0:0:0:
192,192,52697,1,2,0:0:0:0:
64,192,52776,1,8,0:0:0:0:
448,192,52776,1,0,0:0:0:0:
448,192,53092,1,0,0:0:0:0:
192,192,53250,1,2,0:0:0:0:
192,192,53565,1,0,0:0:0:0:
320,192,53723,1,0,0:0:0:0:
192,192,53881,1,2,0:0:0:0:
320,192,53960,1,2,0:0:0:0:
64,192,54039,128,2,54434:0:0:0:0:
448,192,54039,128,4,54355:0:0:0:0:
320,192,54355,128,0,54671:0:0:0:0:
64,192,54513,128,2,54987:0:0:0:0:
192,192,54671,128,4,54829:0:0:0:0:
448,192,54829,128,0,54987:0:0:0:0:
320,192,54987,1,2,0:0:0:0:
64,192,55065,1,2,0:0:0:0:
320,192,55144,1,2,0:0:0:0:
448,192,55223,1,2,0:0:0:0:
64,192,55302,1,8,0:0:0:0:
192,192,55302,1,0,0:0:0:0:
320,192,55618,1,2,0:0:0:0:
64,192,55776,1,8,0:0:0:0:
448,192,55776,1,0,0:0:0:0:
320,192,56092,1,2,0:0:0:0:
192,192,56250,1,0,0:0:0:0:
64,192,56408,1,8,0:0:0:0:
448,192,56408,1,0,0:0:0:0:
192,192,56487,1,8,0:0:0:0:
64,192,56565,128,2,56723:0:0:0:0:
320,192,56565,128,0,57513:0:0:0:0:
448,192,56723,128,0,56881:0:0:0:0:
192,192,56881,128,0,57039:0:0:0:0:
64,192,57039,128,2,57197:0:0:0:0:
448,192,57197,1,4,0:0:0:0:
64,192,57355,128,0,57513:0:0:0:0:
448,192,57513,1,2,0:0:0:0:
64,192,57592,1,2,0:0:0:0:
320,192,57671,1,2,0:0:0:0:
192,192,57750,1,2,0:0:0:0:
64,192,57829,1,8,0:0:0:0:
448,192,57829,1,0,0:0:0:0:
192,192,57987,1,0,0:0:0:0:
192,192,58144,128,0,58460:0:0:0:0:
448,192,58460,1,4,0:0:0:0:
320,192,58776,1,0,0:0:0:0:
192,192,58934,1,2,0:0:0:0:
64,192,59013,1,2,0:0:0:0:
192,192,59092,128,4,59408:0:0:0:0:
448,192,59092,128,2,59487:0:0:0:0:
64,192,59408,128,0,59723:0:0:0:0:
448,192,59565,128,2,60039:0:0:0:0:
192,192,59723,128,4,59881:0:0:0:0:
320,192,59881,128,0,60039:0:0:0:0:
64,192,60039,1,2,0:0:0:0:
320,192,60118,1,2,0:0:0:0:
192,192,60197,1,2,0:0:0:0:
64,192,60276,1,2,0:0:0:0:
320,192,60355,1,8,0:0:0:0:
448,192,60355,1,0,0:0:0:0:
320,192,60460,1,8,0:0:0:0:
448,192,60460,1,0,0:0:0:0:
192,192,60565,1,8,0:0:0:0:
64,192,60671,1,2,0:0:0:0:
448,192,60671,1,4,0:0:0:0:
64,192,60987,1,8,0:0:0:0:
192,192,60987,1,0,0:0:0:0:
64,192,61092,1,8,0:0:0:0:
192,192,61092,1,0,0:0:0:0:
448,192,61197,1,8,0:0:0:0:
64,192,61302,1,2,0:0:0:0:
320,192,61302,1,4,0:0:0:0:
64,192,61618,1,4,0:0:0:0:
192,192,61618,128,2,62565:0:0:0:0:
448,192,61618,128,0,62092:0:0:0:0:
320,192,62092,128,0,62171:0:0:0:0:
320,192,62250,128,4,62329:0:0:0:0:
320,192,62408,128,0,62565:0:0:0:0:
64,192,62565,1,2,0:0:0:0:
320,192,62644,1,2,0:0:0:0:
64,192,62723,1,2,0:0:0:0:
192,192,62802,1,2,0:0:0:0:
320,192,62881,1,8,0:0:0:0:
448,192,62881,1,0,0:0:0:0:
192,192,63197,1,0,0:0:0:0:
64,192,63355,1,2,0:0:0:0:
320,192,63671,1,0,0:0:0:0:
64,192,63829,1,0,0:0:0:0:
192,192,63987,1,2,0:0:0:0:
320,192,64065,1,2,0:0:0:0:
64,192,64144,128,4,64618:0:0:0:0:
448,192,64144,128,2,64539:0:0:0:0:
192,192,64618,128,2,64697:0:0:0:0:
448,192,64618,128,0,65092:0:0:0:0:
192,192,64776,128,4,64855:0:0:0:0:
192,192,64934,128,0,65092:0:0:0:0:
64,192,65092,1,2,0:0:0:0:
320,192,65171,1,2,0:0:0:0:
192,192,65250,1,2,0:0:0:0:
448,192,65329,1,2,0:0:0:0:
64,192,65408,1,8,0:0:0:0:
192,192,65408,1,0,0:0:0:0:
320,192,65881,1,8,0:0:0:0:
64,192,66039,1,2,0:0:0:0:
192,192,66039,1,4,0:0:0:0:
320,192,66144,1,8,0:0:0:0:
448,192,66144,1,0,0:0:0:0:
320,192,66250,1,8,0:0:0:0:
192,192,66355,1,8,0:0:0:0:
64,192,66460,1,8,0:0:0:0:
448,192,66460,1,0,0:0:0:0:
64,192,66565,1,8,0:0:0:0:
192,192,66671,128,2,67065:0:0:0:0:
320,192,66671,1,0,0:0:0:0:
448,192,66829,128,0,67065:0:0:0:0:
192,192,67144,128,2,67618:0:0:0:0:
448,192,67144,128,0,67223:0:0:0:0:
448,192,67302,128,4,67381:0:0:0:0:
448,192,67460,128,0,67618:0:0:0:0:
64,192,67618,1,2,0:0:0:0:
320,192,67697,1,2,0:0:0:0:
192,192,67776,1,2,0:0:0:0:
320,192,67855,1,2,0:0:0:0:
64,192,67934,1,8,0:0:0:0:
448,192,67934,1,0,0:0:0:0:
320,192,68250,1,0,0:0:0:0:
192,192,68408,1,2,0:0:0:0:
448,192,68565,1,4,0:0:0:0:
64,192,68881,1,0,0:0:0:0:
320,192,69039,1,2,0:0:0:0:
64,192,69118,1,2,0:0:0:0:
192,192,69197,1,8,0:0:0:0:
320,192,69197,1,0,0:0:0:0:
448,192,69355,1,2,0:0:0:0:
448,192,69513,1,2,0:0:0:0:
192,192,69671,1,8,0:0:0:0:
320,192,69671,1,0,0:0:0:0:
64,192,69829,1,2,0:0:0:0:
192,192,69908,1,2,0:0:0:0:
320,192,69987,1,2,0:0:0:0:
448,192,69987,1,0,0:0:0:0:
64,192,70065,1,8,0:0:0:0:
320,192,70144,1,8,0:0:0:0:
448,192,70144,1,0,0:0:0:0:
64,192,70223,1,8,0:0:0:0:
192,192,70223,1,0,0:0:0:0:
448,192,70302,1,2,0:0:0:0:
320,192,70381,1,2,0:0:0:0:
64,192,70460,1,8,0:0:0:0:
448,192,70460,1,0,0:0:0:0:
192,192,71092,128,0,71723:0:0:0:0:
64,192,71723,128,2,72118:0:0:0:0:
448,192,71723,1,0,0:0:0:0:
320,192,72039,1,0,0:0:0:0:
64,192,72197,128,2,72671:0:0:0:0:
192,192,72197,1,0,0:0:0:0:
448,192,72355,1,4,0:0:0:0:
448,192,72513,1,0,0:0:0:0:
320,192,72671,1,2,0:0:0:0:
192,192,72750,1,2,0:0:0:0:
448,192,72829,1,2,0:0:0:0:
192,192,72908,1,2,0:0:0:0:
64,192,72987,1,8,0:0:0:0:
320,192,72987,128,0,73144:0:0:0:0:
448,192,73144,128,0,73302:0:0:0:0:
320,192,73302,128,0,73460:0:0:0:0:
192,192,73460,128,0,73618:0:0:0:0:
64,192,73618,128,4,73934:0:0:0:0:
448,192,73934,1,0,0:0:0:0:
192,192,74092,1,2,0:0:0:0:
320,192,74171,1,2,0:0:0:0:
64,192,74250,1,2,0:0:0:0:
448,192,74250,128,4,74644:0:0:0:0:
192,192,74565,1,0,0:0:0:0:
320,192,74723,1,2,0:0:0:0:
448,192,74723,128,0,75197:0:0:0:0:
64,192,74881,1,4,0:0:0:0:
192,192,75197,1,2,0:0:0:0:
448,192,75276,1,2,0:0:0:0:
192,192,75355,1,2,0:0:0:0:
64,192,75434,1,2,0:0:0:0:
320,192,75513,1,8,0:0:0:0:
448,192,75513,1,0,0:0:0:0:
192,192,75671,128,2,75908:0:0:0:0:
320,192,75671,128,0,75908:0:0:0:0:
192,192,75987,128,8,76223:0:0:0:0:
320,192,75987,128,0,76539:0:0:0:0:
192,192,76302,128,2,76618:0:0:0:0:
320,192,76618,1,2,0:0:0:0:
64,192,76776,128,4,77171:0:0:0:0:
448,192,76776,128,0,77408:0:0:0:0:
64,192,77250,128,2,77723:0:0:0:0:
320,192,77408,1,4,0:0:0:0:
320,192,77723,1,2,0:0:0:0:
448,192,77802,1,2,0:0:0:0:
192,192,77881,1,2,0:0:0:0:
320,192,77960,1,2,0:0:0:0:
64,192,78039,128,8,78671:0:0:0:0:
192,192,78039,1,0,0:0:0:0:
320,192,78671,1,4,0:0:0:0:
448,192,78829,128,0,78987:0:0:0:0:
64,192,78987,128,0,79171:0:0:0:0:
448,192,79171,1,2,0:0:0:0:
320,192,79223,1,2,0:0:0:0:
192,192,79302,128,2,79697:0:0:0:0:
448,192,79302,128,4,79934:0:0:0:0:
192,192,79776,128,2,80250:0:0:0:0:
320,192,79934,1,4,0:0:0:0:
64,192,80250,1,2,0:0:0:0:
320,192,80329,1,2,0:0:0:0:
192,192,80408,1,2,0:0:0:0:
64,192,80487,1,2,0:0:0:0:
320,192,80565,1,8,0:0:0:0:
448,192,80592,1,8,0:0:0:0:
192,192,80723,128,2,80881:0:0:0:0:
320,192,80723,128,4,80881:0:0:0:0:
192,192,81039,1,2,0:0:0:0:
320,192,81197,1,8,0:0:0:0:
448,192,81223,1,8,0:0:0:0:
192,192,81355,128,2,81513:0:0:0:0:
320,192,81355,128,4,81513:0:0:0:0:
320,192,81671,1,0,0:0:0:0:
64,192,81829,128,2,87039:0:0:0:0:
192,192,81829,128,4,89408:0:0:0:0:
